osu file format v14

[General]
AudioFilename: audio.mp3
AudioLeadIn: 0
PreviewTime: 26421
Countdown: 0
SampleSet: Normal
StackLeniency: 0.7
Mode: 1
LetterboxInBreaks: 0
WidescreenStoryboard: 0

[Editor]
DistanceSpacing: 1.4
BeatDivisor: 4
GridSize: 4
TimelineZoom: 1.8

[Metadata]
Title:The Good Left Undone
TitleUnicode:The Good Left Undone
Artist:Rise Against
ArtistUnicode:Rise Against
Creator:Chromoxx
Version:Inner Oni
Source:
Tags:the sufferer & and witness metal punk darkvortex
BeatmapID:979772
BeatmapSetID:457264

[Difficulty]
HPDrainRate:6
CircleSize:5
OverallDifficulty:6
ApproachRate:5
SliderMultiplier:1.4
SliderTickRate:1

[Events]
//Background and Video events
0,0,"hi please rank my map thank u.jpg",0,0
//Break Periods
//Storyboard Layer 0 (Background)
//Storyboard Layer 1 (Fail)
//Storyboard Layer 2 (Pass)
//Storyboard Layer 3 (Foreground)
//Storyboard Sound Samples

[TimingPoints]
219,302.076777847703,4,1,0,100,1,0
4901,304.568527918782,4,1,0,100,1,0
14647,304.568527918782,4,1,0,100,1,8
14695,304.568527918782,4,1,0,100,1,0
26725,-100,4,1,0,100,0,1
26878,302.076777847703,4,1,0,100,1,1
40169,-100,4,1,0,100,0,0
41269,500,4,1,0,100,1,0
41269,-66.6666666666667,4,1,0,100,0,0
57269,500,4,1,0,100,1,8
57477,302.076777847703,4,1,0,100,1,0
62159,304.568527918782,4,1,0,100,1,0
71905,304.568527918782,4,1,0,100,1,8
71923,304.568527918782,4,1,0,100,1,0
83953,-100,4,1,0,100,0,1
84088,302.076777847703,4,1,0,100,1,1
97379,-100,4,1,0,100,0,0
98512,500,4,1,0,100,1,0
98512,-66.6666666666667,4,1,0,100,0,0
106512,498.960498960499,4,1,0,100,1,0
106512,-66.6666666666667,4,1,0,100,0,0
113497,508.474576271186,4,1,0,100,1,8
113497,-65.359477124183,4,1,0,100,0,8
114513,500,4,1,0,100,1,0
114513,-66.6666666666667,4,1,0,100,0,0
122513,498.960498960499,4,1,0,100,1,0
122513,-66.6666666666667,4,1,0,100,0,0

[HitObjects]
343,232,219,5,8,0:0:0:0:
248,280,370,1,0,0:0:0:0:
343,232,521,1,0,0:0:0:0:
248,280,672,1,8,0:0:0:0:
248,280,823,1,0,0:0:0:0:
248,280,974,1,0,0:0:0:0:
248,280,1125,1,8,0:0:0:0:
322,216,1427,1,8,0:0:0:0:
318,205,1578,1,8,0:0:0:0:
318,205,1729,1,0,0:0:0:0:
344,188,1880,1,8,0:0:0:0:
344,188,2031,1,8,0:0:0:0:
344,188,2182,1,0,0:0:0:0:
344,188,2333,1,8,0:0:0:0:
232,248,2635,1,8,0:0:0:0:
252,188,2711,1,8,0:0:0:0:
232,248,2786,1,0,0:0:0:0:
320,228,2862,1,0,0:0:0:0:
272,224,2937,1,0,0:0:0:0:
272,224,3013,1,0,0:0:0:0:
272,224,3088,1,8,0:0:0:0:
288,240,3164,1,8,0:0:0:0:
312,204,3239,1,0,0:0:0:0:
312,204,3315,1,0,0:0:0:0:
328,252,3390,1,0,0:0:0:0:
272,224,3466,1,0,0:0:0:0:
272,224,3541,1,8,0:0:0:0:
300,268,3843,1,8,0:0:0:0:
300,268,3919,1,8,0:0:0:0:
300,268,3994,1,0,0:0:0:0:
300,268,4070,1,0,0:0:0:0:
300,268,4145,1,0,0:0:0:0:
300,268,4221,1,0,0:0:0:0:
300,268,4297,1,8,0:0:0:0:
364,304,4372,1,8,0:0:0:0:
300,268,4448,1,8,0:0:0:0:
364,304,4523,1,0,0:0:0:0:
300,268,4599,1,8,0:0:0:0:
364,304,4674,1,0,0:0:0:0:
296,264,4750,1,8,0:0:0:0:
340,184,5053,1,4,0:0:0:0:
296,216,5205,1,4,0:0:0:0:
344,276,5357,1,8,0:0:0:0:
344,276,5510,1,0,0:0:0:0:
344,276,5586,1,0,0:0:0:0:
344,276,5662,1,8,0:0:0:0:
344,276,5814,1,8,0:0:0:0:
344,276,5966,1,0,0:0:0:0:
344,276,6119,1,0,0:0:0:0:
344,276,6271,1,12,0:0:0:0:
220,168,6423,1,8,0:0:0:0:
224,172,6576,1,4,0:0:0:0:
224,172,6728,1,0,0:0:0:0:
224,172,6880,1,12,0:0:0:0:
224,172,7032,1,8,0:0:0:0:
224,172,7185,1,4,0:0:0:0:
376,172,7489,1,12,0:0:0:0:
248,244,7642,1,0,0:0:0:0:
274,270,7794,1,8,0:0:0:0:
374,296,7946,1,8,0:0:0:0:
374,296,8022,1,8,0:0:0:0:
374,296,8098,1,0,0:0:0:0:
374,296,8251,1,0,0:0:0:0:
374,296,8403,1,8,0:0:0:0:
374,296,8555,1,8,0:0:0:0:
374,296,8708,1,4,0:0:0:0:
366,312,8860,1,0,0:0:0:0:
366,312,9012,1,12,0:0:0:0:
366,312,9164,1,8,0:0:0:0:
366,312,9317,1,4,0:0:0:0:
366,312,9469,1,0,0:0:0:0:
366,312,9621,1,12,0:0:0:0:
333,194,9926,1,4,0:0:0:0:
326,207,10078,1,0,0:0:0:0:
383,289,10230,1,8,0:0:0:0:
383,289,10383,1,0,0:0:0:0:
383,289,10459,1,0,0:0:0:0:
383,289,10535,1,8,0:0:0:0:
383,289,10687,1,0,0:0:0:0:
383,289,10840,1,8,0:0:0:0:
335,275,11144,1,12,0:0:0:0:
335,275,11296,1,0,0:0:0:0:
335,275,11449,1,8,0:0:0:0:
335,275,11601,1,8,0:0:0:0:
335,275,11677,1,8,0:0:0:0:
335,275,11753,1,0,0:0:0:0:
335,275,11906,1,0,0:0:0:0:
335,275,12058,1,8,0:0:0:0:
354,223,12362,1,4,0:0:0:0:
346,280,12515,1,0,0:0:0:0:
346,280,12667,1,8,0:0:0:0:
346,280,12743,1,0,0:0:0:0:
346,280,12819,1,8,0:0:0:0:
346,280,12895,1,8,0:0:0:0:
346,280,12972,1,0,0:0:0:0:
353,243,13124,1,0,0:0:0:0:
352,239,13276,1,8,0:0:0:0:
124,189,13428,1,4,0:0:0:0:
409,270,13733,1,4,0:0:0:0:
337,299,14038,1,12,0:0:0:0:
337,299,14190,1,4,0:0:0:0:
337,299,14342,1,4,0:0:0:0:
337,299,14494,1,12,0:0:0:0:
365,258,14847,1,4,0:0:0:0:
198,200,14999,1,0,0:0:0:0:
198,200,15151,1,8,0:0:0:0:
198,200,15227,1,8,0:0:0:0:
198,200,15304,1,0,0:0:0:0:
198,200,15380,1,0,0:0:0:0:
198,200,15456,1,8,0:0:0:0:
362,274,15608,1,8,0:0:0:0:
118,143,15760,1,0,0:0:0:0:
118,143,15913,1,0,0:0:0:0:
303,260,16065,1,12,0:0:0:0:
303,260,16217,1,8,0:0:0:0:
303,260,16370,1,4,0:0:0:0:
303,260,16522,1,0,0:0:0:0:
303,260,16674,1,12,0:0:0:0:
303,260,16826,1,8,0:0:0:0:
303,260,16979,1,4,0:0:0:0:
391,211,17283,1,12,0:0:0:0:
349,248,17436,1,0,0:0:0:0:
349,248,17588,1,8,0:0:0:0:
349,248,17664,1,0,0:0:0:0:
349,248,17740,1,8,0:0:0:0:
349,248,17816,1,8,0:0:0:0:
349,248,17892,1,0,0:0:0:0:
349,248,18045,1,0,0:0:0:0:
349,248,18197,1,8,0:0:0:0:
349,248,18349,1,8,0:0:0:0:
349,248,18502,1,4,0:0:0:0:
349,248,18654,1,0,0:0:0:0:
349,248,18806,1,12,0:0:0:0:
349,248,18958,1,8,0:0:0:0:
349,248,19111,1,4,0:0:0:0:
349,248,19263,1,0,0:0:0:0:
349,248,19415,1,12,0:0:0:0:
289,181,19720,1,4,0:0:0:0:
289,181,19872,1,0,0:0:0:0:
289,181,20024,1,8,0:0:0:0:
289,181,20101,1,8,0:0:0:0:
289,181,20177,1,0,0:0:0:0:
289,181,20253,1,0,0:0:0:0:
289,181,20329,1,8,0:0:0:0:
289,181,20481,1,0,0:0:0:0:
289,181,20634,1,8,0:0:0:0:
306,150,20938,1,12,0:0:0:0:
308,259,21090,1,0,0:0:0:0:
308,259,21243,1,8,0:0:0:0:
308,259,21319,1,0,0:0:0:0:
308,259,21395,1,8,0:0:0:0:
308,259,21471,1,8,0:0:0:0:
308,259,21547,1,0,0:0:0:0:
308,259,21700,1,0,0:0:0:0:
308,259,21852,1,8,0:0:0:0:
297,220,22156,1,4,0:0:0:0:
268,228,22309,1,0,0:0:0:0:
268,228,22461,1,8,0:0:0:0:
268,228,22537,1,0,0:0:0:0:
268,228,22613,1,8,0:0:0:0:
268,228,22689,1,8,0:0:0:0:
268,228,22766,1,0,0:0:0:0:
268,228,22842,1,0,0:0:0:0:
268,228,22918,1,0,0:0:0:0:
268,228,22994,1,0,0:0:0:0:
268,228,23070,1,8,0:0:0:0:
371,217,23222,1,4,0:0:0:0:
236,177,23527,1,4,0:0:0:0:
236,177,23832,1,12,0:0:0:0:
236,177,23984,1,4,0:0:0:0:
236,177,24136,1,4,0:0:0:0:
236,177,24288,1,12,0:0:0:0:
345,213,24441,1,0,0:0:0:0:
274,231,24593,1,8,0:0:0:0:
274,231,24745,1,0,0:0:0:0:
274,231,24821,1,0,0:0:0:0:
274,231,24898,1,8,0:0:0:0:
274,231,25050,1,0,0:0:0:0:
274,231,25202,1,8,0:0:0:0:
274,231,25354,1,0,0:0:0:0:
274,231,25431,1,0,0:0:0:0:
274,231,25507,1,8,0:0:0:0:
246,146,25659,1,8,0:0:0:0:
292,262,25811,1,0,0:0:0:0:
292,262,25964,1,0,0:0:0:0:
292,262,26040,1,0,0:0:0:0:
292,262,26116,1,8,0:0:0:0:
292,262,26192,1,0,0:0:0:0:
292,262,26268,1,8,0:0:0:0:
294,143,26344,1,8,0:0:0:0:
303,234,26420,1,0,0:0:0:0:
225,143,26573,1,0,0:0:0:0:
229,143,26725,1,12,0:0:0:0:
202,134,27029,1,0,0:0:0:0:
205,136,27180,1,8,0:0:0:0:
206,136,27331,1,0,0:0:0:0:
206,136,27406,1,0,0:0:0:0:
206,136,27482,1,8,0:0:0:0:
221,190,27633,1,0,0:0:0:0:
221,190,27784,1,8,0:0:0:0:
221,190,27935,1,8,0:0:0:0:
166,186,28010,1,8,0:0:0:0:
166,186,28086,1,0,0:0:0:0:
351,270,28237,1,0,0:0:0:0:
351,270,28388,1,8,0:0:0:0:
351,270,28539,1,8,0:0:0:0:
351,270,28614,1,8,0:0:0:0:
351,270,28690,1,0,0:0:0:0:
351,270,28765,1,8,0:0:0:0:
351,270,28841,1,0,0:0:0:0:
351,270,28917,1,0,0:0:0:0:
351,270,28992,1,8,0:0:0:0:
261,202,29143,1,8,0:0:0:0:
278,242,29294,1,0,0:0:0:0:
278,242,29370,1,0,0:0:0:0:
278,242,29445,1,0,0:0:0:0:
278,242,29521,1,0,0:0:0:0:
278,242,29596,1,8,0:0:0:0:
278,242,29672,1,0,0:0:0:0:
278,242,29747,1,8,0:0:0:0:
278,242,29823,1,8,0:0:0:0:
278,242,29898,1,0,0:0:0:0:
278,242,29974,1,0,0:0:0:0:
278,242,30049,1,0,0:0:0:0:
278,242,30125,1,0,0:0:0:0:
278,242,30200,1,8,0:0:0:0:
278,242,30276,1,0,0:0:0:0:
278,242,30351,1,8,0:0:0:0:
278,242,30427,1,8,0:0:0:0:
235,211,30502,1,0,0:0:0:0:
235,211,30578,1,8,0:0:0:0:
235,211,30653,1,0,0:0:0:0:
235,211,30729,1,0,0:0:0:0:
235,211,30804,1,8,0:0:0:0:
235,211,30880,1,8,0:0:0:0:
235,211,30956,1,0,0:0:0:0:
235,211,31031,1,0,0:0:0:0:
235,211,31107,1,8,0:0:0:0:
235,211,31182,1,0,0:0:0:0:
235,211,31258,1,8,0:0:0:0:
235,211,31333,1,0,0:0:0:0:
235,211,31409,1,8,0:0:0:0:
235,211,31484,1,8,0:0:0:0:
235,211,31560,1,0,0:0:0:0:
322,224,31862,1,0,0:0:0:0:
272,204,32013,1,8,0:0:0:0:
155,124,32164,1,0,0:0:0:0:
204,120,32239,1,0,0:0:0:0:
204,120,32315,1,8,0:0:0:0:
204,120,32466,1,0,0:0:0:0:
250,154,32617,1,8,0:0:0:0:
320,241,32768,1,8,0:0:0:0:
320,241,32844,1,8,0:0:0:0:
320,241,32919,1,0,0:0:0:0:
320,241,33070,1,0,0:0:0:0:
320,241,33221,1,8,0:0:0:0:
349,281,33372,1,0,0:0:0:0:
349,281,33448,1,0,0:0:0:0:
349,281,33523,1,8,0:0:0:0:
349,281,33599,1,8,0:0:0:0:
349,281,33674,1,0,0:0:0:0:
349,281,33750,1,0,0:0:0:0:
349,281,33825,1,8,0:0:0:0:
349,281,33976,1,8,0:0:0:0:
278,242,34127,1,0,0:0:0:0:
278,242,34203,1,0,0:0:0:0:
278,242,34278,1,0,0:0:0:0:
278,242,34354,1,0,0:0:0:0:
278,242,34429,1,0,0:0:0:0:
278,242,34505,1,0,0:0:0:0:
278,242,34580,1,0,0:0:0:0:
278,242,34656,1,0,0:0:0:0:
278,242,34731,1,8,0:0:0:0:
278,242,34807,1,8,0:0:0:0:
278,242,34883,1,8,0:0:0:0:
278,242,34958,1,8,0:0:0:0:
278,242,35034,1,8,0:0:0:0:
278,242,35109,1,8,0:0:0:0:
278,242,35185,1,8,0:0:0:0:
278,242,35260,1,8,0:0:0:0:
235,211,35336,1,0,0:0:0:0:
235,211,35411,1,0,0:0:0:0:
235,211,35487,1,8,0:0:0:0:
235,211,35562,1,0,0:0:0:0:
235,211,35638,1,8,0:0:0:0:
235,211,35713,1,8,0:0:0:0:
235,211,35789,1,0,0:0:0:0:
235,211,35864,1,0,0:0:0:0:
235,211,35940,1,8,0:0:0:0:
235,211,36015,1,0,0:0:0:0:
235,211,36091,1,8,0:0:0:0:
235,211,36166,1,0,0:0:0:0:
235,211,36242,1,8,0:0:0:0:
235,211,36317,1,8,0:0:0:0:
235,211,36393,1,0,0:0:0:0:
225,132,36695,1,0,0:0:0:0:
233,141,36846,1,8,0:0:0:0:
338,255,36997,1,0,0:0:0:0:
338,255,37073,1,0,0:0:0:0:
338,255,37148,1,8,0:0:0:0:
338,255,37299,1,0,0:0:0:0:
332,267,37450,1,8,0:0:0:0:
333,269,37601,1,8,0:0:0:0:
333,269,37752,1,4,0:0:0:0:
255,218,37903,1,0,0:0:0:0:
255,218,38054,1,8,0:0:0:0:
276,252,38205,1,0,0:0:0:0:
269,244,38281,1,8,0:0:0:0:
269,244,38356,1,0,0:0:0:0:
276,252,38507,1,0,0:0:0:0:
276,252,38658,1,8,0:0:0:0:
276,252,38810,1,8,0:0:0:0:
276,252,38961,1,4,0:0:0:0:
145,129,39112,1,0,0:0:0:0:
189,151,39263,1,8,0:0:0:0:
199,155,39414,1,0,0:0:0:0:
200,155,39489,1,0,0:0:0:0:
200,155,39565,1,8,0:0:0:0:
201,156,39716,1,0,0:0:0:0:
201,156,39867,1,8,0:0:0:0:
201,157,40018,1,8,0:0:0:0:
201,157,40169,1,4,0:0:0:0:
264,243,41269,1,12,0:0:0:0:
269,209,41519,1,8,0:0:0:0:
269,209,41769,1,0,0:0:0:0:
359,274,42019,1,0,0:0:0:0:
359,274,42144,1,0,0:0:0:0:
359,274,42269,1,8,0:0:0:0:
321,139,42519,1,0,0:0:0:0:
304,151,42769,1,8,0:0:0:0:
304,151,42894,1,8,0:0:0:0:
309,290,43019,1,8,0:0:0:0:
309,290,43144,1,8,0:0:0:0:
309,290,43269,1,4,0:0:0:0:
309,290,43519,1,0,0:0:0:0:
245,117,43769,1,8,0:0:0:0:
329,128,44019,1,0,0:0:0:0:
329,104,44144,1,8,0:0:0:0:
325,103,44269,1,0,0:0:0:0:
335,127,44519,1,8,0:0:0:0:
158,154,44769,1,0,0:0:0:0:
189,152,44894,1,0,0:0:0:0:
194,152,45019,1,0,0:0:0:0:
196,156,45144,1,0,0:0:0:0:
197,159,45269,1,12,0:0:0:0:
189,152,45519,1,8,0:0:0:0:
198,151,45769,1,0,0:0:0:0:
336,265,46019,1,0,0:0:0:0:
336,265,46144,1,0,0:0:0:0:
336,265,46269,1,8,0:0:0:0:
293,101,46519,1,0,0:0:0:0:
254,188,46769,1,8,0:0:0:0:
328,251,46894,1,0,0:0:0:0:
254,188,47019,1,8,0:0:0:0:
329,251,47144,1,8,0:0:0:0:
329,251,47269,1,4,0:0:0:0:
275,190,47519,1,0,0:0:0:0:
324,131,47769,1,8,0:0:0:0:
332,107,48019,1,0,0:0:0:0:
330,144,48144,1,8,0:0:0:0:
328,119,48269,1,0,0:0:0:0:
330,120,48519,1,8,0:0:0:0:
335,131,48769,1,0,0:0:0:0:
330,117,48894,1,8,0:0:0:0:
328,120,49019,1,0,0:0:0:0:
335,131,49144,1,0,0:0:0:0:
326,124,49269,1,12,0:0:0:0:
316,106,49519,1,8,0:0:0:0:
284,287,49769,1,0,0:0:0:0:
268,277,50019,1,0,0:0:0:0:
284,287,50144,1,0,0:0:0:0:
284,287,50269,1,8,0:0:0:0:
370,311,50519,1,0,0:0:0:0:
370,311,50769,1,8,0:0:0:0:
370,311,50894,1,8,0:0:0:0:
370,311,51019,1,8,0:0:0:0:
370,311,51144,1,8,0:0:0:0:
370,311,51269,1,4,0:0:0:0:
223,185,51519,1,0,0:0:0:0:
297,122,51769,1,8,0:0:0:0:
296,129,52019,1,0,0:0:0:0:
306,118,52144,1,8,0:0:0:0:
304,122,52269,1,0,0:0:0:0:
324,114,52519,1,8,0:0:0:0:
321,190,52769,1,0,0:0:0:0:
321,190,52894,1,0,0:0:0:0:
321,190,53019,1,0,0:0:0:0:
322,183,53144,1,0,0:0:0:0:
305,197,53269,1,12,0:0:0:0:
278,143,53519,1,8,0:0:0:0:
291,131,53769,1,0,0:0:0:0:
261,230,54019,1,0,0:0:0:0:
261,230,54144,1,0,0:0:0:0:
261,230,54269,1,8,0:0:0:0:
261,230,54519,1,0,0:0:0:0:
261,230,54769,1,8,0:0:0:0:
261,230,54894,1,0,0:0:0:0:
261,230,55019,1,8,0:0:0:0:
261,230,55144,1,8,0:0:0:0:
261,230,55269,1,4,0:0:0:0:
309,161,55519,1,0,0:0:0:0:
309,161,55769,1,8,0:0:0:0:
378,269,56019,1,0,0:0:0:0:
378,269,56144,1,0,0:0:0:0:
378,269,56269,1,12,0:0:0:0:
284,180,57477,5,8,0:0:0:0:
284,180,57628,1,0,0:0:0:0:
284,180,57779,1,0,0:0:0:0:
284,180,57930,1,8,0:0:0:0:
284,180,58081,1,0,0:0:0:0:
288,184,58232,1,0,0:0:0:0:
288,184,58383,1,8,0:0:0:0:
288,192,58685,1,8,0:0:0:0:
288,188,58836,1,8,0:0:0:0:
288,188,58987,1,0,0:0:0:0:
288,188,59138,1,8,0:0:0:0:
288,188,59289,1,8,0:0:0:0:
288,192,59440,1,0,0:0:0:0:
288,192,59591,1,8,0:0:0:0:
348,324,59893,1,8,0:0:0:0:
348,324,59969,1,8,0:0:0:0:
348,324,60044,1,0,0:0:0:0:
348,324,60120,1,0,0:0:0:0:
348,324,60195,1,0,0:0:0:0:
348,324,60271,1,0,0:0:0:0:
348,324,60346,1,8,0:0:0:0:
348,324,60422,1,8,0:0:0:0:
280,272,60497,1,0,0:0:0:0:
280,272,60573,1,0,0:0:0:0:
280,272,60648,1,0,0:0:0:0:
280,272,60724,1,0,0:0:0:0:
280,272,60799,1,8,0:0:0:0:
316,192,60875,1,0,0:0:0:0:
328,264,60950,1,0,0:0:0:0:
320,240,61101,1,8,0:0:0:0:
320,184,61177,1,8,0:0:0:0:
320,184,61252,1,8,0:0:0:0:
320,240,61403,1,8,0:0:0:0:
364,256,61479,1,8,0:0:0:0:
324,252,61555,1,0,0:0:0:0:
456,320,61706,1,12,0:0:0:0:
456,320,61857,1,12,0:0:0:0:
188,168,62008,1,12,0:0:0:0:
364,256,62311,1,4,0:0:0:0:
292,232,62463,1,0,0:0:0:0:
292,232,62615,1,8,0:0:0:0:
292,232,62768,1,0,0:0:0:0:
292,232,62844,1,0,0:0:0:0:
292,232,62920,1,8,0:0:0:0:
296,256,63072,1,8,0:0:0:0:
296,256,63224,1,0,0:0:0:0:
296,256,63377,1,0,0:0:0:0:
296,256,63529,1,12,0:0:0:0:
296,256,63681,1,8,0:0:0:0:
296,256,63834,1,4,0:0:0:0:
296,256,63986,1,0,0:0:0:0:
296,256,64138,1,12,0:0:0:0:
296,256,64290,1,8,0:0:0:0:
296,256,64443,1,4,0:0:0:0:
420,204,64747,1,12,0:0:0:0:
212,232,64900,1,0,0:0:0:0:
404,264,65052,1,8,0:0:0:0:
404,264,65204,1,8,0:0:0:0:
404,264,65280,1,8,0:0:0:0:
404,264,65356,1,0,0:0:0:0:
404,264,65509,1,0,0:0:0:0:
404,264,65661,1,8,0:0:0:0:
404,264,65813,1,8,0:0:0:0:
404,264,65966,1,4,0:0:0:0:
404,264,66118,1,0,0:0:0:0:
404,264,66270,1,12,0:0:0:0:
224,144,66422,1,8,0:0:0:0:
224,144,66575,1,4,0:0:0:0:
224,144,66727,1,0,0:0:0:0:
224,144,66879,1,12,0:0:0:0:
333,194,67184,1,4,0:0:0:0:
326,207,67336,1,0,0:0:0:0:
383,289,67488,1,8,0:0:0:0:
383,289,67641,1,0,0:0:0:0:
383,289,67717,1,0,0:0:0:0:
383,289,67793,1,8,0:0:0:0:
383,289,67945,1,0,0:0:0:0:
383,289,68098,1,8,0:0:0:0:
335,275,68402,1,12,0:0:0:0:
335,275,68554,1,0,0:0:0:0:
335,275,68707,1,8,0:0:0:0:
335,275,68859,1,8,0:0:0:0:
335,275,68935,1,8,0:0:0:0:
335,275,69011,1,0,0:0:0:0:
335,275,69164,1,0,0:0:0:0:
335,275,69316,1,8,0:0:0:0:
354,223,69620,1,4,0:0:0:0:
346,280,69773,1,0,0:0:0:0:
346,280,69925,1,8,0:0:0:0:
346,280,70001,1,0,0:0:0:0:
346,280,70077,1,8,0:0:0:0:
346,280,70153,1,8,0:0:0:0:
346,280,70230,1,0,0:0:0:0:
353,243,70382,1,0,0:0:0:0:
352,239,70534,1,8,0:0:0:0:
124,189,70686,1,4,0:0:0:0:
409,270,70991,1,4,0:0:0:0:
337,299,71296,1,12,0:0:0:0:
337,299,71448,1,4,0:0:0:0:
337,299,71600,1,4,0:0:0:0:
337,299,71752,1,12,0:0:0:0:
365,258,72075,1,4,0:0:0:0:
198,200,72227,1,0,0:0:0:0:
198,200,72379,1,8,0:0:0:0:
198,200,72455,1,8,0:0:0:0:
198,200,72532,1,0,0:0:0:0:
198,200,72608,1,0,0:0:0:0:
198,200,72684,1,8,0:0:0:0:
362,274,72836,1,8,0:0:0:0:
118,143,72988,1,0,0:0:0:0:
118,143,73141,1,0,0:0:0:0:
303,260,73293,1,12,0:0:0:0:
303,260,73445,1,8,0:0:0:0:
303,260,73598,1,4,0:0:0:0:
303,260,73750,1,0,0:0:0:0:
303,260,73902,1,12,0:0:0:0:
303,260,74054,1,8,0:0:0:0:
303,260,74207,1,4,0:0:0:0:
391,211,74511,1,12,0:0:0:0:
349,248,74664,1,0,0:0:0:0:
349,248,74816,1,8,0:0:0:0:
349,248,74892,1,0,0:0:0:0:
349,248,74968,1,8,0:0:0:0:
349,248,75044,1,8,0:0:0:0:
349,248,75120,1,0,0:0:0:0:
349,248,75273,1,0,0:0:0:0:
349,248,75425,1,8,0:0:0:0:
349,248,75577,1,8,0:0:0:0:
349,248,75730,1,4,0:0:0:0:
349,248,75882,1,0,0:0:0:0:
349,248,76034,1,12,0:0:0:0:
349,248,76186,1,8,0:0:0:0:
349,248,76339,1,4,0:0:0:0:
349,248,76491,1,0,0:0:0:0:
349,248,76643,1,12,0:0:0:0:
289,181,76948,1,4,0:0:0:0:
289,181,77100,1,0,0:0:0:0:
289,181,77252,1,8,0:0:0:0:
289,181,77329,1,8,0:0:0:0:
289,181,77405,1,0,0:0:0:0:
289,181,77481,1,0,0:0:0:0:
289,181,77557,1,8,0:0:0:0:
289,181,77709,1,0,0:0:0:0:
289,181,77862,1,8,0:0:0:0:
306,150,78166,1,12,0:0:0:0:
308,259,78318,1,0,0:0:0:0:
308,259,78471,1,8,0:0:0:0:
308,259,78547,1,0,0:0:0:0:
308,259,78623,1,8,0:0:0:0:
308,259,78699,1,8,0:0:0:0:
308,259,78775,1,0,0:0:0:0:
308,259,78928,1,0,0:0:0:0:
308,259,79080,1,8,0:0:0:0:
297,220,79384,1,4,0:0:0:0:
268,228,79537,1,0,0:0:0:0:
268,228,79689,1,8,0:0:0:0:
268,228,79765,1,0,0:0:0:0:
268,228,79841,1,8,0:0:0:0:
268,228,79917,1,8,0:0:0:0:
268,228,79994,1,0,0:0:0:0:
268,228,80070,1,0,0:0:0:0:
268,228,80146,1,0,0:0:0:0:
268,228,80222,1,0,0:0:0:0:
268,228,80298,1,8,0:0:0:0:
371,217,80450,1,4,0:0:0:0:
236,177,80755,1,4,0:0:0:0:
236,177,81060,1,12,0:0:0:0:
236,177,81212,1,4,0:0:0:0:
236,177,81364,1,4,0:0:0:0:
236,177,81516,1,12,0:0:0:0:
345,213,81669,1,0,0:0:0:0:
274,231,81821,1,8,0:0:0:0:
274,231,81973,1,0,0:0:0:0:
274,231,82049,1,0,0:0:0:0:
274,231,82126,1,8,0:0:0:0:
274,231,82278,1,0,0:0:0:0:
274,231,82430,1,8,0:0:0:0:
274,231,82582,1,0,0:0:0:0:
274,231,82659,1,0,0:0:0:0:
274,231,82735,1,8,0:0:0:0:
246,146,82887,1,8,0:0:0:0:
292,262,83039,1,0,0:0:0:0:
292,262,83192,1,0,0:0:0:0:
292,262,83268,1,0,0:0:0:0:
292,262,83344,1,8,0:0:0:0:
292,262,83420,1,0,0:0:0:0:
292,262,83496,1,8,0:0:0:0:
294,143,83572,1,8,0:0:0:0:
303,234,83648,1,0,0:0:0:0:
225,143,83801,1,0,0:0:0:0:
229,143,83953,1,12,0:0:0:0:
202,134,84239,1,0,0:0:0:0:
205,136,84390,1,8,0:0:0:0:
206,136,84541,1,0,0:0:0:0:
206,136,84616,1,0,0:0:0:0:
206,136,84692,1,8,0:0:0:0:
221,190,84843,1,0,0:0:0:0:
221,190,84994,1,8,0:0:0:0:
316,136,85069,1,0,0:0:0:0:
221,190,85145,1,8,0:0:0:0:
166,186,85220,1,8,0:0:0:0:
166,186,85296,1,0,0:0:0:0:
351,270,85447,1,0,0:0:0:0:
351,270,85598,1,8,0:0:0:0:
351,270,85749,1,8,0:0:0:0:
351,270,85824,1,8,0:0:0:0:
351,270,85900,1,0,0:0:0:0:
351,270,85975,1,8,0:0:0:0:
351,270,86051,1,0,0:0:0:0:
351,270,86127,1,0,0:0:0:0:
351,270,86202,1,8,0:0:0:0:
261,202,86353,1,8,0:0:0:0:
278,242,86504,1,0,0:0:0:0:
278,242,86580,1,0,0:0:0:0:
278,242,86655,1,0,0:0:0:0:
278,242,86731,1,0,0:0:0:0:
278,242,86806,1,8,0:0:0:0:
278,242,86882,1,0,0:0:0:0:
278,242,86957,1,8,0:0:0:0:
278,242,87033,1,8,0:0:0:0:
278,242,87108,1,0,0:0:0:0:
278,242,87184,1,0,0:0:0:0:
278,242,87259,1,0,0:0:0:0:
278,242,87335,1,0,0:0:0:0:
278,242,87410,1,8,0:0:0:0:
278,242,87486,1,0,0:0:0:0:
278,242,87561,1,8,0:0:0:0:
278,242,87637,1,8,0:0:0:0:
235,211,87712,1,0,0:0:0:0:
235,211,87788,1,8,0:0:0:0:
235,211,87863,1,0,0:0:0:0:
235,211,87939,1,0,0:0:0:0:
235,211,88014,1,8,0:0:0:0:
235,211,88090,1,8,0:0:0:0:
235,211,88166,1,0,0:0:0:0:
235,211,88241,1,0,0:0:0:0:
235,211,88317,1,8,0:0:0:0:
235,211,88392,1,0,0:0:0:0:
235,211,88468,1,8,0:0:0:0:
235,211,88543,1,0,0:0:0:0:
235,211,88619,1,8,0:0:0:0:
235,211,88694,1,8,0:0:0:0:
235,211,88770,1,0,0:0:0:0:
322,224,89072,1,0,0:0:0:0:
272,204,89223,1,8,0:0:0:0:
155,124,89374,1,0,0:0:0:0:
204,120,89449,1,0,0:0:0:0:
204,120,89525,1,8,0:0:0:0:
204,120,89676,1,0,0:0:0:0:
250,154,89827,1,8,0:0:0:0:
284,96,89902,1,0,0:0:0:0:
320,241,89978,1,8,0:0:0:0:
320,241,90054,1,8,0:0:0:0:
320,241,90129,1,0,0:0:0:0:
320,241,90280,1,0,0:0:0:0:
320,241,90431,1,8,0:0:0:0:
349,281,90582,1,0,0:0:0:0:
349,281,90658,1,0,0:0:0:0:
349,281,90733,1,8,0:0:0:0:
349,281,90809,1,8,0:0:0:0:
349,281,90884,1,0,0:0:0:0:
349,281,90960,1,0,0:0:0:0:
349,281,91035,1,8,0:0:0:0:
349,281,91186,1,8,0:0:0:0:
278,242,91337,1,0,0:0:0:0:
278,242,91413,1,0,0:0:0:0:
278,242,91488,1,0,0:0:0:0:
278,242,91564,1,0,0:0:0:0:
278,242,91639,1,0,0:0:0:0:
278,242,91715,1,0,0:0:0:0:
278,242,91790,1,0,0:0:0:0:
278,242,91866,1,0,0:0:0:0:
278,242,91941,1,8,0:0:0:0:
278,242,92017,1,8,0:0:0:0:
278,242,92093,1,8,0:0:0:0:
278,242,92168,1,8,0:0:0:0:
278,242,92244,1,8,0:0:0:0:
278,242,92319,1,8,0:0:0:0:
278,242,92395,1,8,0:0:0:0:
278,242,92470,1,8,0:0:0:0:
235,211,92546,1,0,0:0:0:0:
235,211,92621,1,0,0:0:0:0:
235,211,92697,1,8,0:0:0:0:
235,211,92772,1,0,0:0:0:0:
235,211,92848,1,8,0:0:0:0:
235,211,92923,1,8,0:0:0:0:
235,211,92999,1,0,0:0:0:0:
235,211,93074,1,0,0:0:0:0:
235,211,93150,1,8,0:0:0:0:
235,211,93225,1,0,0:0:0:0:
235,211,93301,1,8,0:0:0:0:
235,211,93376,1,0,0:0:0:0:
235,211,93452,1,8,0:0:0:0:
235,211,93527,1,8,0:0:0:0:
235,211,93603,1,0,0:0:0:0:
225,132,93905,1,0,0:0:0:0:
233,141,94056,1,8,0:0:0:0:
338,255,94207,1,0,0:0:0:0:
338,255,94283,1,0,0:0:0:0:
338,255,94358,1,8,0:0:0:0:
338,255,94509,1,0,0:0:0:0:
332,267,94660,1,8,0:0:0:0:
333,269,94811,1,8,0:0:0:0:
333,269,94962,1,4,0:0:0:0:
255,218,95113,1,0,0:0:0:0:
255,218,95264,1,8,0:0:0:0:
276,252,95415,1,0,0:0:0:0:
269,244,95491,1,8,0:0:0:0:
269,244,95566,1,0,0:0:0:0:
276,252,95717,1,0,0:0:0:0:
276,252,95868,1,8,0:0:0:0:
276,252,96020,1,8,0:0:0:0:
276,252,96171,1,4,0:0:0:0:
145,129,96322,1,0,0:0:0:0:
189,151,96473,1,8,0:0:0:0:
199,155,96624,1,0,0:0:0:0:
200,155,96699,1,0,0:0:0:0:
200,155,96775,1,8,0:0:0:0:
201,156,96926,1,0,0:0:0:0:
201,156,97077,1,8,0:0:0:0:
201,157,97228,1,8,0:0:0:0:
140,108,97379,1,4,0:0:0:0:
264,243,98512,5,12,0:0:0:0:
269,209,98762,1,8,0:0:0:0:
269,209,99012,1,0,0:0:0:0:
359,274,99262,1,0,0:0:0:0:
359,274,99387,1,0,0:0:0:0:
359,274,99512,1,8,0:0:0:0:
321,139,99762,1,0,0:0:0:0:
304,151,100012,1,8,0:0:0:0:
304,151,100137,1,8,0:0:0:0:
309,290,100262,1,8,0:0:0:0:
309,290,100387,1,8,0:0:0:0:
309,290,100512,1,4,0:0:0:0:
309,290,100762,1,0,0:0:0:0:
245,117,101012,1,8,0:0:0:0:
329,128,101262,1,0,0:0:0:0:
329,104,101387,1,8,0:0:0:0:
325,103,101512,1,0,0:0:0:0:
335,127,101762,1,8,0:0:0:0:
158,154,102012,1,0,0:0:0:0:
189,152,102137,1,0,0:0:0:0:
194,152,102262,1,0,0:0:0:0:
196,156,102387,1,0,0:0:0:0:
197,159,102512,1,12,0:0:0:0:
189,152,102762,1,8,0:0:0:0:
198,151,103012,1,0,0:0:0:0:
336,265,103262,1,0,0:0:0:0:
336,265,103387,1,0,0:0:0:0:
336,265,103512,1,8,0:0:0:0:
293,101,103762,1,0,0:0:0:0:
254,188,104012,1,8,0:0:0:0:
328,251,104137,1,0,0:0:0:0:
254,188,104262,1,8,0:0:0:0:
329,251,104387,1,8,0:0:0:0:
329,251,104512,1,4,0:0:0:0:
275,190,104762,1,0,0:0:0:0:
324,131,105012,1,8,0:0:0:0:
332,107,105262,1,0,0:0:0:0:
330,144,105387,1,8,0:0:0:0:
328,119,105512,1,0,0:0:0:0:
330,120,105762,1,8,0:0:0:0:
335,131,106012,1,0,0:0:0:0:
330,117,106137,1,8,0:0:0:0:
328,120,106262,1,0,0:0:0:0:
335,131,106387,1,0,0:0:0:0:
326,124,106512,1,12,0:0:0:0:
316,106,106761,1,8,0:0:0:0:
284,287,107010,1,0,0:0:0:0:
268,277,107260,1,0,0:0:0:0:
284,287,107385,1,0,0:0:0:0:
284,287,107509,1,8,0:0:0:0:
370,311,107759,1,0,0:0:0:0:
370,311,108008,1,8,0:0:0:0:
370,311,108133,1,8,0:0:0:0:
370,311,108258,1,8,0:0:0:0:
370,311,108383,1,8,0:0:0:0:
370,311,108507,1,4,0:0:0:0:
223,185,108757,1,0,0:0:0:0:
297,122,109006,1,8,0:0:0:0:
296,129,109256,1,0,0:0:0:0:
306,118,109381,1,8,0:0:0:0:
304,122,109505,1,0,0:0:0:0:
324,114,109755,1,8,0:0:0:0:
321,190,110004,1,0,0:0:0:0:
321,190,110129,1,0,0:0:0:0:
321,190,110254,1,0,0:0:0:0:
322,183,110378,1,0,0:0:0:0:
305,197,110503,1,12,0:0:0:0:
278,143,110753,1,8,0:0:0:0:
291,131,111002,1,0,0:0:0:0:
261,230,111252,1,0,0:0:0:0:
261,230,111376,1,0,0:0:0:0:
261,230,111501,1,8,0:0:0:0:
261,230,111751,1,0,0:0:0:0:
261,230,112000,1,8,0:0:0:0:
261,230,112125,1,0,0:0:0:0:
261,230,112250,1,8,0:0:0:0:
261,230,112374,1,8,0:0:0:0:
261,230,112499,1,4,0:0:0:0:
309,161,112749,5,0,0:0:0:0:
309,161,112998,1,8,0:0:0:0:
378,269,113247,1,0,0:0:0:0:
378,269,113372,1,0,0:0:0:0:
378,269,113497,1,12,0:0:0:0:
288,140,113751,5,8,0:0:0:0:
288,140,114005,1,8,0:0:0:0:
288,140,114259,1,0,0:0:0:0:
212,140,114513,1,12,0:0:0:0:
328,252,114763,1,8,0:0:0:0:
328,252,115013,1,0,0:0:0:0:
328,252,115263,1,0,0:0:0:0:
328,252,115388,1,0,0:0:0:0:
328,252,115513,1,8,0:0:0:0:
380,288,115763,1,0,0:0:0:0:
380,288,115888,1,0,0:0:0:0:
380,288,116013,1,8,0:0:0:0:
380,288,116138,1,0,0:0:0:0:
380,288,116263,1,8,0:0:0:0:
380,288,116388,1,8,0:0:0:0:
388,284,116513,1,4,0:0:0:0:
304,240,116763,1,0,0:0:0:0:
304,240,117013,1,8,0:0:0:0:
392,328,117263,1,0,0:0:0:0:
392,328,117388,1,8,0:0:0:0:
392,328,117513,1,0,0:0:0:0:
392,328,117763,1,8,0:0:0:0:
392,328,117888,1,0,0:0:0:0:
392,328,118013,1,8,0:0:0:0:
392,328,118138,1,8,0:0:0:0:
392,328,118263,1,0,0:0:0:0:
392,328,118388,1,0,0:0:0:0:
392,328,118513,1,12,0:0:0:0:
304,216,118763,1,8,0:0:0:0:
300,208,119013,1,0,0:0:0:0:
200,280,119263,1,0,0:0:0:0:
200,280,119388,1,0,0:0:0:0:
200,280,119513,1,8,0:0:0:0:
432,304,119763,1,0,0:0:0:0:
432,304,119888,1,0,0:0:0:0:
432,304,120013,1,8,0:0:0:0:
296,172,120138,1,8,0:0:0:0:
432,304,120263,1,8,0:0:0:0:
432,304,120388,1,8,0:0:0:0:
368,300,120513,1,4,0:0:0:0:
344,284,120763,1,0,0:0:0:0:
344,284,121013,1,8,0:0:0:0:
344,284,121263,1,0,0:0:0:0:
344,284,121388,1,8,0:0:0:0:
344,284,121513,1,0,0:0:0:0:
344,284,121763,1,8,0:0:0:0:
344,284,121888,1,8,0:0:0:0:
344,284,122013,1,0,0:0:0:0:
344,284,122138,1,0,0:0:0:0:
344,284,122263,1,0,0:0:0:0:
344,284,122388,1,0,0:0:0:0:
344,284,122513,1,12,0:0:0:0:
208,188,122762,1,8,0:0:0:0:
212,192,123011,1,0,0:0:0:0:
212,192,123261,1,0,0:0:0:0:
216,192,123386,1,0,0:0:0:0:
216,192,123510,1,8,0:0:0:0:
216,192,123635,1,8,0:0:0:0:
216,192,123760,1,0,0:0:0:0:
216,192,123885,1,0,0:0:0:0:
216,192,124009,1,8,0:0:0:0:
216,192,124134,1,0,0:0:0:0:
216,192,124259,1,8,0:0:0:0:
216,192,124384,1,8,0:0:0:0:
356,264,124508,1,4,0:0:0:0:
336,284,124758,1,0,0:0:0:0:
336,284,125007,1,8,0:0:0:0:
352,284,125257,1,0,0:0:0:0:
352,284,125382,1,8,0:0:0:0:
352,284,125506,1,0,0:0:0:0:
352,284,125631,1,0,0:0:0:0:
352,284,125756,1,8,0:0:0:0:
352,284,125880,1,0,0:0:0:0:
352,284,126005,1,8,0:0:0:0:
352,284,126130,1,8,0:0:0:0:
352,284,126255,1,0,0:0:0:0:
352,284,126379,1,0,0:0:0:0:
352,284,126504,1,12,0:0:0:0:
344,256,126754,1,8,0:0:0:0:
344,256,127003,1,0,0:0:0:0:
360,268,127253,1,0,0:0:0:0:
360,268,127377,1,0,0:0:0:0:
360,268,127502,1,8,0:0:0:0:
360,268,127627,1,8,0:0:0:0:
360,268,127752,1,0,0:0:0:0:
360,268,127876,1,0,0:0:0:0:
360,268,128001,1,8,0:0:0:0:
360,268,128126,1,8,0:0:0:0:
360,268,128251,1,8,0:0:0:0:
360,268,128375,1,8,0:0:0:0:
360,268,128500,1,4,0:0:0:0:
376,240,128750,1,0,0:0:0:0:
376,240,128999,1,8,0:0:0:0:
352,300,129248,1,0,0:0:0:0:
352,300,129373,1,0,0:0:0:0:
336,220,129498,1,12,0:0:0:0:
256,192,129623,12,0,131494,0:0:0:0:
