osu file format v14

[General]
AudioFilename: audio.mp3
AudioLeadIn: 0
PreviewTime: 26421
Countdown: 0
SampleSet: Normal
StackLeniency: 0.7
Mode: 1
LetterboxInBreaks: 0
WidescreenStoryboard: 1

[Editor]
DistanceSpacing: 1.4
BeatDivisor: 4
GridSize: 16
TimelineZoom: 1.8

[Metadata]
Title:The Good Left Undone
TitleUnicode:The Good Left Undone
Artist:Rise Against
ArtistUnicode:Rise Against
Creator:Chromoxx
Version:Futsuu
Source:
Tags:the sufferer & and witness metal punk darkvortex
BeatmapID:1490767
BeatmapSetID:457264

[Difficulty]
HPDrainRate:7
CircleSize:5
OverallDifficulty:4.5
ApproachRate:5
SliderMultiplier:1.4
SliderTickRate:1

[Events]
//Background and Video events
0,0,"hi please rank my map thank u.jpg",0,0
//Break Periods
//Storyboard Layer 0 (Background)
//Storyboard Layer 1 (Fail)
//Storyboard Layer 2 (Pass)
//Storyboard Layer 3 (Foreground)
//Storyboard Sound Samples

[TimingPoints]
219,302.076777847703,4,1,0,100,1,0
4901,304.568527918782,4,1,0,100,1,0
14647,304.568527918782,4,1,0,100,1,8
14695,304.568527918782,4,1,0,100,1,0
26725,-100,4,1,0,100,0,1
26878,302.076777847703,4,1,0,100,1,1
40169,-100,4,1,0,100,0,0
41269,500,4,1,0,100,1,0
41269,-76.9230769230769,4,1,0,100,0,0
57269,500,4,1,0,100,1,8
57477,302.076777847703,4,1,0,100,1,0
62159,304.568527918782,4,1,0,100,1,0
71905,304.568527918782,4,1,0,100,1,8
71923,304.568527918782,4,1,0,100,1,0
83953,-100,4,1,0,100,0,1
84088,302.076777847703,4,1,0,100,1,1
97379,-100,4,1,0,100,0,0
98512,500,4,1,0,100,1,0
98512,-76.9230769230769,4,1,0,100,0,0
106512,498.960498960499,4,1,0,100,1,0
106512,-76.9230769230769,4,1,0,100,0,0
113497,508.474576271186,4,1,0,100,1,8
113497,-75.7575757575758,4,1,0,100,0,8
114513,500,4,1,0,100,1,0
114513,-76.9230769230769,4,1,0,100,0,0
122513,498.960498960499,4,1,0,100,1,0
122513,-76.9230769230769,4,1,0,100,0,0

[HitObjects]
240,192,219,5,0,0:0:0:0:
320,176,521,1,0,0:0:0:0:
320,176,672,1,0,0:0:0:0:
320,176,823,1,0,0:0:0:0:
320,176,1427,1,8,0:0:0:0:
320,240,1729,1,8,0:0:0:0:
320,240,1880,1,8,0:0:0:0:
320,240,2031,1,8,0:0:0:0:
208,240,2635,1,0,0:0:0:0:
208,240,2937,1,0,0:0:0:0:
208,240,3239,1,0,0:0:0:0:
208,240,3390,1,0,0:0:0:0:
208,240,3541,1,0,0:0:0:0:
208,240,3843,1,8,0:0:0:0:
304,208,4145,1,8,0:0:0:0:
352,208,4448,1,8,0:0:0:0:
352,208,4599,1,8,0:0:0:0:
336,208,4750,1,8,0:0:0:0:
320,192,5053,1,4,0:0:0:0:
416,192,5662,1,8,0:0:0:0:
224,208,5966,1,8,0:0:0:0:
336,192,6271,1,0,0:0:0:0:
336,192,6576,1,8,0:0:0:0:
336,192,6880,1,0,0:0:0:0:
256,272,7489,1,8,0:0:0:0:
160,224,8098,1,0,0:0:0:0:
272,192,8403,1,0,0:0:0:0:
160,224,8708,1,8,0:0:0:0:
160,224,9012,1,0,0:0:0:0:
160,224,9317,1,8,0:0:0:0:
144,224,9926,1,0,0:0:0:0:
176,176,10230,1,0,0:0:0:0:
176,176,10535,1,0,0:0:0:0:
176,176,11144,1,8,0:0:0:0:
176,176,11449,1,8,0:0:0:0:
176,176,11753,1,8,0:0:0:0:
176,176,12362,1,0,0:0:0:0:
176,160,12972,1,8,0:0:0:0:
208,160,13428,1,4,0:0:0:0:
192,192,14190,1,12,0:0:0:0:
368,160,14847,1,4,0:0:0:0:
192,144,15456,1,8,0:0:0:0:
304,256,15760,1,8,0:0:0:0:
192,144,16065,1,0,0:0:0:0:
192,144,16370,1,8,0:0:0:0:
192,144,16674,1,0,0:0:0:0:
176,160,17283,1,8,0:0:0:0:
176,160,17892,1,0,0:0:0:0:
368,208,18197,1,0,0:0:0:0:
176,160,18502,1,8,0:0:0:0:
176,160,18806,1,0,0:0:0:0:
176,160,19111,1,8,0:0:0:0:
176,160,19720,1,0,0:0:0:0:
176,160,20024,1,0,0:0:0:0:
288,192,20329,1,0,0:0:0:0:
288,192,20938,1,8,0:0:0:0:
288,192,21243,1,8,0:0:0:0:
288,192,21547,1,8,0:0:0:0:
288,176,22156,1,0,0:0:0:0:
288,176,22766,1,8,0:0:0:0:
304,192,23222,1,4,0:0:0:0:
288,176,23832,1,12,0:0:0:0:
272,144,24441,1,0,0:0:0:0:
272,144,24745,1,0,0:0:0:0:
288,160,25050,1,8,0:0:0:0:
288,160,25354,1,8,0:0:0:0:
288,160,25659,1,0,0:0:0:0:
176,128,26420,1,8,0:0:0:0:
352,112,26725,1,4,0:0:0:0:
336,80,27180,1,8,0:0:0:0:
176,112,27482,1,0,0:0:0:0:
176,112,27784,1,8,0:0:0:0:
176,112,27935,1,0,0:0:0:0:
176,112,28237,1,0,0:0:0:0:
176,112,28539,1,8,0:0:0:0:
176,112,28841,1,8,0:0:0:0:
176,112,29143,1,8,0:0:0:0:
176,112,29294,1,0,0:0:0:0:
160,112,29898,1,8,0:0:0:0:
144,112,30502,1,0,0:0:0:0:
288,224,30804,1,0,0:0:0:0:
288,224,31107,1,8,0:0:0:0:
288,224,31258,1,8,0:0:0:0:
272,208,31560,1,4,0:0:0:0:
224,192,32013,1,0,0:0:0:0:
224,192,32315,1,8,0:0:0:0:
304,288,32617,1,0,0:0:0:0:
304,288,32768,1,8,0:0:0:0:
208,192,33070,1,0,0:0:0:0:
208,192,33372,1,8,0:0:0:0:
224,176,33674,1,8,0:0:0:0:
208,192,33976,1,0,0:0:0:0:
336,160,34127,1,8,0:0:0:0:
240,192,34429,1,0,0:0:0:0:
240,192,34731,1,8,0:0:0:0:
240,192,35034,1,0,0:0:0:0:
192,224,35336,1,8,0:0:0:0:
400,208,35940,1,8,0:0:0:0:
256,288,36393,1,4,0:0:0:0:
192,144,36846,1,8,0:0:0:0:
192,144,37148,1,0,0:0:0:0:
192,144,37299,1,0,0:0:0:0:
192,144,37450,1,8,0:0:0:0:
176,144,37601,1,0,0:0:0:0:
176,112,38054,1,8,0:0:0:0:
288,192,38356,1,0,0:0:0:0:
288,192,38507,1,0,0:0:0:0:
288,192,38658,1,8,0:0:0:0:
288,192,38961,1,0,0:0:0:0:
288,192,39263,1,8,0:0:0:0:
272,176,39565,1,0,0:0:0:0:
208,128,39716,1,8,0:0:0:0:
208,128,39867,1,0,0:0:0:0:
336,176,40169,1,12,0:0:0:0:
272,208,41269,1,4,0:0:0:0:
256,224,42269,1,0,0:0:0:0:
256,224,42519,1,0,0:0:0:0:
256,224,42769,1,8,0:0:0:0:
144,288,43019,1,0,0:0:0:0:
128,272,43269,1,8,0:0:0:0:
336,288,43769,1,8,0:0:0:0:
128,256,44269,1,0,0:0:0:0:
128,256,44519,1,8,0:0:0:0:
128,272,44769,1,0,0:0:0:0:
128,272,45019,1,0,0:0:0:0:
128,272,45269,1,8,0:0:0:0:
112,272,46269,1,8,0:0:0:0:
112,272,46519,1,0,0:0:0:0:
112,272,46769,1,8,0:0:0:0:
112,272,47019,1,8,0:0:0:0:
112,272,47269,1,0,0:0:0:0:
336,240,47769,1,0,0:0:0:0:
112,272,48269,1,8,0:0:0:0:
112,272,48519,1,8,0:0:0:0:
112,288,48769,1,0,0:0:0:0:
112,288,49019,1,0,0:0:0:0:
112,288,49269,1,8,0:0:0:0:
320,192,50269,1,0,0:0:0:0:
288,176,50519,1,0,0:0:0:0:
288,176,50769,1,8,0:0:0:0:
272,160,51019,1,8,0:0:0:0:
272,176,51269,1,0,0:0:0:0:
320,192,51769,1,8,0:0:0:0:
272,176,52269,1,0,0:0:0:0:
272,176,52519,1,8,0:0:0:0:
272,176,52769,1,8,0:0:0:0:
272,176,53019,1,0,0:0:0:0:
272,176,53269,1,8,0:0:0:0:
336,192,54269,1,8,0:0:0:0:
336,192,54519,1,0,0:0:0:0:
336,192,54769,1,8,0:0:0:0:
336,192,55019,1,8,0:0:0:0:
336,192,55269,1,0,0:0:0:0:
384,144,55769,1,0,0:0:0:0:
272,208,56269,1,12,0:0:0:0:
352,176,57477,1,0,0:0:0:0:
352,176,57779,1,0,0:0:0:0:
352,176,57930,1,0,0:0:0:0:
352,176,58081,1,0,0:0:0:0:
240,176,58685,1,8,0:0:0:0:
240,176,58987,1,8,0:0:0:0:
240,176,59138,1,8,0:0:0:0:
240,176,59289,1,8,0:0:0:0:
256,160,59893,1,8,0:0:0:0:
256,160,60195,1,8,0:0:0:0:
256,160,60497,1,8,0:0:0:0:
256,160,60648,1,8,0:0:0:0:
256,160,60799,1,8,0:0:0:0:
256,160,61101,1,0,0:0:0:0:
320,224,61252,1,0,0:0:0:0:
320,208,61403,1,0,0:0:0:0:
288,128,61706,1,8,0:0:0:0:
288,128,61857,1,8,0:0:0:0:
288,128,62008,1,8,0:0:0:0:
352,128,62311,1,4,0:0:0:0:
176,208,62920,1,8,0:0:0:0:
400,176,63224,1,8,0:0:0:0:
288,192,63529,1,0,0:0:0:0:
288,192,63834,1,8,0:0:0:0:
128,144,64138,1,0,0:0:0:0:
256,224,64747,1,8,0:0:0:0:
256,224,65356,1,0,0:0:0:0:
384,176,65661,1,0,0:0:0:0:
320,208,65966,1,8,0:0:0:0:
320,208,66270,1,0,0:0:0:0:
320,224,66575,1,8,0:0:0:0:
256,288,67184,1,0,0:0:0:0:
256,288,67488,1,0,0:0:0:0:
256,288,67793,1,0,0:0:0:0:
320,208,68402,1,8,0:0:0:0:
320,208,68707,1,8,0:0:0:0:
320,208,69011,1,8,0:0:0:0:
336,224,69620,1,0,0:0:0:0:
208,176,70230,1,8,0:0:0:0:
304,144,70686,1,4,0:0:0:0:
272,144,71448,1,12,0:0:0:0:
288,128,72075,1,4,0:0:0:0:
208,128,72684,1,8,0:0:0:0:
304,192,72988,1,8,0:0:0:0:
208,128,73293,1,0,0:0:0:0:
208,128,73598,1,8,0:0:0:0:
208,128,73902,1,0,0:0:0:0:
272,144,74511,1,8,0:0:0:0:
272,144,75120,1,0,0:0:0:0:
320,208,75425,1,0,0:0:0:0:
272,144,75730,1,8,0:0:0:0:
272,144,76034,1,0,0:0:0:0:
272,144,76339,1,8,0:0:0:0:
272,144,76948,1,0,0:0:0:0:
272,144,77252,1,0,0:0:0:0:
272,144,77557,1,0,0:0:0:0:
272,144,78166,1,8,0:0:0:0:
272,144,78471,1,8,0:0:0:0:
272,144,78775,1,8,0:0:0:0:
272,144,79384,1,0,0:0:0:0:
272,144,79994,1,8,0:0:0:0:
208,112,80450,1,4,0:0:0:0:
224,112,81060,1,12,0:0:0:0:
240,112,81669,1,0,0:0:0:0:
320,176,81973,1,0,0:0:0:0:
224,144,82278,1,8,0:0:0:0:
224,144,82582,1,8,0:0:0:0:
224,144,82887,1,0,0:0:0:0:
256,224,83496,1,8,0:0:0:0:
304,192,83953,1,4,0:0:0:0:
336,80,84390,1,8,0:0:0:0:
176,112,84692,1,0,0:0:0:0:
176,112,84994,1,8,0:0:0:0:
176,112,85145,1,0,0:0:0:0:
176,112,85447,1,0,0:0:0:0:
176,112,85749,1,8,0:0:0:0:
176,112,86051,1,8,0:0:0:0:
176,112,86353,1,8,0:0:0:0:
176,112,86504,1,0,0:0:0:0:
160,112,87108,1,8,0:0:0:0:
144,112,87712,1,0,0:0:0:0:
288,224,88014,1,0,0:0:0:0:
288,224,88317,1,8,0:0:0:0:
288,224,88468,1,8,0:0:0:0:
272,208,88770,1,4,0:0:0:0:
224,192,89223,1,0,0:0:0:0:
224,192,89525,1,8,0:0:0:0:
304,288,89827,1,0,0:0:0:0:
304,288,89978,1,8,0:0:0:0:
208,192,90280,1,0,0:0:0:0:
208,192,90582,1,8,0:0:0:0:
224,176,90884,1,8,0:0:0:0:
208,192,91186,1,0,0:0:0:0:
336,160,91337,1,8,0:0:0:0:
240,192,91639,1,0,0:0:0:0:
240,192,91941,1,8,0:0:0:0:
240,192,92244,1,0,0:0:0:0:
192,224,92546,1,8,0:0:0:0:
400,208,93150,1,8,0:0:0:0:
256,288,93603,1,4,0:0:0:0:
192,144,94056,1,8,0:0:0:0:
192,144,94358,1,0,0:0:0:0:
192,144,94509,1,0,0:0:0:0:
192,144,94660,1,8,0:0:0:0:
176,144,94811,1,0,0:0:0:0:
176,112,95264,1,8,0:0:0:0:
288,192,95566,1,0,0:0:0:0:
288,192,95717,1,0,0:0:0:0:
288,192,95868,1,8,0:0:0:0:
288,192,96171,1,0,0:0:0:0:
288,192,96473,1,8,0:0:0:0:
272,176,96775,1,0,0:0:0:0:
208,128,96926,1,8,0:0:0:0:
208,128,97077,1,0,0:0:0:0:
336,176,97379,1,12,0:0:0:0:
304,224,98512,1,4,0:0:0:0:
320,192,99512,1,0,0:0:0:0:
320,192,99762,1,0,0:0:0:0:
288,144,100012,1,8,0:0:0:0:
288,144,100262,1,0,0:0:0:0:
272,144,100512,1,8,0:0:0:0:
368,224,101012,1,8,0:0:0:0:
272,160,101512,1,0,0:0:0:0:
272,160,101762,1,8,0:0:0:0:
272,160,102012,1,0,0:0:0:0:
272,160,102262,1,0,0:0:0:0:
272,160,102512,1,8,0:0:0:0:
272,160,103512,1,8,0:0:0:0:
272,160,103762,1,0,0:0:0:0:
272,160,104012,1,8,0:0:0:0:
272,160,104262,1,8,0:0:0:0:
272,160,104512,1,0,0:0:0:0:
352,256,105012,1,0,0:0:0:0:
272,160,105512,1,8,0:0:0:0:
272,160,105762,1,8,0:0:0:0:
272,176,106012,1,0,0:0:0:0:
256,176,106262,1,0,0:0:0:0:
256,192,106512,1,8,0:0:0:0:
256,192,107509,1,0,0:0:0:0:
336,208,107759,1,0,0:0:0:0:
336,208,108008,1,8,0:0:0:0:
336,208,108258,1,8,0:0:0:0:
336,208,108507,1,0,0:0:0:0:
320,240,109006,1,0,0:0:0:0:
336,208,109505,1,8,0:0:0:0:
336,208,109755,1,8,0:0:0:0:
288,208,110004,1,0,0:0:0:0:
224,288,110254,1,8,0:0:0:0:
224,288,110753,1,8,0:0:0:0:
224,288,111252,1,0,0:0:0:0:
208,288,111751,1,0,0:0:0:0:
208,304,112250,1,8,0:0:0:0:
208,304,112499,1,0,0:0:0:0:
208,304,113497,1,8,0:0:0:0:
208,304,113751,1,8,0:0:0:0:
208,304,114005,1,8,0:0:0:0:
208,304,114259,1,0,0:0:0:0:
192,304,114513,1,8,0:0:0:0:
288,240,115513,1,8,0:0:0:0:
288,240,115763,1,0,0:0:0:0:
288,240,116013,1,8,0:0:0:0:
272,240,116263,1,8,0:0:0:0:
192,160,116513,1,0,0:0:0:0:
352,192,117013,1,0,0:0:0:0:
192,160,117513,1,8,0:0:0:0:
208,176,117763,1,8,0:0:0:0:
208,176,118013,1,0,0:0:0:0:
208,176,118263,1,0,0:0:0:0:
208,176,118513,1,8,0:0:0:0:
192,176,119513,1,0,0:0:0:0:
192,192,119763,1,0,0:0:0:0:
192,192,120013,1,8,0:0:0:0:
384,192,120263,1,8,0:0:0:0:
192,192,120513,1,0,0:0:0:0:
304,208,121013,1,0,0:0:0:0:
320,208,121513,1,8,0:0:0:0:
320,208,121763,1,8,0:0:0:0:
320,224,122013,1,8,0:0:0:0:
320,224,122263,1,0,0:0:0:0:
208,128,122513,1,8,0:0:0:0:
304,176,123510,1,8,0:0:0:0:
304,176,123760,1,8,0:0:0:0:
304,176,124009,1,0,0:0:0:0:
304,176,124259,1,0,0:0:0:0:
304,176,124508,1,8,0:0:0:0:
176,240,125007,1,0,0:0:0:0:
192,176,125506,1,8,0:0:0:0:
192,176,125756,1,0,0:0:0:0:
192,176,126005,1,0,0:0:0:0:
192,176,126255,1,8,0:0:0:0:
192,192,126504,1,0,0:0:0:0:
192,192,127502,1,8,0:0:0:0:
192,192,127752,1,8,0:0:0:0:
192,192,128001,1,0,0:0:0:0:
224,224,128251,1,8,0:0:0:0:
224,224,128500,1,0,0:0:0:0:
352,224,128999,1,0,0:0:0:0:
240,160,129498,1,12,0:0:0:0:
