osu file format v14

[General]
AudioFilename: state of the union.mp3
AudioLeadIn: 0
PreviewTime: 40373
Countdown: 0
SampleSet: Soft
StackLeniency: 0.5
Mode: 0
LetterboxInBreaks: 0
WidescreenStoryboard: 1

[Editor]
Bookmarks: 101128
DistanceSpacing: 1.1
BeatDivisor: 4
GridSize: 4
TimelineZoom: 1.199999

[Metadata]
Title:State of the Union
TitleUnicode:State of the Union
Artist:Rise Against
ArtistUnicode:Rise Against
Creator:pishifat
Version:Normal
Source:
Tags:siren song counter culture milan- punk hardcore
BeatmapID:855503
BeatmapSetID:387185

[Difficulty]
HPDrainRate:4
CircleSize:3
OverallDifficulty:4
ApproachRate:5
SliderMultiplier:0.81
SliderTickRate:1

[Events]
//Background and Video events
0,0,"no.jpg",0,0
//Break Periods
//Storyboard Layer 0 (Background)
//Storyboard Layer 1 (Fail)
//Storyboard Layer 2 (Pass)
//Storyboard Layer 3 (Foreground)
//Storyboard Sound Samples

[TimingPoints]
514,227.12217280212,4,2,1,100,1,0
514,-100,4,2,1,100,0,0
968,-100,4,2,1,100,0,0
1422,-100,4,2,1,100,0,0
1876,-100,4,2,1,100,0,0
2330,-100,4,2,1,100,0,0
2785,-100,4,2,1,100,0,0
3239,-100,4,2,1,100,0,0
3693,-100,4,2,1,100,0,0
4147,-100,4,2,1,100,0,0
4602,-100,4,2,1,100,0,0
5056,-100,4,2,1,100,0,0
5510,-100,4,2,1,100,0,0
5964,-100,4,2,1,100,0,0
6419,-100,4,2,1,100,0,0
6873,-100,4,2,1,100,0,0
7327,-100,4,2,1,100,0,0
7781,-100,4,2,1,100,0,0
13232,-100,4,2,1,100,0,0
13687,-100,4,2,1,100,0,0
14141,-100,4,2,1,100,0,0
14595,-100,4,2,1,100,0,0
14936,-100,4,2,1,5,0,0
15049,-100,4,2,1,100,0,0
15504,227.12217280212,4,2,1,100,1,0
15504,-100,4,2,1,100,0,0
20954,-100,4,2,1,100,0,0
21409,-100,4,2,1,100,0,0
21863,-100,4,2,1,100,0,0
22317,-100,4,2,1,100,0,0
22658,-100,4,2,1,5,0,0
22771,-100,4,2,1,80,0,0
23226,227.12217280212,4,2,1,75,1,0
23226,-100,4,2,1,75,0,0
23453,-100,4,2,1,75,0,0
25042,-100,4,2,1,75,0,0
25270,-100,4,2,1,75,0,0
25951,-100,4,2,1,75,0,0
27087,-100,4,2,1,75,0,0
28676,-100,4,2,1,75,0,0
28904,-100,4,2,1,75,0,0
29585,-100,4,2,1,75,0,0
30721,-100,4,2,1,75,0,0
32310,-100,4,2,1,75,0,0
32538,-100,4,2,1,75,0,0
33219,-100,4,2,1,75,0,0
34354,-100,4,2,1,75,0,0
35944,-100,4,2,1,75,0,0
36171,-100,4,2,1,75,0,0
36853,-100,4,2,1,75,0,0
40487,-100,4,2,1,80,0,1
40827,-100,4,2,1,80,0,1
45938,-100,4,2,1,80,0,0
46392,-100,4,2,1,80,0,0
46846,-100,4,2,1,80,0,0
47755,-100,4,2,1,80,0,1
53206,-100,4,2,1,80,0,0
53660,-100,4,2,1,80,0,0
54114,-100,4,2,1,80,0,0
55023,-100,4,2,1,75,0,0
55250,-100,4,2,1,75,0,0
56840,-100,4,2,1,75,0,0
57067,-100,4,2,1,75,0,0
57748,-100,4,2,1,75,0,0
58884,-100,4,2,1,75,0,0
60474,-100,4,2,1,75,0,0
60701,-100,4,2,1,75,0,0
61382,-100,4,2,1,75,0,0
62518,-100,4,2,1,75,0,0
64107,-100,4,2,1,75,0,0
64335,-100,4,2,1,75,0,0
64959,-100,4,2,1,75,0,0
66152,-100,4,2,1,75,0,0
67741,-100,4,2,1,75,0,0
67969,-100,4,2,1,75,0,0
68650,-100,4,2,1,75,0,0
72284,-100,4,2,1,80,0,1
77735,-100,4,2,1,80,0,0
78189,-100,4,2,1,80,0,0
78643,-100,4,2,1,80,0,0
79552,-100,4,2,1,80,0,1
85003,227.12217280212,6,2,1,80,1,0
85003,-100,6,2,1,80,0,0
85457,-100,6,2,1,80,0,0
85911,-100,6,2,1,80,0,0
86365,-100,6,2,1,80,0,0
86819,-100,6,2,1,80,0,0
87274,-100,6,2,1,80,0,0
87728,-100,6,2,1,80,0,0
88182,-100,6,2,1,80,0,0
88636,-100,6,2,1,80,0,0
89091,454.242626128036,4,2,1,100,1,0
89091,-100,4,2,1,100,0,0
99992,-100,4,2,1,100,0,0
101809,-100,4,2,1,100,0,0
112711,-100,4,2,1,100,0,0
114528,-100,4,2,1,100,0,0
125430,-100,4,2,1,100,0,0
130957,-100,4,2,1,5,0,0

[Colours]
Combo1 : 255,185,40
Combo2 : 236,50,45

[HitObjects]
90,120,514,6,0,P|124:110|179:112,1,81,12|8,0:0|2:0,0:0:0:0:
219,183,968,2,0,P|262:196|308:192,1,81,8|8,0:0|0:0,0:0:0:0:
370,147,1422,2,0,L|378:58,2,81,8|8|8,0:0|0:0|0:0,0:0:0:0:
381,235,2103,1,8,0:0:0:0:
398,322,2330,6,0,P|345:343|310:341,1,81,12|8,0:0|0:0,0:0:0:0:
252,290,2785,2,0,P|194:274|158:277,1,81,8|8,0:0|0:0,0:0:0:0:
86,291,3239,2,0,P|42:236|36:214,1,81,8|8,0:0|0:0,0:0:0:0:
34,140,3693,2,0,P|49:104|85:69,1,81,8|8,0:0|0:0,0:0:0:0:
138,138,4147,6,0,L|234:149,1,81,12|8,0:0|0:0,0:0:0:0:
280,85,4602,2,0,P|336:71|371:76,1,81,8|8,0:0|0:0,0:0:0:0:
416,138,5056,2,0,L|506:149,2,81,8|8|8,0:0|0:0|0:0,0:0:0:0:
330,160,5737,1,8,0:0:0:0:
392,222,5964,6,0,P|412:274|407:310,1,81,12|8,0:0|0:0,0:0:0:0:
345,357,6419,2,0,P|299:353|259:334,1,81,8|8,0:0|0:0,0:0:0:0:
230,262,6873,2,0,L|227:174,1,81,8|8,0:0|0:0,0:0:0:0:
189,101,7327,2,0,P|140:85|97:91,1,81,8|8,0:0|0:0,0:0:0:0:
52,152,7781,1,12,0:0:0:0:
242,128,9598,6,0,B|289:124|289:124|317:109|317:109|371:104,2,121.5,6|2|8,0:0|0:0|0:0,0:0:0:0:
155,109,10507,1,2,0:0:0:0:
233,215,10848,2,0,L|362:205,1,121.5,2|8,0:0|0:0,0:0:0:0:
438,227,11415,6,0,P|475:294|465:352,2,121.5,2|2|8,0:0|0:0|0:0,0:0:0:0:
352,205,12324,1,2,0:0:0:0:
327,334,12665,1,2,0:0:0:0:
229,245,13005,1,8,0:0:0:0:
173,314,13232,6,0,L|78:321,1,81,8|2,3:2|3:2,0:0:0:0:
61,236,13687,2,0,L|147:228,1,81,2|2,3:2|3:2,0:0:0:0:
121,142,14141,2,0,L|41:148,1,81,2|2,3:2|3:2,0:0:0:0:
26,61,14595,6,0,L|194:49,1,162,6|6,0:3|0:3,0:0:0:0:
362,62,15504,6,0,P|333:105|335:182,2,121.5,6|2|8,0:0|0:0|0:0,0:0:0:0:
446,88,16412,2,0,L|458:224,1,121.5,2|2,0:0|0:0,0:0:0:0:
397,325,17093,1,8,0:0:0:0:
312,298,17320,6,0,L|184:287,2,121.5,2|2|8,0:0|0:0|0:0,0:0:0:0:
376,236,18229,1,2,0:0:0:0:
250,193,18570,2,0,B|208:189|208:189|178:197|178:197|129:192,1,121.5,2|8,0:0|0:0,0:0:0:0:
59,142,19137,6,0,P|65:65|102:29,2,121.5,2|2|8,0:0|0:0|0:0,0:0:0:0:
131,192,20046,1,2,0:0:0:0:
219,93,20387,1,2,0:0:0:0:
333,156,20727,1,8,0:0:0:0:
247,175,20954,6,0,P|226:213|221:258,1,81,10|2,3:2|3:2,0:0:0:0:
309,242,21409,2,0,P|317:279|341:316,1,81,2|2,3:2|3:2,0:0:0:0:
404,254,21863,2,0,P|435:281|481:288,1,81,2|2,3:2|3:2,0:0:0:0:
476,200,22317,6,0,P|477:114|414:76,1,162,6|6,0:3|0:3,0:0:0:0:
254,135,23226,6,0,L|164:127,1,81,6|8,0:0|0:0,0:0:0:0:
260,231,25042,6,0,L|170:223,1,81,2|8,0:0|0:0,0:0:0:0:
426,324,25951,6,0,P|464:263|461:202,2,121.5,2|2|8,0:0|0:0|0:0,0:0:0:0:
339,343,26859,2,0,L|256:336,1,81,2|8,0:0|0:0,0:0:0:0:
361,253,28676,6,0,L|274:243,1,81,2|8,0:0|0:0,0:0:0:0:
81,64,29585,6,0,P|147:28|247:40,2,162,2|2|6,0:0|0:0|0:0,0:0:0:0:
54,148,30721,1,8,0:0:0:0:
135,183,32310,6,0,L|140:278,1,81,2|8,0:0|0:0,0:0:0:0:
335,82,33219,6,0,P|399:75|452:109,2,121.5,2|2|8,0:0|0:0|0:0,0:0:0:0:
259,129,34127,2,0,P|244:165|244:219,1,81,6|8,0:0|0:0,0:0:0:0:
149,209,35944,6,0,P|172:266|193:287,1,81,2|8,0:0|0:0,0:0:0:0:
391,110,36853,6,0,L|519:102,2,121.5,6|2|8,0:0|0:0|0:0,0:0:0:0:
317,160,37761,2,0,L|189:152,2,121.5,6|2|8,0:0|0:0|0:0,0:0:0:0:
359,243,38670,2,0,P|313:248|270:266,1,81,6|8,0:0|0:0,0:0:0:0:
222,327,39124,2,0,P|168:320|131:300,1,81,0|8,0:0|0:0,0:0:0:0:
101,230,39578,5,4,0:0:0:0:
435,77,40487,6,0,P|468:129|460:196,2,121.5,6|2|8,0:0|0:0|0:0,0:0:0:0:
356,35,41395,1,2,0:0:0:0:
291,151,41736,2,0,L|160:158,1,121.5,2|8,0:0|0:0,0:0:0:0:
83,132,42304,6,0,B|64:204|64:204|87:255,2,121.5,2|2|8,0:0|0:0|0:0,0:0:0:0:
147,70,43212,2,0,L|273:59,1,121.5,2|2,0:0|0:0,0:0:0:0:
401,49,43894,1,8,0:0:0:0:
340,113,44121,6,0,P|311:163|322:229,2,121.5,2|2|8,0:0|0:0|0:0,0:0:0:0:
399,179,45029,1,2,0:0:0:0:
397,267,45256,2,0,L|483:278,2,81,8|0|8,0:0|0:0|0:0,0:0:0:0:
321,315,45938,6,0,P|285:326|229:321,1,81,12|2,3:2|3:2,0:0:0:0:
214,240,46392,2,0,P|175:218|131:218,1,81,2|2,3:2|3:2,0:0:0:0:
54,241,46846,2,0,P|30:186|32:155,1,81,2|2,3:2|3:2,0:0:0:0:
63,84,47300,1,6,3:3:0:0:
236,127,47755,6,0,B|280:129|280:129|310:118|310:118|366:120,2,121.5,6|2|8,0:0|0:0|0:0,0:0:0:0:
149,149,48663,2,0,P|122:205|138:276,1,121.5,2|2,0:0|0:0,0:0:0:0:
240,336,49345,1,8,0:0:0:0:
300,271,49572,6,0,B|378:261|378:261|435:279,2,121.5,2|2|8,0:0|0:0|0:0,0:0:0:0:
219,234,50480,1,2,0:0:0:0:
338,175,50821,1,2,0:0:0:0:
228,100,51162,1,8,0:0:0:0:
163,161,51389,6,0,L|26:172,2,121.5,2|2|8,0:0|0:0|0:0,0:0:0:0:
228,100,52297,2,0,P|294:73|349:82,1,121.5,2|2,0:0|0:0,0:0:0:0:
428,175,52979,1,8,0:0:0:0:
355,227,53206,6,0,L|348:308,1,81,10|2,3:2|3:2,0:0:0:0:
259,316,53660,2,0,L|265:235,1,81,2|2,3:2|3:2,0:0:0:0:
177,239,54114,2,0,L|170:319,1,81,2|2,3:2|3:2,0:0:0:0:
81,327,54568,1,6,3:3:0:0:
67,149,55023,6,0,P|102:121|142:108,1,81,6|8,0:0|0:0,0:0:0:0:
83,32,56840,6,0,P|138:19|178:21,1,81,2|8,0:0|0:0,0:0:0:0:
361,196,57748,6,0,B|412:208|412:208|486:198,2,121.5,2|2|8,0:0|0:0|0:0,0:0:0:0:
281,155,58657,2,0,P|226:166|193:188,1,81,2|8,0:0|0:0,0:0:0:0:
337,82,60474,6,0,P|284:67|248:66,1,81,2|8,0:0|0:0,0:0:0:0:
220,329,61382,6,0,L|88:318,2,121.5,2|2|8,0:0|0:0|0:0,0:0:0:0:
308,338,62291,2,0,L|397:345,1,81,2|8,0:0|0:0,0:0:0:0:
274,241,64107,6,0,L|368:249,1,81,2|8,0:0|0:0,0:0:0:0:
132,99,65016,6,0,P|90:176|103:218,2,121.5,2|2|8,0:0|0:0|0:0,0:0:0:0:
220,106,65924,2,0,P|264:107|314:91,1,81,2|8,0:0|0:0,0:0:0:0:
309,197,67741,6,0,P|370:207|400:203,1,81,2|8,0:0|0:0,0:0:0:0:
135,289,68650,6,0,P|79:259|15:268,2,121.5,6|2|8,0:0|0:0|0:0,0:0:0:0:
200,350,69558,2,0,L|336:356,1,121.5,6|2,0:0|0:0,0:0:0:0:
446,305,70240,1,8,0:0:0:0:
362,273,70467,6,0,B|340:226|340:226|353:144,2,121.5,6|2|8,0:0|0:0|0:0,0:0:0:0:
446,305,71375,1,4,0:0:0:0:
172,56,72284,6,0,L|47:67,2,121.5,6|2|8,0:0|0:0|0:0,0:0:0:0:
256,80,73192,2,0,P|292:135|289:196,1,121.5,2|2,0:0|0:0,0:0:0:0:
178,262,73874,1,8,0:0:0:0:
247,316,74101,6,0,B|294:321|294:321|324:313|324:313|374:318,2,121.5,2|2|8,0:0|0:0|0:0,0:0:0:0:
163,346,75009,1,2,0:0:0:0:
47,279,75350,2,0,P|42:225|76:156,1,121.5,2|8,0:0|0:0,0:0:0:0:
155,144,75918,6,0,L|275:156,2,121.5,2|2|8,0:0|0:0|0:0,0:0:0:0:
93,79,76826,1,2,0:0:0:0:
177,53,77053,2,0,L|272:62,2,81,8|0|8,0:0|0:0|0:0,0:0:0:0:
155,144,77735,6,0,P|175:184|180:230,1,81,12|2,3:2|3:2,0:0:0:0:
187,307,78189,2,0,P|237:323|272:325,1,81,2|2,3:2|3:2,0:0:0:0:
350,297,78643,2,0,P|372:259|378:215,1,81,2|2,3:2|3:2,0:0:0:0:
361,135,79098,1,6,3:3:0:0:
183,142,79552,6,0,L|43:153,2,121.5,6|2|8,0:0|0:0|0:0,0:0:0:0:
268,164,80460,2,0,P|302:215|292:289,1,121.5,2|2,0:0|0:0,0:0:0:0:
182,337,81142,1,8,0:0:0:0:
137,260,81369,6,0,B|68:264|68:264|20:300,2,121.5,2|2|8,0:0|0:0|0:0,0:0:0:0:
225,260,82277,1,2,0:0:0:0:
129,166,82618,2,0,P|127:90|160:53,1,121.5,2|8,0:0|0:0,0:0:0:0:
241,43,83186,6,0,L|366:49,2,121.5,2|2|8,0:0|0:0|0:0,0:0:0:0:
210,126,84094,2,0,P|266:137|317:174,1,121.5,2|2,0:0|0:0,0:0:0:0:
352,303,84776,1,8,0:0:0:0:
438,280,85003,5,12,3:2:0:0:
438,280,86365,1,12,3:2:0:0:
438,280,87728,1,12,3:2:0:0:
206,187,89091,6,0,B|133:220|133:220|36:204,1,162,6|12,0:0|0:0,0:0:0:0:
192,95,90907,2,0,P|257:89|310:118,2,121.5,2|2|8,0:0|0:0|0:0,0:0:0:0:
131,161,92724,6,0,L|127:328,1,162,6|12,3:2|0:0,0:0:0:0:
300,279,94541,2,0,L|306:156,1,121.5,2|2,0:0|0:0,0:0:0:0:
403,66,95904,1,8,0:0:0:0:
465,128,96358,6,0,L|472:214,2,81,6|2|12,3:2|0:0|0:0,0:0:0:0:
297,67,98175,2,0,B|234:62|234:62|201:81|201:81|137:76,2,162,2|8|0,0:0|0:0|3:0,0:0:0:0:
361,271,101809,6,0,P|285:236|207:248,1,162,6|12,0:0|0:0,0:0:0:0:
163,75,103626,2,0,B|220:93|220:93|297:81,2,121.5,2|2|8,0:0|0:0|0:0,0:0:0:0:
77,97,105443,6,0,P|62:138|60:179,1,81,6|2,3:2|0:0,0:0:0:0:
86,260,106352,1,12,0:0:0:0:
249,188,107260,2,0,L|373:176,2,121.5,2|2|8,0:0|0:0|0:0,0:0:0:0:
161,205,109077,6,0,P|121:246|129:358,1,162,6|12,3:2|0:0,0:0:0:0:
262,236,110894,2,0,B|268:184|268:184|247:136|247:136|258:67,2,162,2|8|0,0:0|0:0|3:0,0:0:0:0:
262,236,114528,5,6,0:0:0:0:
188,287,114982,2,0,L|99:294,2,81,8|2|8,0:0|0:0|0:0,0:0:0:0:
270,320,116345,2,0,P|321:351|392:339,2,121.5,6|2|8,0:0|0:0|0:0,0:0:0:0:
268,230,118162,5,6,3:2:0:0:
349,195,118616,2,0,L|440:201,2,81,8|2|8,0:0|0:0|0:0,0:0:0:0:
288,129,119979,2,0,P|247:99|175:94,1,121.5,6|2,0:0|0:0,0:0:0:0:
69,170,121342,1,8,0:0:0:0:
139,224,121796,6,0,L|142:316,1,81,6|8,0:0|0:0,0:0:0:0:
225,334,122704,2,0,P|267:307|316:301,1,81,6|8,0:0|0:0,0:0:0:0:
378,336,123613,6,0,P|451:334|496:298,1,121.5,6|2,0:0|0:0,0:0:0:0:
426,189,124976,1,8,0:0:0:0:
342,218,125430,6,0,L|337:98,2,108,0|0|0,3:0|3:0|3:0,0:0:0:0:
224,235,127247,2,0,L|217:115,2,108,0|0|0,3:0|3:0|3:0,0:0:0:0:
106,250,129064,2,0,L|100:135,2,108,0|0|0,3:0|3:0|3:0,0:0:0:0:
42,350,130881,5,4,3:2:0:0:
256,192,130957,12,0,138944,0:0:0:0:
