osu file format v14

[General]
AudioFilename: state of the union.mp3
AudioLeadIn: 0
PreviewTime: 40373
Countdown: 0
SampleSet: Soft
StackLeniency: 0.5
Mode: 0
LetterboxInBreaks: 0
WidescreenStoryboard: 0

[Editor]
Bookmarks: 101128
DistanceSpacing: 1.1
BeatDivisor: 4
GridSize: 4
TimelineZoom: 2.799999

[Metadata]
Title:State of the Union
TitleUnicode:State of the Union
Artist:Rise Against
ArtistUnicode:Rise Against
Creator:pishifat
Version:Insane
Source:
Tags:siren song counter culture milan- punk hardcore
BeatmapID:849439
BeatmapSetID:387185

[Difficulty]
HPDrainRate:6
CircleSize:4
OverallDifficulty:8
ApproachRate:9
SliderMultiplier:1.5
SliderTickRate:1

[Events]
//Background and Video events
0,0,"no.jpg",0,0
//Break Periods
//Storyboard Layer 0 (Background)
//Storyboard Layer 1 (Fail)
//Storyboard Layer 2 (Pass)
//Storyboard Layer 3 (Foreground)
//Storyboard Sound Samples

[TimingPoints]
514,227.12217280212,4,2,1,80,1,0
514,-105.263157894737,4,2,1,80,0,0
968,-102.040816326531,4,2,1,80,0,0
1422,-100,4,2,1,80,0,0
1876,-97.0873786407767,4,2,1,80,0,0
2330,-100,4,2,1,85,0,0
2785,-97.0873786407767,4,2,1,85,0,0
3239,-95.2380952380952,4,2,1,85,0,0
3693,-92.5925925925926,4,2,1,85,0,0
4147,-95.2380952380952,4,2,1,90,0,0
4602,-92.5925925925926,4,2,1,90,0,0
5056,-90.9090909090909,4,2,1,90,0,0
5510,-88.4955752212389,4,2,1,90,0,0
5964,-90.9090909090909,4,2,1,95,0,0
6419,-88.4955752212389,4,2,1,95,0,0
6873,-86.9565217391304,4,2,1,95,0,0
7327,-84.7457627118644,4,2,1,95,0,0
7781,-100,4,2,1,100,0,0
9138,-100,4,2,1,80,0,0
13232,-142.857142857143,4,2,1,80,0,0
13687,-117.647058823529,4,2,1,80,0,0
14141,-142.857142857143,4,2,1,80,0,0
14595,-161.290322580645,4,2,1,80,0,0
14936,-161.290322580645,4,2,1,5,0,0
15049,-100,4,2,1,80,0,0
15504,227.12217280212,4,2,1,80,1,0
15504,-100,4,2,1,80,0,0
20954,-142.857142857143,4,2,1,80,0,0
21409,-117.647058823529,4,2,1,80,0,0
21863,-142.857142857143,4,2,1,80,0,0
22317,-161.290322580645,4,2,1,80,0,0
22658,-100,4,2,1,5,0,0
22771,-161.290322580645,4,2,1,80,0,0
23226,227.12217280212,4,2,1,75,1,0
23226,-125,4,2,1,75,0,0
23453,-250,4,2,1,50,0,0
25042,-125,4,2,1,75,0,0
25270,-250,4,2,1,50,0,0
25951,-125,4,2,1,75,0,0
27087,-250,4,2,1,50,0,0
28676,-125,4,2,1,75,0,0
28904,-250,4,2,1,50,0,0
29585,-125,4,2,1,75,0,0
30721,-200,4,2,1,50,0,0
32310,-125,4,2,1,75,0,0
32538,-200,4,2,1,50,0,0
33219,-125,4,2,1,75,0,0
34354,-200,4,2,1,50,0,0
35944,-125,4,2,1,75,0,0
36171,-200,4,2,1,50,0,0
36853,-100,4,2,1,75,0,0
39805,-100,4,2,1,60,0,0
40033,-100,4,2,1,67,0,0
40260,-100,4,2,1,74,0,0
40487,-90.9090909090909,4,2,1,80,0,1
40827,-100,4,2,1,80,0,1
45938,-142.857142857143,4,2,1,80,0,0
46392,-117.647058823529,4,2,1,80,0,0
46846,-142.857142857143,4,2,1,80,0,0
47755,-100,4,2,1,80,0,1
53206,-142.857142857143,4,2,1,80,0,0
53660,-117.647058823529,4,2,1,80,0,0
54114,-142.857142857143,4,2,1,80,0,0
55023,-125,4,2,1,75,0,0
55250,-250,4,2,1,50,0,0
56840,-125,4,2,1,75,0,0
57067,-250,4,2,1,50,0,0
57748,-125,4,2,1,75,0,0
58884,-250,4,2,1,50,0,0
60474,-125,4,2,1,75,0,0
60701,-250,4,2,1,50,0,0
61382,-125,4,2,1,75,0,0
62518,-200,4,2,1,50,0,0
64107,-125,4,2,1,75,0,0
64335,-200,4,2,1,50,0,0
64959,-125,4,2,1,75,0,0
66152,-200,4,2,1,50,0,0
67741,-125,4,2,1,75,0,0
67969,-200,4,2,1,50,0,0
68650,-100,4,2,1,75,0,0
71603,-100,4,2,1,60,0,0
71773,-100,4,2,1,67,0,0
72000,-100,4,2,1,75,0,0
72284,-100,4,2,1,80,0,1
77735,-142.857142857143,4,2,1,80,0,0
78189,-117.647058823529,4,2,1,80,0,0
78643,-142.857142857143,4,2,1,80,0,0
79552,-100,4,2,1,80,0,1
85003,227.12217280212,6,2,1,80,1,0
85003,-142.857142857143,6,2,1,80,0,0
85457,-117.647058823529,6,2,1,80,0,0
85911,-142.857142857143,6,2,1,80,0,0
86365,-142.857142857143,6,2,1,80,0,0
86819,-117.647058823529,6,2,1,80,0,0
87274,-142.857142857143,6,2,1,80,0,0
87728,-142.857142857143,6,2,1,80,0,0
88182,-117.647058823529,6,2,1,80,0,0
88636,-142.857142857143,6,2,1,80,0,0
89091,454.242626128036,4,2,1,100,1,0
89091,-133.333333333334,4,2,1,100,0,0
99992,-111.111111111111,4,2,1,100,0,0
101809,-133.333333333334,4,2,1,100,0,0
112711,-111.111111111111,4,2,1,100,0,0
114528,-90.9090909090909,4,2,1,100,0,0
125430,-111.111111111111,4,2,1,100,0,0
130957,-111.111111111111,4,2,1,5,0,0

[Colours]
Combo1 : 255,185,40
Combo2 : 236,50,45

[HitObjects]
405,131,514,6,0,L|308:139,1,71.2499980974198,12|2,0:0|0:0,0:0:0:0:
471,60,741,2,0,P|493:88|505:123,1,71.2499980974198,8|2,2:0|2:0,0:0:0:0:
342,280,968,6,0,L|247:270,1,73.4999993270874,8|2,0:0|0:0,0:0:0:0:
426,236,1195,2,0,P|439:285|431:329,1,73.4999993270874,8|2,0:0|0:0,0:0:0:0:
162,329,1422,5,8,0:0:0:0:
172,259,1536,1,2,0:0:0:0:
188,190,1649,2,0,P|218:167|274:155,1,75,8|2,0:0|0:0,0:0:0:0:
426,236,1876,5,8,0:0:0:0:
416,166,1990,1,2,0:0:0:0:
404,96,2103,2,0,P|369:72|309:64,1,77.2499993516922,8|2,0:0|0:0,0:0:0:0:
99,135,2330,6,0,L|88:231,1,75,12|2,0:0|0:0,0:0:0:0:
31,74,2558,2,0,P|65:50|99:44,1,75,8|2,0:0|0:0,0:0:0:0:
273,190,2785,6,0,L|276:269,1,77.2499993516922,8|2,0:0|0:0,0:0:0:0:
188,150,3012,2,0,P|223:110|273:96,1,77.2499993516922,8|2,0:0|0:0,0:0:0:0:
481,191,3239,5,8,0:0:0:0:
466,268,3353,1,2,0:0:0:0:
451,345,3466,2,0,P|410:366|363:369,1,78.7499975967408,8|2,0:0|0:0,0:0:0:0:
205,245,3693,5,8,0:0:0:0:
128,255,3807,1,2,0:0:0:0:
53,267,3920,2,0,P|38:293|32:367,1,81.0000019775391,8|2,0:0|0:0,0:0:0:0:
267,179,4147,6,0,L|259:95,1,78.7499975967408,12|2,0:0|0:0,0:0:0:0:
354,219,4375,2,0,P|326:255|281:273,1,78.7499975967408,8|2,0:0|0:0,0:0:0:0:
103,91,4602,6,0,L|117:1,1,81.0000019775391,8|2,0:0|0:0,0:0:0:0:
173,164,4829,2,0,P|118:188|72:181,1,81.0000019775391,8|2,0:0|0:0,0:0:0:0:
251,20,5056,5,8,0:0:0:0:
320,66,5170,1,2,0:0:0:0:
387,113,5283,2,0,P|436:113|476:93,1,82.5000025177003,8|2,0:0|0:0,0:0:0:0:
185,83,5510,5,8,0:0:0:0:
173,164,5624,1,2,0:0:0:0:
163,245,5737,2,0,L|150:349,1,84.7500002586365,8|2,0:0|0:0,0:0:0:0:
21,62,5964,6,0,P|53:36|110:25,1,82.5000025177003,12|2,0:0|0:0,0:0:0:0:
264,155,6192,2,0,P|313:154|361:132,1,82.5000025177003,8|2,0:0|0:0,0:0:0:0:
99,117,6419,6,0,P|76:156|79:216,1,84.7500002586365,8|2,0:0|0:0,0:0:0:0:
250,273,6646,2,0,P|270:312|266:375,1,84.7500002586365,8|2,0:0|0:0,0:0:0:0:
58,290,6873,5,8,0:0:0:0:
82,207,6986,1,2,0:0:0:0:
164,177,7100,2,0,L|256:172,1,86.2500016450882,8|2,0:0|0:0,0:0:0:0:
430,259,7327,5,8,0:0:0:0:
494,197,7440,1,2,0:0:0:0:
494,110,7554,1,8,0:0:0:0:
430,54,7668,1,2,0:0:0:0:
346,58,7781,1,12,0:0:0:0:
176,116,9598,6,0,L|285:121,1,75,6|0,0:0|0:0,0:0:0:0:
383,76,9826,1,8,0:0:0:0:
383,76,9939,2,0,P|340:152|357:237,1,150,2|2,0:0|0:0,0:0:0:0:
476,320,10280,2,0,P|436:277|391:260,1,75,8|0,0:0|0:0,0:0:0:0:
261,321,10507,6,0,P|297:320|358:292,1,75,2|2,0:0|0:0,0:0:0:0:
435,177,10734,1,8,0:0:0:0:
345,211,10848,2,0,B|288:205|288:205|260:184|260:184|171:174,1,150,2|2,0:0|0:0,0:0:0:0:
110,203,11188,2,0,P|85:244|86:299,1,75,8|0,0:0|0:0,0:0:0:0:
252,94,11415,6,0,L|243:6,1,75,2|0,0:0|0:0,0:0:0:0:
136,111,11642,1,8,0:0:0:0:
202,177,11756,2,0,P|281:129|366:151,1,150,2|2,0:0|0:0,0:0:0:0:
424,255,12097,1,8,0:0:0:0:
338,228,12210,1,0,0:0:0:0:
453,168,12324,6,0,P|497:169|548:204,2,75,2|2|8,0:0|0:0|0:0,0:0:0:0:
338,228,12665,2,0,P|317:270|322:328,1,75,2|0,0:0|0:0,0:0:0:0:
476,326,12892,1,2,0:0:0:0:
424,255,13005,1,8,0:0:0:0:
158,366,13232,6,0,B|105:362|105:362|47:321,1,104.999996795654,8|2,3:2|3:2,0:0:0:0:
194,276,13687,6,0,B|146:235|146:235|135:148,1,127.50000243187,2|2,3:2|3:2,0:0:0:0:
274,208,14141,6,0,B|268:156|268:156|295:93,1,104.999996795654,2|2,3:2|3:2,0:0:0:0:
284,332,14595,6,0,P|365:321|428:320,1,139.499994465637,6|0,0:3|0:0,0:0:0:0:
422,319,15049,1,6,0:3:0:0:
187,100,15504,6,0,P|140:89|100:91,1,75,6|0,0:0|0:0,0:0:0:0:
41,198,15731,1,8,0:0:0:0:
41,198,15844,2,0,B|138:187|138:187|210:218,1,150,2|2,0:0|0:0,0:0:0:0:
275,342,16185,2,0,P|334:362|379:357,1,75,8|0,0:0|0:0,0:0:0:0:
420,230,16412,5,2,0:0:0:0:
420,230,16526,1,2,0:0:0:0:
335,268,16639,1,8,0:0:0:0:
283,190,16753,2,0,B|279:134|279:134|297:95|297:95|290:22,1,150,2|2,0:0|0:0,0:0:0:0:
186,207,17093,2,0,L|195:299,1,75,8|0,0:0|0:0,0:0:0:0:
9,197,17320,6,0,P|24:118|78:60,1,150,2|8,0:0|0:0,0:0:0:0:
186,207,17661,2,0,P|135:219|139:139,1,150,2|2,0:0|0:0,0:0:0:0:
283,190,18002,1,8,0:0:0:0:
283,190,18115,1,0,0:0:0:0:
283,190,18229,6,0,L|379:199,1,75,2|2,0:0|0:0,0:0:0:0:
500,61,18456,1,8,0:0:0:0:
500,61,18570,2,0,P|449:105|360:91,1,150,2|2,0:0|0:0,0:0:0:0:
279,61,18910,2,0,P|226:71|188:104,1,75,8|0,0:0|0:0,0:0:0:0:
185,286,19137,6,0,L|339:301,1,150,2|8,0:0|0:0,0:0:0:0:
505,205,19478,2,0,P|481:177|419:155,1,75,2|0,0:0|0:0,0:0:0:0:
282,201,19705,1,2,0:0:0:0:
282,201,19819,2,0,P|340:179|379:185,1,75,8|0,0:0|0:0,0:0:0:0:
500,302,20046,5,2,0:0:0:0:
500,302,20160,1,2,0:0:0:0:
419,254,20273,1,8,0:0:0:0:
334,300,20387,2,0,L|237:309,1,75,2|0,0:0|0:0,0:0:0:0:
112,248,20614,1,2,0:0:0:0:
112,248,20727,1,8,0:0:0:0:
290,97,20954,6,0,B|337:115|337:115|360:164,1,104.999996795654,10|2,3:2|3:2,0:0:0:0:
282,363,21409,6,0,B|275:299|275:299|313:249,1,127.50000243187,2|2,3:2|3:2,0:0:0:0:
507,221,21863,6,0,B|467:252|467:252|413:248,1,104.999996795654,2|2,3:2|3:2,0:0:0:0:
171,101,22317,6,0,P|194:158|201:248,1,139.499994465637,6|0,0:3|0:0,0:0:0:0:
201,235,22771,1,6,0:3:0:0:
455,59,23226,6,0,P|490:45|532:37,1,60,6|0,0:0|0:0,0:0:0:0:
417,143,23453,6,0,L|550:157,3,120,8|8|8|8,0:0|0:0|0:0|0:0,0:0:0:0:
237,198,25042,6,0,L|161:207,1,60,2|0,0:0|0:0,0:0:0:0:
324,327,25270,6,0,P|273:294|216:300,1,120,8|8,0:0|0:0,0:0:0:0:
318,153,25951,6,0,P|350:157|387:179,2,60,2|2|8,0:0|0:0|0:0,0:0:0:0:
237,198,26292,2,0,L|103:213,1,120,2|2,0:0|0:0,0:0:0:0:
26,182,26632,2,0,P|15:146|19:106,1,60,8|0,0:0|0:0,0:0:0:0:
44,275,26859,6,0,L|37:357,1,60,2|0,0:0|0:0,0:0:0:0:
117,211,27087,6,0,P|141:268|147:324,3,120,8|8|8|8,0:0|0:0|0:0|0:0,0:0:0:0:
349,212,28676,6,0,P|362:181|369:150,1,60,2|0,0:0|0:0,0:0:0:0:
391,290,28904,6,0,L|513:304,1,120,8|8,0:0|0:0,0:0:0:0:
157,238,29585,6,0,P|144:267|145:316,1,60,2|2,0:0|0:0,0:0:0:0:
240,199,29812,2,0,P|234:157|223:128,1,60,8|0,0:0|0:0,0:0:0:0:
244,296,30039,1,2,0:0:0:0:
244,296,30153,1,0,0:0:0:0:
244,296,30266,2,0,L|325:305,1,60,8|0,0:0|0:0,0:0:0:0:
441,271,30493,6,0,P|452:242|454:204,1,60,6|0,0:0|0:0,0:0:0:0:
360,375,30721,6,0,L|347:222,3,150,8|8|8|8,0:0|0:0|0:0|0:0,0:0:0:0:
119,76,32310,6,0,L|105:160,1,60,2|0,0:0|0:0,0:0:0:0:
195,28,32538,6,0,P|224:77|234:171,1,150,8|8,0:0|0:0,0:0:0:0:
108,342,33219,6,0,L|38:334,2,60,2|2|8,0:0|0:0|0:0,0:0:0:0:
187,295,33560,2,0,B|232:267|232:267|322:263,1,120,2|2,0:0|0:0,0:0:0:0:
378,317,33900,2,0,P|427:335|456:338,1,60,8|0,0:0|0:0,0:0:0:0:
437,197,34127,6,0,P|396:220|375:244,1,60,6|0,0:0|0:0,0:0:0:0:
385,113,34354,6,0,L|230:101,3,150,8|8|8|8,0:0|0:0|0:0|0:0,0:0:0:0:
69,188,35944,6,0,L|-7:193,1,60,2|0,0:0|0:0,0:0:0:0:
127,270,36171,6,0,P|72:303|75:385,1,150,8|8,0:0|0:0,0:0:0:0:
380,195,36853,6,0,L|373:106,1,75,6|0,0:0|0:0,0:0:0:0:
463,243,37080,1,8,0:0:0:0:
463,243,37194,2,0,P|405:288|332:282,1,150,2|2,0:0|0:0,0:0:0:0:
268,212,37534,2,0,P|220:192|172:198,1,75,8|0,0:0|0:0,0:0:0:0:
156,359,37761,5,6,0:0:0:0:
156,359,37875,1,0,0:0:0:0:
213,288,37988,1,8,0:0:0:0:
124,269,38102,2,0,B|70:274|70:274|39:298|39:298|-29:305,1,150,2|2,0:0|0:0,0:0:0:0:
115,174,38443,2,0,L|205:166,1,75,8|0,0:0|0:0,0:0:0:0:
311,280,38670,6,0,P|363:320|461:303,1,150,6|8,0:0|0:0,0:0:0:0:
428,161,39010,1,2,0:0:0:0:
428,161,39124,2,0,P|404:199|396:231,1,75,0|2,0:0|0:0,0:0:0:0:
246,352,39351,2,0,P|223:317|217:257,1,75,8|0,0:0|0:0,0:0:0:0:
192,118,39578,6,0,P|162:102|104:97,1,75,4|2,0:0|0:0,0:0:0:0:
24,276,39805,1,8,0:0:0:0:
51,285,39919,1,8,0:0:0:0:
100,286,40033,1,8,0:0:0:0:
158,245,40146,1,8,0:0:0:0:
234,229,40260,1,8,0:0:0:0:
312,254,40373,1,8,0:0:0:0:
213,311,40487,6,0,B|181:256|181:256|188:123,1,165.000005035401,6|8,0:0|0:0,0:0:0:0:
251,33,40827,2,0,P|308:21|388:95,1,150,2|2,0:0|0:0,0:0:0:0:
417,159,41168,2,0,P|457:171|508:168,1,75,8|0,0:0|0:0,0:0:0:0:
296,117,41395,6,0,P|285:179|278:271,1,150,2|8,0:0|0:0,0:0:0:0:
268,368,41736,1,2,0:0:0:0:
268,368,41850,2,0,P|225:382|164:380,1,75,0|2,0:0|0:0,0:0:0:0:
356,328,42077,2,0,P|396:356|418:397,1,75,8|0,0:0|0:0,0:0:0:0:
185,295,42304,6,0,B|175:240|175:240|189:198|189:198|178:126,1,150,2|8,0:0|0:0,0:0:0:0:
145,55,42644,2,0,P|115:40|43:36,1,75,2|0,0:0|0:0,0:0:0:0:
10,155,42872,1,2,0:0:0:0:
10,155,42985,2,0,P|46:137|101:132,1,75,8|0,0:0|0:0,0:0:0:0:
226,220,43212,6,0,L|314:227,1,75,2|2,0:0|0:0,0:0:0:0:
431,185,43439,1,8,0:0:0:0:
431,185,43553,2,0,P|394:235|372:328,1,150,2|2,0:0|0:0,0:0:0:0:
504,128,43894,2,0,P|499:80|479:36,1,75,8|0,0:0|0:0,0:0:0:0:
311,131,44121,6,0,L|153:147,1,150,2|8,0:0|0:0,0:0:0:0:
338,40,44461,2,0,P|363:52|398:166,1,150,2|2,0:0|0:0,0:0:0:0:
291,229,44802,1,8,0:0:0:0:
291,229,44916,1,0,0:0:0:0:
418,253,45029,6,0,L|521:244,1,75,2|2,0:0|0:0,0:0:0:0:
311,131,45256,2,0,L|225:138,1,75,8|2,0:0|0:0,0:0:0:0:
124,214,45483,1,0,0:0:0:0:
124,214,45597,1,2,0:0:0:0:
124,214,45711,2,0,P|75:210|38:190,1,75,8|0,0:0|0:0,0:0:0:0:
85,24,45938,6,0,B|112:70|112:70|103:146,1,104.999996795654,12|2,3:2|3:2,0:0:0:0:
218,263,46392,6,0,L|237:126,1,127.50000243187,2|2,3:2|3:2,0:0:0:0:
139,325,46846,6,0,B|181:359|181:359|255:363,1,104.999996795654,2|2,3:2|3:2,0:0:0:0:
440,319,47300,5,6,3:3:0:0:
440,319,47755,6,0,P|392:331|305:270,1,150,6|8,0:0|0:0,0:0:0:0:
384,80,48095,2,0,L|393:233,1,150,2|2,0:0|0:0,0:0:0:0:
475,67,48436,2,0,P|457:22|425:-9,1,75,8|0,0:0|0:0,0:0:0:0:
302,50,48663,5,2,0:0:0:0:
302,50,48777,1,2,0:0:0:0:
384,80,48890,1,8,0:0:0:0:
314,137,49004,2,0,B|262:145|262:145|222:132|222:132|134:146,1,150,2|2,0:0|0:0,0:0:0:0:
87,187,49345,2,0,P|71:239|82:278,1,75,8|0,0:0|0:0,0:0:0:0:
288,285,49572,6,0,P|252:238|160:239,1,150,2|8,0:0|0:0,0:0:0:0:
29,366,49912,2,0,P|-13:303|-24:213,1,150,2|2,0:0|0:0,0:0:0:0:
31,113,50253,1,8,0:0:0:0:
31,113,50367,1,0,0:0:0:0:
87,187,50480,6,0,L|168:191,1,75,2|2,0:0|0:0,0:0:0:0:
296,146,50707,1,8,0:0:0:0:
296,146,50821,2,0,B|253:183|253:183|263:287,1,150,2|2,0:0|0:0,0:0:0:0:
302,363,51162,2,0,P|352:380|404:370,1,75,8|0,0:0|0:0,0:0:0:0:
502,251,51389,6,0,P|448:257|338:294,1,150,2|8,0:0|0:0,0:0:0:0:
209,351,51729,1,2,0:0:0:0:
209,351,51843,2,0,P|155:338|121:314,1,75,0|2,0:0|0:0,0:0:0:0:
179,181,52070,2,0,P|202:234|197:280,1,75,8|0,0:0|0:0,0:0:0:0:
83,145,52297,6,0,B|117:98|117:98|235:78,1,150,2|8,0:0|0:0,0:0:0:0:
373,171,52638,2,0,P|442:176|497:120,1,150,2|2,0:0|0:0,0:0:0:0:
318,98,52979,2,0,P|282:147|280:196,1,75,8|0,0:0|0:0,0:0:0:0:
370,335,53206,6,0,L|486:322,1,104.999996795654,10|2,3:2|3:2,0:0:0:0:
299,275,53660,6,0,B|164:288,1,127.50000243187,2|2,3:2|3:2,0:0:0:0:
347,195,54114,6,0,L|451:182,1,104.999996795654,2|2,3:2|3:2,0:0:0:0:
267,144,54568,5,6,3:3:0:0:
267,144,55023,6,0,P|282:114|289:69,1,60,6|0,0:0|0:0,0:0:0:0:
183,187,55250,6,0,L|169:62,3,120,8|8|8|8,0:0|0:0|0:0|0:0,0:0:0:0:
293,361,56840,6,0,L|364:367,1,60,2|0,0:0|0:0,0:0:0:0:
236,289,57067,6,0,P|285:258|350:249,1,120,8|8,0:0|0:0,0:0:0:0:
66,279,57748,6,0,P|52:310|47:359,2,60,2|2|8,0:0|0:0|0:0,0:0:0:0:
144,233,58089,2,0,B|172:193|172:193|179:118,1,120,2|2,0:0|0:0,0:0:0:0:
217,37,58429,2,0,P|248:27|292:24,1,60,8|0,0:0|0:0,0:0:0:0:
368,88,58657,6,0,P|400:100|436:106,1,60,2|0,0:0|0:0,0:0:0:0:
297,146,58884,6,0,L|290:279,3,120,8|8|8|8,0:0|0:0|0:0|0:0,0:0:0:0:
185,83,60474,6,0,L|191:7,1,60,2|0,0:0|0:0,0:0:0:0:
98,178,60701,6,0,P|102:114|65:65,1,120,8|8,0:0|0:0,0:0:0:0:
220,294,61382,6,0,P|257:293|296:275,2,60,2|2|8,0:0|0:0|0:0,0:0:0:0:
238,204,61723,2,0,P|314:198|355:237,1,120,2|2,0:0|0:0,0:0:0:0:
364,317,62063,2,0,P|404:348|434:357,1,60,8|0,0:0|0:0,0:0:0:0:
494,238,62291,6,0,L|430:251,1,60,2|0,0:0|0:0,0:0:0:0:
457,149,62518,6,0,P|435:100|418:2,3,150,8|8|8|8,0:0|0:0|0:0|0:0,0:0:0:0:
242,257,64107,6,0,P|209:269|168:271,1,60,2|0,0:0|0:0,0:0:0:0:
279,169,64335,6,0,L|124:152,1,150,8|8,0:0|0:0,0:0:0:0:
394,227,65016,6,0,L|388:151,2,60,2|2|8,0:0|0:0|0:0,0:0:0:0:
363,317,65357,2,0,P|319:346|237:332,1,120,2|2,0:0|0:0,0:0:0:0:
187,274,65697,2,0,P|145:254|106:252,1,60,8|0,0:0|0:0,0:0:0:0:
0,276,65924,6,0,L|-6:215,1,60,2|0,0:0|0:0,0:0:0:0:
87,326,66152,6,0,L|98:162,3,150,8|8|8|8,0:0|0:0|0:0|0:0,0:0:0:0:
306,28,67741,6,0,L|314:108,1,60,2|0,0:0|0:0,0:0:0:0:
436,55,67969,6,0,P|401:113|389:207,1,150,8|8,0:0|0:0,0:0:0:0:
197,284,68650,6,0,B|188:230|188:230|205:188|205:188|194:124,1,150,6|8,0:0|0:0,0:0:0:0:
113,320,68991,2,0,P|144:361|253:358,1,150,2|2,0:0|0:0,0:0:0:0:
283,244,69331,1,8,0:0:0:0:
283,244,69445,1,0,0:0:0:0:
371,319,69558,6,0,L|464:326,2,75,6|0|8,0:0|0:0|0:0,0:0:0:0:
197,284,69899,2,0,P|191:208|243:153,1,150,2|2,0:0|0:0,0:0:0:0:
369,210,70240,2,0,P|416:199|468:170,1,75,8|0,0:0|0:0,0:0:0:0:
380,33,70467,6,0,P|328:18|287:17,1,75,6|0,0:0|0:0,0:0:0:0:
189,71,70694,1,8,0:0:0:0:
189,71,70808,2,0,L|32:86,1,150,2|2,0:0|0:0,0:0:0:0:
58,201,71148,2,0,P|123:171|156:169,1,75,8|0,0:0|0:0,0:0:0:0:
293,253,71375,6,0,P|348:268|378:266,1,75,4|2,0:0|0:0,0:0:0:0:
301,109,71603,1,8,0:0:0:0:
273,116,71716,1,8,0:0:0:0:
241,149,71830,1,8,0:0:0:0:
211,218,71943,1,8,0:0:0:0:
218,297,72057,1,8,0:0:0:0:
158,353,72170,1,8,0:0:0:0:
133,269,72284,6,0,L|309:254,1,150,6|8,0:0|0:0,0:0:0:0:
412,280,72625,2,0,P|460:223|446:133,1,150,2|2,0:0|0:0,0:0:0:0:
349,73,72965,1,8,0:0:0:0:
438,62,73079,1,0,0:0:0:0:
368,165,73192,6,0,P|316:162|206:138,1,150,2|8,0:0|0:0,0:0:0:0:
141,89,73533,1,2,0:0:0:0:
141,89,73647,2,0,P|107:127|96:161,1,75,0|2,0:0|0:0,0:0:0:0:
214,278,73874,2,0,P|197:248|160:215,1,75,8|0,0:0|0:0,0:0:0:0:
3,222,74101,6,0,P|70:241|97:237,1,75,2|0,0:0|0:0,0:0:0:0:
222,140,74328,1,8,0:0:0:0:
222,140,74442,2,0,P|279:131|354:195,1,150,2|2,0:0|0:0,0:0:0:0:
380,276,74782,2,0,P|422:292|471:293,1,75,8|0,0:0|0:0,0:0:0:0:
262,223,75009,6,0,P|251:307|258:325,2,75,2|2|8,0:0|0:0|0:0,0:0:0:0:
315,107,75350,2,0,B|277:67|277:67|159:48,1,150,2|2,0:0|0:0,0:0:0:0:
49,134,75691,2,0,L|135:124,1,75,8|0,0:0|0:0,0:0:0:0:
262,223,75918,6,0,P|221:273|129:270,1,150,2|8,0:0|0:0,0:0:0:0:
226,136,76259,2,0,P|300:141|353:212,1,150,2|2,0:0|0:0,0:0:0:0:
343,323,76599,1,8,0:0:0:0:
343,323,76713,1,0,0:0:0:0:
456,266,76826,6,0,L|464:181,1,75,2|2,0:0|0:0,0:0:0:0:
320,32,77053,2,0,L|313:133,1,75,8|2,0:0|0:0,0:0:0:0:
315,230,77281,1,0,0:0:0:0:
315,230,77394,1,2,0:0:0:0:
315,230,77508,2,0,P|256:245|224:243,1,75,8|0,0:0|0:0,0:0:0:0:
126,141,77735,6,0,B|169:110|169:110|232:104,1,104.999996795654,12|2,3:2|3:2,0:0:0:0:
65,213,78189,6,0,B|5:188|5:188|-31:129,1,127.50000243187,2|2,3:2|3:2,0:0:0:0:
156,229,78643,6,0,B|161:281|161:281|135:339,1,104.999996795654,2|2,3:2|3:2,0:0:0:0:
126,141,79098,5,6,3:3:0:0:
126,141,79552,6,0,L|305:152,1,150,6|8,0:0|0:0,0:0:0:0:
400,160,79892,1,2,0:0:0:0:
400,160,80006,2,0,P|367:192|353:231,1,75,0|2,0:0|0:0,0:0:0:0:
272,347,80233,2,0,P|218:368|168:367,1,75,8|0,0:0|0:0,0:0:0:0:
149,207,80460,5,2,0:0:0:0:
149,207,80574,1,2,0:0:0:0:
204,273,80687,1,8,0:0:0:0:
116,292,80801,2,0,P|81:271|62:157,1,150,2|2,0:0|0:0,0:0:0:0:
122,37,81142,2,0,L|132:130,1,75,8|0,0:0|0:0,0:0:0:0:
240,191,81369,6,0,P|256:119|259:35,1,150,2|8,0:0|0:0,0:0:0:0:
204,273,81709,2,0,B|259:298|259:298|379:284,1,150,2|2,0:0|0:0,0:0:0:0:
512,239,82050,1,8,0:0:0:0:
512,239,82164,1,0,0:0:0:0:
441,305,82277,6,0,P|432:354|436:389,2,75,2|2|8,0:0|0:0|0:0,0:0:0:0:
475,150,82618,2,0,P|436:115|337:122,1,150,2|2,0:0|0:0,0:0:0:0:
281,191,82959,2,0,P|237:202|180:194,1,75,8|0,0:0|0:0,0:0:0:0:
71,92,83186,6,0,B|110:127|110:127|124:255,1,150,2|8,0:0|0:0,0:0:0:0:
131,341,83526,1,2,0:0:0:0:
131,341,83640,2,0,P|187:371|232:369,1,75,0|2,0:0|0:0,0:0:0:0:
345,260,83867,2,0,P|388:245|432:245,1,75,8|0,0:0|0:0,0:0:0:0:
307,349,84094,6,0,P|267:314|262:212,1,150,2|8,0:0|0:0,0:0:0:0:
388,153,84435,2,0,P|403:118|399:62,1,75,2|0,0:0|0:0,0:0:0:0:
300,19,84662,1,2,0:0:0:0:
300,19,84776,2,0,L|310:117,1,75,8|0,0:0|0:0,0:0:0:0:
257,221,85003,6,0,B|204:213|204:213|148:164,1,104.999996795654,12|2,3:2|3:2,0:0:0:0:
317,293,85457,6,0,B|381:286|381:286|441:235,1,127.50000243187,2|2,3:2|3:2,0:0:0:0:
255,365,85911,6,0,B|126:379,1,104.999996795654,2|2,3:2|3:2,0:0:0:0:
185,183,86365,6,0,B|218:226|218:226|224:290,1,104.999996795654,12|2,3:2|3:2,0:0:0:0:
95,145,86819,6,0,L|82:16,1,127.50000243187,2|2,3:2|3:2,0:0:0:0:
107,243,87274,6,0,B|61:269|61:269|5:271,1,104.999996795654,2|2,3:2|3:2,0:0:0:0:
328,100,87728,6,0,L|439:115,1,104.999996795654,12|2,3:2|3:2,0:0:0:0:
257,185,88182,6,0,L|407:203,1,127.50000243187,2|2,3:2|3:2,0:0:0:0:
203,278,88636,6,0,L|314:293,1,104.999996795654,2|2,3:2|3:2,0:0:0:0:
163,71,89091,6,0,P|136:75|93:95,1,56.2500021457673,6|0,0:0|0:0,0:0:0:0:
225,181,89545,2,0,P|198:168|158:162,1,56.2500021457673,2|0,0:0|0:0,0:0:0:0:
191,372,89999,2,0,P|187:317|175:259,1,112.500004291535,12|0,0:0|0:0,0:0:0:0:
92,214,90680,1,2,0:0:0:0:
282,290,90907,6,0,L|352:283,1,56.2500021457673,2|0,0:0|0:0,0:0:0:0:
433,276,91362,1,0,0:0:0:0:
241,191,91589,1,2,0:0:0:0:
297,115,91816,2,0,B|336:93|336:93|425:104,1,112.500004291535,8|8,0:0|0:0,0:0:0:0:
477,184,92497,1,0,3:0:0:0:
477,184,92611,1,0,3:0:0:0:
477,184,92724,6,0,P|523:170|542:158,1,56.2500021457673,6|0,3:2|0:0,0:0:0:0:
411,253,93179,2,0,P|453:273|485:276,1,56.2500021457673,2|0,0:0|0:0,0:0:0:0:
315,227,93633,2,0,P|326:323|335:360,1,112.500004291535,12|0,0:0|0:0,0:0:0:0:
420,356,94314,1,2,0:0:0:0:
348,137,94541,6,0,L|270:128,2,56.2500021457673,2|0|0,0:0|0:0|0:0,0:0:0:0:
473,200,95223,1,2,0:0:0:0:
439,110,95450,2,0,P|453:51|463:35,1,56.2500021457673,8|0,0:0|0:0,0:0:0:0:
387,253,95904,2,0,P|341:267|312:268,1,56.2500021457673,8|0,0:0|3:0,0:0:0:0:
324,265,96245,1,0,3:0:0:0:
315,263,96358,6,0,P|256:249|237:248,1,56.2500021457673,6|0,3:2|0:0,0:0:0:0:
136,300,96813,2,0,P|91:310|57:310,1,56.2500021457673,2|0,0:0|0:0,0:0:0:0:
141,111,97267,2,0,P|168:143|176:212,1,112.500004291535,12|0,0:0|0:0,0:0:0:0:
86,188,97948,1,2,0:0:0:0:
251,90,98175,6,0,L|328:98,1,56.2500021457673,2|0,0:0|0:0,0:0:0:0:
436,142,98630,1,0,0:0:0:0:
339,226,98857,1,2,0:0:0:0:
459,271,99084,2,0,P|504:259|525:246,1,56.2500021457673,8|0,0:0|0:0,0:0:0:0:
381,317,99538,2,0,P|363:358|361:382,1,56.2500021457673,0|0,0:0|0:0,0:0:0:0:
339,226,99992,6,0,L|226:216,1,112.499996566773,0|0,3:0|3:0,0:0:0:0:
70,301,100674,2,0,L|161:293,1,89.999997253418,0|0,3:0|3:0,0:0:0:0:
43,212,101279,2,0,L|137:202,1,89.999997253418,0|0,3:0|3:0,0:0:0:0:
220,102,101809,6,0,P|268:66|285:61,1,56.2500021457673,6|0,0:0|0:0,0:0:0:0:
384,97,102264,2,0,P|403:135|407:171,1,56.2500021457673,2|0,0:0|0:0,0:0:0:0:
285,360,102718,2,0,L|297:235,1,112.500004291535,12|0,0:0|0:0,0:0:0:0:
306,153,103399,1,2,0:0:0:0:
383,300,103626,6,0,P|431:311|455:311,2,56.2500021457673,2|0|0,0:0|0:0|0:0,0:0:0:0:
219,189,104308,1,2,0:0:0:0:
151,259,104535,2,0,L|143:333,1,56.2500021457673,8|0,0:0|0:0,0:0:0:0:
125,169,104989,2,0,P|77:148|51:144,1,56.2500021457673,8|0,0:0|3:0,0:0:0:0:
65,147,105330,1,0,3:0:0:0:
56,148,105443,6,0,L|51:82,1,56.2500021457673,6|0,3:2|0:0,0:0:0:0:
1,224,105897,2,0,P|40:238|73:240,1,56.2500021457673,2|0,0:0|0:0,0:0:0:0:
219,189,106352,2,0,P|288:170|340:172,1,112.500004291535,12|0,0:0|0:0,0:0:0:0:
419,206,107033,1,2,0:0:0:0:
285,304,107260,6,0,L|210:295,1,56.2500021457673,2|0,0:0|0:0,0:0:0:0:
135,286,107714,1,0,0:0:0:0:
359,364,107942,1,2,0:0:0:0:
374,274,108169,2,0,P|354:241|284:213,1,112.500004291535,8|8,0:0|0:0,0:0:0:0:
159,198,108850,1,0,3:0:0:0:
157,189,108964,1,0,3:0:0:0:
155,180,109077,6,0,P|166:117|171:109,1,56.2500021457673,6|0,3:2|0:0,0:0:0:0:
276,74,109531,2,0,P|319:84|344:84,1,56.2500021457673,2|0,0:0|0:0,0:0:0:0:
481,26,109986,2,0,P|447:82|441:138,1,112.500004291535,12|0,0:0|0:0,0:0:0:0:
465,220,110667,1,2,0:0:0:0:
302,283,110894,6,0,L|297:222,1,56.2500021457673,2|0,0:0|0:0,0:0:0:0:
162,63,111348,2,0,P|130:90|116:119,1,56.2500021457673,0|2,0:0|0:0,0:0:0:0:
270,133,111803,2,0,P|261:91|243:65,1,56.2500021457673,8|0,0:0|0:0,0:0:0:0:
151,195,112257,2,0,P|190:208|222:205,1,56.2500021457673,0|0,0:0|0:0,0:0:0:0:
390,111,112711,6,0,L|521:104,1,112.499996566773,0|0,3:0|3:0,0:0:0:0:
346,193,113392,2,0,P|301:182|259:159,1,89.999997253418,0|0,3:0|3:0,0:0:0:0:
413,274,113998,2,0,P|365:291|316:294,1,89.999997253418,0|0,3:0|3:0,0:0:0:0:
191,226,114528,6,0,P|154:230|107:251,1,82.5000025177003,6|2,0:0|0:0,0:0:0:0:
243,144,114982,2,0,L|248:54,1,82.5000025177003,8|0,0:0|0:0,0:0:0:0:
340,192,115437,2,0,L|345:98,1,82.5000025177003,2|2,0:0|0:0,0:0:0:0:
439,226,115891,1,8,0:0:0:0:
439,226,116118,1,0,0:0:0:0:
251,369,116345,5,6,0:0:0:0:
285,285,116572,2,0,P|271:225|250:200,1,82.5000025177003,2|8,0:0|0:0,0:0:0:0:
21,265,117026,2,0,L|189:277,1,165.000005035401,2|2,0:0|0:0,0:0:0:0:
93,101,117708,1,8,0:0:0:0:
194,130,117935,1,0,3:0:0:0:
194,130,118048,1,0,3:0:0:0:
194,130,118162,6,0,P|231:111|279:109,1,82.5000025177003,6|2,3:2|0:0,0:0:0:0:
397,219,118616,2,0,L|504:228,1,82.5000025177003,8|0,0:0|0:0,0:0:0:0:
261,206,119071,1,2,0:0:0:0:
261,206,119298,1,2,0:0:0:0:
434,131,119525,2,0,P|455:77|451:32,1,82.5000025177003,8|0,0:0|0:0,0:0:0:0:
261,206,119979,6,0,L|268:301,1,82.5000025177003,6|2,0:0|0:0,0:0:0:0:
274,380,120433,1,8,0:0:0:0:
105,195,120660,2,0,L|118:15,1,165.000005035401,2|2,0:0|0:0,0:0:0:0:
171,263,121342,2,0,P|133:286|71:292,1,82.5000025177003,8|0,0:0|0:0,0:0:0:0:
210,126,121796,6,0,P|256:130|320:162,1,82.5000025177003,6|2,0:0|0:0,0:0:0:0:
373,288,122250,2,0,P|430:304|484:298,1,82.5000025177003,8|0,0:0|0:0,0:0:0:0:
202,286,122704,2,0,L|193:386,1,82.5000025177003,6|2,0:0|0:0,0:0:0:0:
284,240,123159,1,8,0:0:0:0:
284,240,123386,1,0,0:0:0:0:
134,168,123613,6,0,L|36:183,2,82.5000025177003,6|0|8,0:0|0:0|0:0,0:0:0:0:
289,142,124294,2,0,P|301:75|227:6,1,165.000005035401,2|2,0:0|0:0,0:0:0:0:
284,240,124976,2,0,L|379:248,1,82.5000025177003,8|0,0:0|0:0,0:0:0:0:
158,209,125430,6,0,B|132:247|132:247|128:306,1,89.999997253418,0|0,3:0|3:0,0:0:0:0:
170,117,126036,2,0,B|124:121|124:121|76:156,1,89.999997253418,0|0,3:0|3:0,0:0:0:0:
255,71,126641,2,0,B|222:38|222:38|164:24,1,89.999997253418,0|0,3:0|3:0,0:0:0:0:
367,165,127247,6,0,L|477:158,1,89.999997253418,0|0,3:0|3:0,0:0:0:0:
347,259,127853,2,0,L|457:252,1,89.999997253418,0|0,3:0|3:0,0:0:0:0:
330,355,128458,2,0,L|440:348,1,89.999997253418,0|0,3:0|3:0,0:0:0:0:
154,100,129064,6,0,B|125:136|125:136|117:192,1,89.999997253418,0|0,3:0|3:0,0:0:0:0:
241,315,129670,2,0,B|224:271|224:271|179:236,1,89.999997253418,0|0,3:0|3:0,0:0:0:0:
12,285,130275,2,0,B|57:292|57:292|110:271,1,89.999997253418,0|0,3:0|3:0,0:0:0:0:
256,106,130881,5,4,3:2:0:0:
256,192,130957,12,0,138944,0:0:0:0:
