osu file format v14

[General]
AudioFilename: state of the union.mp3
AudioLeadIn: 0
PreviewTime: 40373
Countdown: 0
SampleSet: Soft
StackLeniency: 1
Mode: 0
LetterboxInBreaks: 0
WidescreenStoryboard: 1

[Editor]
Bookmarks: 101128
DistanceSpacing: 1.8
BeatDivisor: 4
GridSize: 4
TimelineZoom: 2.799999

[Metadata]
Title:State of the Union
TitleUnicode:State of the Union
Artist:Rise Against
ArtistUnicode:Rise Against
Creator:pishifat
Version:Hard
Source:
Tags:siren song counter culture milan- punk hardcore
BeatmapID:855502
BeatmapSetID:387185

[Difficulty]
HPDrainRate:5
CircleSize:3.5
OverallDifficulty:6
ApproachRate:7.5
SliderMultiplier:1.2
SliderTickRate:1

[Events]
//Background and Video events
0,0,"no.jpg",0,0
//Break Periods
//Storyboard Layer 0 (Background)
//Storyboard Layer 1 (Fail)
//Storyboard Layer 2 (Pass)
//Storyboard Layer 3 (Foreground)
//Storyboard Sound Samples

[TimingPoints]
514,227.12217280212,4,2,1,80,1,0
514,-100,4,2,1,80,0,0
968,-100,4,2,1,80,0,0
1422,-100,4,2,1,80,0,0
1876,-100,4,2,1,80,0,0
2330,-100,4,2,1,85,0,0
2785,-100,4,2,1,85,0,0
3239,-100,4,2,1,85,0,0
3693,-100,4,2,1,85,0,0
4147,-100,4,2,1,90,0,0
4602,-100,4,2,1,90,0,0
5056,-100,4,2,1,90,0,0
5510,-100,4,2,1,90,0,0
5964,-100,4,2,1,95,0,0
6419,-100,4,2,1,95,0,0
6873,-100,4,2,1,95,0,0
7327,-100,4,2,1,95,0,0
7781,-100,4,2,1,100,0,0
9358,-100,4,2,1,80,0,0
13232,-100,4,2,1,80,0,0
13687,-100,4,2,1,80,0,0
14141,-100,4,2,1,80,0,0
14595,-125,4,2,1,80,0,0
14936,-100,4,2,1,40,0,0
15049,-100,4,2,1,80,0,0
15504,227.12217280212,4,2,1,80,1,0
15504,-100,4,2,1,80,0,0
20954,-100,4,2,1,80,0,0
21409,-100,4,2,1,80,0,0
21863,-100,4,2,1,80,0,0
22317,-125,4,2,1,80,0,0
22658,-100,4,2,1,40,0,0
22771,-100,4,2,1,80,0,0
23226,227.12217280212,4,2,1,75,1,0
23226,-100,4,2,1,75,0,0
23453,-100,4,2,1,50,0,0
25042,-100,4,2,1,75,0,0
25270,-100,4,2,1,50,0,0
25951,-100,4,2,1,75,0,0
27087,-100,4,2,1,50,0,0
28676,-100,4,2,1,75,0,0
28904,-100,4,2,1,50,0,0
29585,-100,4,2,1,75,0,0
30721,-100,4,2,1,50,0,0
32310,-100,4,2,1,75,0,0
32538,-100,4,2,1,50,0,0
33219,-100,4,2,1,75,0,0
34354,-100,4,2,1,50,0,0
35944,-100,4,2,1,75,0,0
36171,-100,4,2,1,50,0,0
36853,-100,4,2,1,75,0,0
39805,-100,4,2,1,60,0,0
40033,-100,4,2,1,66,0,0
40260,-100,4,2,1,75,0,0
40487,-100,4,2,1,80,0,1
40827,-100,4,2,1,80,0,1
45938,-100,4,2,1,80,0,0
46392,-100,4,2,1,80,0,0
46846,-100,4,2,1,80,0,0
47755,-100,4,2,1,80,0,1
53206,-100,4,2,1,80,0,0
53660,-100,4,2,1,80,0,0
54114,-100,4,2,1,80,0,0
55023,-100,4,2,1,75,0,0
55250,-100,4,2,1,50,0,0
56840,-100,4,2,1,75,0,0
57067,-100,4,2,1,50,0,0
57748,-100,4,2,1,75,0,0
58884,-100,4,2,1,50,0,0
60474,-100,4,2,1,75,0,0
60701,-100,4,2,1,50,0,0
61382,-100,4,2,1,75,0,0
62518,-100,4,2,1,50,0,0
64107,-100,4,2,1,75,0,0
64335,-100,4,2,1,50,0,0
64959,-100,4,2,1,75,0,0
66152,-100,4,2,1,50,0,0
67741,-100,4,2,1,75,0,0
67969,-100,4,2,1,50,0,0
68650,-100,4,2,1,75,0,0
71546,-100,4,2,1,60,0,0
71773,-100,4,2,1,67,0,0
72000,-100,4,2,1,75,0,0
72284,-100,4,2,1,80,0,1
77735,-100,4,2,1,80,0,0
78189,-100,4,2,1,80,0,0
78643,-100,4,2,1,80,0,0
79552,-100,4,2,1,80,0,1
85003,227.12217280212,6,2,1,80,1,0
85003,-100,6,2,1,80,0,0
85457,-100,6,2,1,80,0,0
85911,-100,6,2,1,80,0,0
86365,-100,6,2,1,80,0,0
86819,-100,6,2,1,80,0,0
87274,-100,6,2,1,80,0,0
87728,-100,6,2,1,80,0,0
88182,-100,6,2,1,80,0,0
88636,-100,6,2,1,80,0,0
89091,454.242626128036,4,2,1,100,1,0
89091,-76.9230769230769,4,2,1,100,0,0
99992,-100,4,2,1,100,0,0
101809,-76.9230769230769,4,2,1,100,0,0
112711,-100,4,2,1,100,0,0
114528,-76.9230769230769,4,2,1,100,0,0
125430,-111.111111111111,4,2,1,100,0,0
130957,-111.111111111111,4,2,1,5,0,0

[Colours]
Combo1 : 255,185,40
Combo2 : 236,50,45

[HitObjects]
51,74,514,6,0,B|110:79|110:79|171:55,1,120,12|8,0:0|2:0,0:0:0:0:
211,39,854,1,2,2:0:0:0:
211,39,968,2,0,P|185:86|190:156,1,120,8|8,0:0|0:0,0:0:0:0:
312,220,1422,2,0,L|388:211,2,60,8|2|8,0:0|0:0|0:0,0:0:0:0:
187,299,1876,2,0,L|100:290,2,60,8|2|8,0:0|0:0|0:0,0:0:0:0:
314,366,2330,6,0,P|367:370|437:317,1,120,12|8,0:0|0:0,0:0:0:0:
441,291,2671,1,2,0:0:0:0:
441,291,2785,2,0,B|415:237|415:237|426:154,1,120,8|8,0:0|0:0,0:0:0:0:
470,41,3239,1,8,0:0:0:0:
470,41,3353,1,2,0:0:0:0:
470,41,3466,1,8,0:0:0:0:
330,76,3693,1,8,0:0:0:0:
330,76,3807,1,2,0:0:0:0:
330,76,3920,1,8,0:0:0:0:
190,112,4147,6,0,B|133:89|133:89|66:97,1,120,12|8,0:0|0:0,0:0:0:0:
32,118,4488,1,2,0:0:0:0:
32,118,4602,2,0,P|6:177|19:243,1,120,8|8,0:0|0:0,0:0:0:0:
121,325,5056,2,0,L|206:305,2,60,8|2|8,0:0|0:0|0:0,0:0:0:0:
202,206,5510,2,0,L|273:202,2,60,8|2|8,0:0|0:0|0:0,0:0:0:0:
297,98,5964,6,0,L|432:112,1,120,12|8,0:0|0:0,0:0:0:0:
461,131,6305,1,2,0:0:0:0:
461,131,6419,2,0,P|431:175|436:249,1,120,8|8,0:0|0:0,0:0:0:0:
355,361,6873,1,8,0:0:0:0:
355,361,6986,1,2,0:0:0:0:
355,361,7100,1,8,0:0:0:0:
274,241,7327,1,8,0:0:0:0:
274,241,7441,1,2,0:0:0:0:
274,241,7554,1,8,0:0:0:0:
209,369,7781,5,12,0:0:0:0:
95,142,9598,6,0,P|168:108|219:120,1,120,6|8,0:0|0:0,0:0:0:0:
245,143,9939,2,0,B|303:154|303:154|376:122,1,120,2|2,0:0|0:0,0:0:0:0:
390,89,10280,1,8,0:0:0:0:
502,179,10507,2,0,L|493:313,1,120,2|8,0:0|0:0,0:0:0:0:
470,341,10848,2,0,P|405:362|323:298,1,180,2|8,0:0|0:0,0:0:0:0:
300,156,11415,5,2,0:0:0:0:
189,247,11642,1,8,0:0:0:0:
189,247,11756,2,0,L|48:253,1,120,2|2,0:0|0:0,0:0:0:0:
19,253,12097,1,8,0:0:0:0:
127,158,12324,2,0,L|201:151,2,60,2|2|8,0:0|0:0|0:0,0:0:0:0:
80,146,12665,2,0,P|52:102|68:26,1,120,2|2,0:0|0:0,0:0:0:0:
98,8,13005,1,8,0:0:0:0:
230,64,13232,5,8,3:2:0:0:
230,64,13459,1,2,3:2:0:0:
372,85,13687,1,2,3:2:0:0:
372,85,13914,1,2,3:2:0:0:
283,198,14141,1,2,3:2:0:0:
283,198,14368,1,2,3:2:0:0:
425,214,14595,6,0,P|466:284|457:348,1,144,6|0,0:3|0:0,0:0:0:0:
428,379,15049,1,6,0:3:0:0:
146,315,15504,6,0,L|159:170,1,120,6|8,0:0|0:0,0:0:0:0:
180,153,15844,2,0,B|233:128|233:128|310:137,1,120,2|2,0:0|0:0,0:0:0:0:
342,141,16185,1,8,0:0:0:0:
258,23,16412,2,0,L|134:8,1,120,2|8,0:0|0:0,0:0:0:0:
88,16,16753,2,0,P|59:68|68:135,1,120,2|2,0:0|0:0,0:0:0:0:
101,158,17093,1,8,0:0:0:0:
243,179,17320,6,0,B|273:232|273:232|266:301,1,120,2|8,0:0|0:0,0:0:0:0:
254,338,17661,2,0,P|310:304|378:317,1,120,2|2,0:0|0:0,0:0:0:0:
405,336,18002,1,8,0:0:0:0:
487,217,18229,2,0,L|493:148,2,60,2|2|8,0:0|0:0|0:0,0:0:0:0:
445,243,18570,2,0,B|454:142|454:142|439:105|385:78,1,180,2|8,0:0|0:0,0:0:0:0:
269,145,19137,6,0,P|213:149|150:113,1,120,2|8,0:0|0:0,0:0:0:0:
129,78,19478,2,0,L|117:208,1,120,2|2,0:0|0:0,0:0:0:0:
108,245,19819,1,8,0:0:0:0:
193,360,20046,2,0,P|233:338|268:333,1,60,2|2,0:0|0:0,0:0:0:0:
296,338,20273,1,8,0:0:0:0:
296,338,20387,2,0,B|301:274|301:274|277:230|277:230|284:151,1,180,2|8,0:0|0:0,0:0:0:0:
342,33,20954,5,10,3:2:0:0:
342,33,21182,1,2,3:2:0:0:
492,40,21409,1,2,3:2:0:0:
492,40,21636,1,2,3:2:0:0:
422,172,21863,1,2,3:2:0:0:
422,172,22090,1,2,3:2:0:0:
282,164,22317,6,0,P|200:173|133:207,1,144,6|0,0:3|0:0,0:0:0:0:
110,232,22771,1,6,0:3:0:0:
387,312,23226,5,6,0:0:0:0:
255,371,23453,1,8,0:0:0:0:
255,371,23907,1,8,0:0:0:0:
255,371,24361,1,8,0:0:0:0:
255,371,24815,1,8,0:0:0:0:
273,228,25042,5,2,0:0:0:0:
139,283,25270,1,8,0:0:0:0:
139,283,25724,1,8,0:0:0:0:
58,163,25951,6,0,L|-11:152,2,60,2|2|8,0:0|0:0|0:0,0:0:0:0:
98,140,26292,2,0,P|157:92|259:102,1,180,2|8,0:0|0:0,0:0:0:0:
355,203,26859,5,2,0:0:0:0:
484,138,27087,1,8,0:0:0:0:
484,138,27541,1,8,0:0:0:0:
484,138,27995,1,8,0:0:0:0:
484,138,28449,1,8,0:0:0:0:
479,281,28676,5,2,0:0:0:0:
355,203,28904,1,8,0:0:0:0:
355,203,29358,1,8,0:0:0:0:
240,289,29585,6,0,L|246:355,2,60,2|2|8,0:0|0:0|0:0,0:0:0:0:
246,242,29926,1,0,0:0:0:0:
246,242,30039,2,0,P|195:208|121:213,1,120,2|8,0:0|0:0,0:0:0:0:
16,284,30493,5,6,0:0:0:0:
23,150,30721,1,8,0:0:0:0:
23,150,31175,1,8,0:0:0:0:
23,150,31629,1,8,0:0:0:0:
23,150,32083,1,8,0:0:0:0:
129,53,32310,5,2,0:0:0:0:
253,126,32538,1,8,0:0:0:0:
253,126,32992,1,8,0:0:0:0:
386,70,33219,6,0,L|392:7,2,60,2|2|8,0:0|0:0|0:0,0:0:0:0:
406,115,33560,2,0,B|410:176|410:176|385:227|385:227|392:296,1,180,2|8,0:0|0:0,0:0:0:0:
275,374,34127,5,6,0:0:0:0:
257,231,34354,1,8,0:0:0:0:
257,231,34809,1,8,0:0:0:0:
257,231,35263,1,8,0:0:0:0:
257,231,35717,1,8,0:0:0:0:
139,314,35944,5,2,0:0:0:0:
126,170,36171,1,8,0:0:0:0:
126,170,36626,1,8,0:0:0:0:
257,231,36853,6,0,B|320:237|320:237|393:211,1,120,6|8,0:0|0:0,0:0:0:0:
406,186,37194,2,0,P|412:133|365:69,1,120,2|2,0:0|0:0,0:0:0:0:
330,65,37534,1,8,0:0:0:0:
194,113,37761,2,0,L|56:103,1,120,6|8,0:0|0:0,0:0:0:0:
29,117,38102,2,0,P|0:163|8:238,1,120,2|2,0:0|0:0,0:0:0:0:
33,263,38443,1,8,0:0:0:0:
174,237,38670,6,0,B|230:210|230:210|299:218,1,120,6|8,0:0|0:0,0:0:0:0:
331,236,39010,1,2,0:0:0:0:
331,236,39124,2,0,P|392:266|460:246,1,120,0|8,0:0|0:0,0:0:0:0:
401,119,39578,5,4,0:0:0:0:
401,119,39805,2,0,L|323:109,1,60,8|8,0:0|0:0,0:0:0:0:
298,85,40033,2,0,L|222:75,1,60,8|8,0:0|0:0,0:0:0:0:
195,54,40260,2,0,L|119:44,1,60,8|8,0:0|0:0,0:0:0:0:
86,51,40487,6,0,P|47:114|59:177,1,120,6|8,0:0|0:0,0:0:0:0:
89,188,40827,2,0,B|117:241|117:241|105:312,1,120,2|2,0:0|0:0,0:0:0:0:
84,344,41168,1,8,0:0:0:0:
220,299,41395,2,0,L|236:171,1,120,2|8,0:0|0:0,0:0:0:0:
254,134,41736,2,0,P|312:85|432:113,1,180,2|8,0:0|0:0,0:0:0:0:
469,227,42304,6,0,L|556:237,2,60,2|0|8,0:0|0:0|0:0,0:0:0:0:
427,249,42644,2,0,B|370:273|370:273|307:265,1,120,2|2,0:0|0:0,0:0:0:0:
271,237,42985,1,8,0:0:0:0:
128,254,43212,2,0,P|85:299|81:363,1,120,2|8,0:0|0:0,0:0:0:0:
34,378,43553,2,0,P|27:340|93:215,1,180,2|8,0:0|0:0,0:0:0:0:
222,168,44121,6,0,B|251:119|251:119|242:41,1,120,2|8,0:0|0:0,0:0:0:0:
223,11,44461,2,0,P|141:11|99:46,1,120,2|2,0:0|0:0,0:0:0:0:
85,73,44802,1,8,0:0:0:0:
87,218,45029,1,2,0:0:0:0:
211,290,45256,2,0,L|215:363,2,60,8|2|0,0:0|0:0|0:0,0:0:0:0:
330,208,45711,1,8,0:0:0:0:
374,344,45938,5,12,3:2:0:0:
374,344,46165,1,2,3:2:0:0:
475,242,46392,1,2,3:2:0:0:
475,242,46619,1,2,3:2:0:0:
434,103,46846,1,2,3:2:0:0:
434,103,47073,1,2,3:2:0:0:
330,208,47300,5,6,3:3:0:0:
330,208,47755,6,0,L|184:222,1,120,6|8,0:0|0:0,0:0:0:0:
169,191,48095,2,0,B|142:136|142:136|149:60,1,120,2|2,0:0|0:0,0:0:0:0:
153,28,48436,1,8,0:0:0:0:
21,100,48663,2,0,L|12:166,1,60,2|2,0:0|0:0,0:0:0:0:
9,206,48890,1,8,0:0:0:0:
9,206,49004,2,0,P|48:248|52:318,1,120,2|2,0:0|0:0,0:0:0:0:
40,356,49345,1,8,0:0:0:0:
156,272,49572,6,0,B|211:249|211:249|287:253,1,120,2|8,0:0|0:0,0:0:0:0:
312,280,49912,2,0,P|380:284|440:237,1,120,2|2,0:0|0:0,0:0:0:0:
443,214,50253,1,8,0:0:0:0:
365,92,50480,2,0,L|283:87,2,60,2|2|8,0:0|0:0|0:0,0:0:0:0:
402,59,50821,2,0,L|214:47,1,180,2|8,0:0|0:0,0:0:0:0:
126,155,51389,6,0,B|261:166,1,120,2|8,0:0|0:0,0:0:0:0:
294,177,51729,2,0,P|331:229|323:292,1,120,2|2,0:0|0:0,0:0:0:0:
303,324,52070,1,8,0:0:0:0:
159,308,52297,2,0,P|154:280|152:248,2,60,2|2|8,0:0|0:0|0:0,0:0:0:0:
137,349,52638,2,0,B|77:355|77:355|17:328,1,120,2|2,0:0|0:0,0:0:0:0:
0,286,52979,1,8,0:0:0:0:
94,177,53206,5,10,3:2:0:0:
94,177,53433,1,2,3:2:0:0:
237,191,53660,1,2,3:2:0:0:
237,191,53887,1,2,3:2:0:0:
380,204,54114,1,2,3:2:0:0:
380,204,54341,1,2,3:2:0:0:
323,71,54568,5,6,3:3:0:0:
323,71,55023,5,6,0:0:0:0:
187,72,55250,1,8,0:0:0:0:
187,72,55704,1,8,0:0:0:0:
187,72,56157,1,8,0:0:0:0:
187,72,56612,1,8,0:0:0:0:
245,204,56840,5,2,0:0:0:0:
101,191,57067,1,8,0:0:0:0:
101,191,57521,1,8,0:0:0:0:
160,322,57748,6,0,L|170:389,2,60,2|2|8,0:0|0:0|0:0,0:0:0:0:
173,275,58089,2,0,P|215:237|345:245,1,180,2|8,0:0|0:0,0:0:0:0:
442,330,58657,5,2,0:0:0:0:
476,208,58884,1,8,0:0:0:0:
476,208,59338,1,8,0:0:0:0:
476,208,59792,1,8,0:0:0:0:
476,208,60246,1,8,0:0:0:0:
380,99,60474,5,2,0:0:0:0:
258,175,60701,1,8,0:0:0:0:
258,175,61155,1,8,0:0:0:0:
143,87,61382,6,0,L|150:15,2,60,2|2|8,0:0|0:0|0:0,0:0:0:0:
113,125,61723,2,0,B|77:169|77:169|70:242,1,120,2|2,0:0|0:0,0:0:0:0:
66,281,62063,1,8,0:0:0:0:
209,263,62291,5,2,0:0:0:0:
313,374,62518,1,8,0:0:0:0:
313,374,62972,1,8,0:0:0:0:
313,374,63426,1,8,0:0:0:0:
313,374,63880,1,8,0:0:0:0:
452,339,64107,5,2,0:0:0:0:
350,235,64335,1,8,0:0:0:0:
350,235,64789,1,8,0:0:0:0:
278,109,65016,6,0,P|283:71|303:33,2,60,2|2|8,0:0|0:0|0:0,0:0:0:0:
259,154,65357,2,0,B|199:164|199:164|146:140|146:140|72:153,1,180,2|8,0:0|0:0,0:0:0:0:
26,281,65924,5,2,0:0:0:0:
172,320,66152,1,8,0:0:0:0:
172,320,66606,1,8,0:0:0:0:
172,320,67060,1,8,0:0:0:0:
172,320,67514,1,8,0:0:0:0:
293,242,67741,5,2,0:0:0:0:
164,174,67969,1,8,0:0:0:0:
164,174,68423,1,8,0:0:0:0:
284,94,68650,6,0,P|352:86|412:128,1,120,6|8,0:0|0:0,0:0:0:0:
415,154,68991,2,0,L|426:291,1,120,2|2,0:0|0:0,0:0:0:0:
428,322,69331,1,8,0:0:0:0:
295,266,69558,2,0,B|237:260|237:260|173:297,1,120,6|8,0:0|0:0,0:0:0:0:
155,333,69899,2,0,P|94:340|35:312,1,120,2|2,0:0|0:0,0:0:0:0:
21,273,70240,1,8,0:0:0:0:
140,193,70467,5,6,0:0:0:0:
44,85,70694,1,8,0:0:0:0:
44,85,70808,2,0,L|179:75,1,120,2|2,0:0|0:0,0:0:0:0:
205,49,71148,1,8,0:0:0:0:
320,134,71375,5,4,0:0:0:0:
320,134,71603,2,0,P|292:177|285:208,1,60,8|8,0:0|0:0,0:0:0:0:
281,231,71830,2,0,P|286:276|299:309,1,60,8|8,0:0|0:0,0:0:0:0:
314,330,72057,2,0,P|341:357|369:369,1,60,8|8,0:0|0:0,0:0:0:0:
411,361,72284,6,0,B|447:312|447:312|440:246,1,120,6|8,0:0|0:0,0:0:0:0:
428,204,72625,2,0,P|434:133|485:35,1,180,2|8,0:0|0:0,0:0:0:0:
342,68,73192,2,0,L|209:60,1,120,2|8,0:0|0:0,0:0:0:0:
174,40,73533,2,0,P|108:42|51:87,1,120,2|2,0:0|0:0,0:0:0:0:
40,115,73874,1,8,0:0:0:0:
129,227,74101,6,0,B|188:235|188:235|262:204,1,120,2|8,0:0|0:0,0:0:0:0:
278,177,74442,2,0,P|331:172|394:216,1,120,2|2,0:0|0:0,0:0:0:0:
399,255,74782,1,8,0:0:0:0:
286,344,75009,2,0,P|252:351|217:368,2,60,2|2|8,0:0|0:0|0:0,0:0:0:0:
328,369,75350,2,0,B|434:381|434:381|483:373|520:341,1,180,2|8,0:0|0:0,0:0:0:0:
475,204,75918,6,0,P|423:170|353:177,1,120,2|8,0:0|0:0,0:0:0:0:
324,199,76259,2,0,B|263:207|263:207|189:178,1,120,2|2,0:0|0:0,0:0:0:0:
175,149,76599,1,8,0:0:0:0:
33,173,76826,1,2,0:0:0:0:
126,282,77053,2,0,L|122:348,2,60,8|2|0,0:0|0:0|0:0,0:0:0:0:
175,149,77508,1,8,0:0:0:0:
268,258,77735,5,12,3:2:0:0:
268,258,77962,1,2,3:2:0:0:
323,125,78189,1,2,3:2:0:0:
323,125,78416,1,2,3:2:0:0:
412,237,78643,1,2,3:2:0:0:
412,237,78870,1,2,3:2:0:0:
268,258,79098,5,6,3:3:0:0:
268,258,79552,6,0,P|209:230|136:245,1,120,6|8,0:0|0:0,0:0:0:0:
115,260,79892,2,0,B|108:135,1,120,2|2,0:0|0:0,0:0:0:0:
105,92,80233,1,8,0:0:0:0:
234,28,80460,2,0,P|264:29|310:44,2,60,2|2|8,0:0|0:0|0:0,0:0:0:0:
214,74,80801,2,0,P|266:81|388:124,1,180,2|8,0:0|0:0,0:0:0:0:
426,261,81369,6,0,L|287:271,1,120,2|8,0:0|0:0,0:0:0:0:
263,246,81709,2,0,P|214:221|126:235,1,120,2|2,0:0|0:0,0:0:0:0:
110,254,82050,1,8,0:0:0:0:
14,146,82277,1,2,0:0:0:0:
155,119,82504,1,8,0:0:0:0:
155,119,82618,2,0,B|215:138|215:138|286:127,1,120,2|2,0:0|0:0,0:0:0:0:
311,102,82959,1,8,0:0:0:0:
263,246,83186,6,0,P|259:305|297:362,1,120,2|8,0:0|0:0,0:0:0:0:
339,349,83526,2,0,B|396:329|396:329|483:335,1,120,2|2,0:0|0:0,0:0:0:0:
501,349,83867,1,8,0:0:0:0:
425,226,84094,2,0,L|352:220,2,60,2|2|8,0:0|0:0|0:0,0:0:0:0:
470,211,84435,2,0,P|496:165|488:94,1,120,2|2,0:0|0:0,0:0:0:0:
459,60,84776,1,8,0:0:0:0:
328,120,85003,5,12,3:2:0:0:
328,120,85230,1,2,3:2:0:0:
213,33,85457,1,2,3:2:0:0:
213,33,85684,1,2,3:2:0:0:
195,175,85911,1,2,3:2:0:0:
195,175,86138,1,2,3:2:0:0:
308,263,86365,5,12,3:2:0:0:
308,263,86592,1,2,3:2:0:0:
176,318,86819,1,2,3:2:0:0:
176,318,87047,1,2,3:2:0:0:
195,175,87274,1,2,3:2:0:0:
195,175,87501,1,2,3:2:0:0:
61,228,87728,5,12,3:2:0:0:
61,228,87955,1,2,3:2:0:0:
89,87,88182,1,2,3:2:0:0:
89,87,88409,1,2,3:2:0:0:
227,48,88636,1,2,3:2:0:0:
227,48,88864,1,2,3:2:0:0:
328,132,89091,6,0,B|385:127|385:127|423:101|423:101|498:95,1,155.999992858887,6|2,0:0|0:0,0:0:0:0:
407,271,89999,2,0,P|336:231|261:242,1,155.999992858887,12|0,0:0|0:0,0:0:0:0:
192,299,90680,1,2,0:0:0:0:
119,239,90907,6,0,L|105:77,1,155.999992858887,2|0,0:0|0:0,0:0:0:0:
12,127,91589,1,2,0:0:0:0:
12,127,91816,2,0,L|21:216,1,77.9999964294435,8|0,0:0|0:0,0:0:0:0:
38,296,92270,1,8,0:0:0:0:
136,341,92497,1,0,3:0:0:0:
136,341,92611,1,0,3:0:0:0:
136,341,92724,6,0,P|205:356|280:298,1,155.999992858887,6|2,3:2|0:0,0:0:0:0:
222,125,93633,2,0,B|187:151|176:173|176:173|193:290,1,155.999992858887,12|0,0:0|0:0,0:0:0:0:
272,311,94314,1,2,0:0:0:0:
355,269,94541,6,0,L|437:261,2,77.9999964294435,2|0|0,0:0|0:0|0:0,0:0:0:0:
276,217,95223,1,2,0:0:0:0:
276,217,95450,2,0,P|312:184|369:171,1,77.9999964294435,8|0,0:0|0:0,0:0:0:0:
431,159,95904,1,8,0:0:0:0:
369,88,96131,1,0,3:0:0:0:
369,88,96245,1,0,3:0:0:0:
369,88,96358,6,0,L|198:84,1,155.999992858887,6|2,3:2|0:0,0:0:0:0:
45,168,97267,2,0,P|120:156|192:211,1,155.999992858887,12|0,0:0|0:0,0:0:0:0:
233,277,97948,1,2,0:0:0:0:
318,315,98175,6,0,B|324:262|324:262|308:217|308:217|322:144,1,155.999992858887,2|0,0:0|0:0,0:0:0:0:
399,114,98857,1,2,0:0:0:0:
399,114,99084,2,0,L|388:32,1,77.9999964294435,8|0,0:0|0:0,0:0:0:0:
301,2,99538,2,0,P|229:17|200:38,1,77.9999964294435,0|0,0:0|0:0,0:0:0:0:
181,100,99992,6,0,L|197:288,1,180,0|0,3:0|3:0,0:0:0:0:
290,230,100977,2,0,L|281:133,2,80,0|0|0,3:0|3:0|3:0,0:0:0:0:
289,331,101809,6,0,P|362:371|447:351,1,155.999992858887,6|2,0:0|0:0,0:0:0:0:
290,230,102718,2,0,B|235:237|235:237|195:264|195:264|112:273,1,155.999992858887,12|0,0:0|0:0,0:0:0:0:
63,219,103399,1,2,0:0:0:0:
65,125,103626,6,0,L|71:35,2,77.9999964294435,2|0|0,0:0|0:0|0:0,0:0:0:0:
155,176,104308,1,2,0:0:0:0:
155,176,104535,2,0,L|162:64,1,77.9999964294435,8|0,0:0|0:0,0:0:0:0:
191,10,104989,1,8,0:0:0:0:
257,88,105216,1,0,3:0:0:0:
257,88,105330,1,0,3:0:0:0:
257,88,105443,6,0,P|322:74|408:142,1,155.999992858887,6|2,3:2|0:0,0:0:0:0:
329,322,106352,2,0,L|312:135,1,155.999992858887,12|0,0:0|0:0,0:0:0:0:
257,88,107033,1,2,0:0:0:0:
221,174,107260,6,0,B|164:180|164:180|123:165|123:165|46:175,1,155.999992858887,2|0,0:0|0:0,0:0:0:0:
14,250,107942,1,2,0:0:0:0:
14,250,108169,2,0,P|46:284|60:329,1,77.9999964294435,8|0,0:0|0:0,0:0:0:0:
138,359,108623,1,8,0:0:0:0:
209,299,108850,1,0,3:0:0:0:
209,299,108964,1,0,3:0:0:0:
209,299,109077,6,0,B|308:308|308:308|376:284,1,155.999992858887,6|2,3:2|0:0,0:0:0:0:
355,94,109986,2,0,P|306:124|295:223,1,155.999992858887,12|0,0:0|0:0,0:0:0:0:
382,185,110667,1,2,0:0:0:0:
456,241,110894,6,0,L|464:331,2,77.9999964294435,2|0|0,0:0|0:0|0:0,0:0:0:0:
467,147,111576,1,2,0:0:0:0:
467,147,111803,2,0,P|490:86|490:49,1,77.9999964294435,8|0,0:0|0:0,0:0:0:0:
417,15,112257,2,0,P|369:21|336:35,1,77.9999964294435,0|0,0:0|0:0,0:0:0:0:
269,101,112711,6,0,L|71:116,1,180,0|0,3:0|3:0,0:0:0:0:
146,204,113695,2,0,L|234:198,2,80,0|0|0,3:0|3:0|3:0,0:0:0:0:
45,213,114528,5,6,0:0:0:0:
125,346,114982,2,0,L|228:355,1,77.9999964294435,8|0,0:0|0:0,0:0:0:0:
278,297,115437,2,0,L|365:289,1,77.9999964294435,2|2,0:0|0:0,0:0:0:0:
445,315,115891,1,8,0:0:0:0:
445,315,116345,5,6,0:0:0:0:
485,230,116572,2,0,P|487:145|420:94,2,155.999992858887,2|2|2,0:0|0:0|0:0,0:0:0:0:
401,187,117708,1,8,0:0:0:0:
315,225,117935,1,0,3:0:0:0:
315,225,118048,1,0,3:0:0:0:
315,225,118162,6,0,L|215:236,1,77.9999964294435,6|2,3:2|0:0,0:0:0:0:
158,182,118616,2,0,P|143:129|147:89,1,77.9999964294435,8|0,0:0|0:0,0:0:0:0:
86,239,119071,2,0,P|45:211|24:167,1,77.9999964294435,2|2,0:0|0:0,0:0:0:0:
92,333,119525,2,0,P|34:346|-15:337,1,77.9999964294435,8|0,0:0|0:0,0:0:0:0:
176,278,119979,6,0,B|230:280|230:280|272:302|272:302|357:308,1,155.999992858887,6|8,0:0|0:0,0:0:0:0:
410,264,120660,2,0,P|425:195|374:116,1,155.999992858887,2|2,0:0|0:0,0:0:0:0:
292,141,121342,2,0,L|198:134,1,77.9999964294435,8|0,0:0|0:0,0:0:0:0:
138,80,121796,5,6,0:0:0:0:
251,228,122250,1,8,0:0:0:0:
322,55,122704,2,0,P|381:29|420:26,1,77.9999964294435,6|2,0:0|0:0,0:0:0:0:
482,57,123159,2,0,P|508:119|508:158,1,77.9999964294435,8|0,0:0|0:0,0:0:0:0:
474,216,123613,6,0,L|382:208,1,77.9999964294435,6|0,0:0|0:0,0:0:0:0:
311,168,124067,1,8,0:0:0:0:
311,168,124294,2,0,B|346:189|355:208|355:208|347:311,1,155.999992858887,2|2,0:0|0:0,0:0:0:0:
269,355,124976,2,0,P|205:331|163:330,1,77.9999964294435,8|0,0:0|0:0,0:0:0:0:
101,352,125430,6,0,P|61:289|72:218,2,143.999995605469,0|0|0,3:0|3:0|3:0,0:0:0:0:
322,217,127247,6,0,B|374:205|374:205|415:220|415:220|473:210,2,143.999995605469,0|0|0,3:0|3:0|3:0,0:0:0:0:
111,65,129064,6,0,P|162:23|247:36,2,143.999995605469,0|0|0,3:0|3:0|3:0,0:0:0:0:
256,279,130881,5,4,3:2:0:0:
256,192,130957,12,0,138944,0:0:0:0:
