osu file format v14

[General]
AudioFilename: state of the union.mp3
AudioLeadIn: 0
PreviewTime: 40373
Countdown: 0
SampleSet: Soft
StackLeniency: 0.7
Mode: 0
LetterboxInBreaks: 0
WidescreenStoryboard: 0

[Editor]
Bookmarks: 101128
DistanceSpacing: 1.8
BeatDivisor: 4
GridSize: 8
TimelineZoom: 1.9

[Metadata]
Title:State of the Union
TitleUnicode:State of the Union
Artist:Rise Against
ArtistUnicode:Rise Against
Creator:pishifat
Version:Extreme
Source:
Tags:siren song counter culture milan- punk hardcore
BeatmapID:845118
BeatmapSetID:387185

[Difficulty]
HPDrainRate:5.5
CircleSize:4.2
OverallDifficulty:9
ApproachRate:9.6
SliderMultiplier:1.6
SliderTickRate:2

[Events]
//Background and Video events
0,0,"no.jpg",0,0
//Break Periods
//Storyboard Layer 0 (Background)
//Storyboard Layer 1 (Fail)
//Storyboard Layer 2 (Pass)
//Storyboard Layer 3 (Foreground)
//Storyboard Sound Samples

[TimingPoints]
514,227.12217280212,4,2,1,80,1,0
514,-105.263157894737,4,2,1,80,0,0
968,-102.040816326531,4,2,1,80,0,0
1422,-100,4,2,1,80,0,0
1876,-97.0873786407767,4,2,1,80,0,0
2330,-95.2380952380952,4,2,1,85,0,0
2785,-92.5925925925926,4,2,1,85,0,0
3239,-90.9090909090909,4,2,1,85,0,0
3693,-88.4955752212389,4,2,1,85,0,0
4147,-86.9565217391304,4,2,1,90,0,0
4602,-84.7457627118644,4,2,1,90,0,0
5056,-83.3333333333333,4,2,1,90,0,0
5510,-88.4955752212389,4,2,1,90,0,0
5964,-83.3333333333333,4,2,1,95,0,0
6419,-81.3008130081301,4,2,1,95,0,0
6873,-80,4,2,1,95,0,0
7327,-84.7457627118644,4,2,1,95,0,0
7781,-100,4,2,1,100,0,0
9598,-100,4,2,1,80,0,0
14595,-161.290322580645,4,2,1,80,0,0
14993,-161.290322580645,4,2,1,5,0,0
15049,-100,4,2,1,100,0,0
15504,227.12217280212,4,2,1,80,1,0
15504,-100,4,2,1,80,0,0
22317,-161.290322580645,4,2,1,80,0,0
22715,-100,4,2,1,5,0,0
22771,-161.290322580645,4,2,1,80,0,0
23226,227.12217280212,4,2,1,70,1,0
23226,-125,4,2,1,70,0,0
23396,-125,4,2,1,50,0,0
24986,-125,4,2,1,70,0,0
25099,-125,4,2,1,50,0,0
25951,-125,4,2,1,70,0,0
26973,-125,4,2,1,50,0,0
28620,-125,4,2,1,70,0,0
28736,-125,4,2,1,50,0,0
29585,-125,4,2,1,70,0,0
30581,-125,4,2,1,50,0,0
32287,-125,4,2,1,70,0,0
32367,-125,4,2,1,50,0,0
33219,-125,4,2,1,70,0,0
34178,-125,4,2,1,50,0,0
35944,-125,4,2,1,70,0,0
36044,-125,4,2,1,50,0,0
36853,-108.695652173913,4,2,1,75,0,0
39805,-108.695652173913,4,2,1,60,0,0
40033,-108.695652173913,4,2,1,67,0,0
40260,-108.695652173913,4,2,1,75,0,0
40487,-100,4,2,1,80,0,1
45938,-100,4,2,1,80,0,0
47755,-100,4,2,1,80,0,1
53206,-100,4,2,1,80,0,0
55135,-125,4,2,1,50,0,0
56783,-125,4,2,1,70,0,0
56896,-125,4,2,1,50,0,0
57748,-125,4,2,1,70,0,0
58804,-125,4,2,1,50,0,0
60360,-125,4,2,1,70,0,0
60587,-125,4,2,1,50,0,0
61382,-125,4,2,1,70,0,0
62381,-125,4,2,1,50,0,0
63994,-125,4,2,1,70,0,0
64182,-125,4,2,1,50,0,0
65016,-125,4,2,1,70,0,0
65998,-125,4,2,1,50,0,0
67584,-125,4,2,1,70,0,0
67798,-125,4,2,1,50,0,0
68650,-108.695652173913,4,2,1,75,0,0
71603,-108.695652173913,4,2,1,60,0,0
71830,-108.695652173913,4,2,1,67,0,0
72057,-108.695652173913,4,2,1,75,0,0
72284,-100,4,2,1,80,0,1
77735,-100,4,2,1,80,0,0
79552,-100,4,2,1,80,0,1
85003,227.12217280212,6,2,1,80,1,0
89091,454.242626128036,4,2,1,100,1,0
99992,-125,4,2,1,100,0,0
101809,-100,4,2,1,100,0,0
112711,-125,4,2,1,100,0,0
114528,-90.9090909090909,4,2,1,100,0,0
125430,-125,4,2,1,100,0,0
130957,-125,4,2,1,5,0,0

[Colours]
Combo1 : 255,185,40
Combo2 : 236,50,45

[HitObjects]
303,160,400,5,2,0:0:0:0:
315,172,457,1,2,0:0:0:0:
327,184,514,6,0,P|354:196|424:193,1,75.9999979705811,12|2,0:0|0:0,0:0:0:0:
289,74,741,2,0,P|245:94|218:133,1,75.9999979705811,8|2,2:0|2:0,2:0:0:0:
461,263,968,6,0,P|483:225|486:187,1,78.3999992822266,8|2,0:0|0:0,0:0:0:0:
210,124,1195,2,0,P|194:163|201:221,1,78.3999992822266,8|2,0:0|0:0,0:0:0:0:
412,338,1422,5,8,0:0:0:0:
399,199,1536,1,2,0:0:0:0:
399,349,1649,2,0,B|363:366|363:366|310:359,1,80,8|2,0:0|0:0,0:0:0:0:
208,210,1876,5,8,0:0:0:0:
347,277,1990,1,2,0:0:0:0:
194,198,2103,1,8,0:0:0:0:
225,348,2217,1,2,0:0:0:0:
225,348,2274,1,2,0:0:0:0:
225,348,2330,6,0,P|254:305|253:240,1,83.9999974365235,12|2,0:0|0:0,0:0:0:0:
30,198,2558,2,0,P|6:266|19:305,1,83.9999974365235,8|2,0:0|0:0,0:0:0:0:
320,213,2785,6,0,P|285:163|229:145,1,86.4000021093751,8|2,0:0|0:0,0:0:0:0:
87,313,3012,2,0,P|124:361|155:374,1,86.4000021093751,8|2,0:0|0:0,0:0:0:0:
365,290,3239,5,8,0:0:0:0:
225,348,3353,1,2,0:0:0:0:
378,282,3466,2,0,B|401:246|401:246|404:189,1,88.000002685547,8|2,0:0|0:0,0:0:0:0:
175,124,3693,5,8,0:0:0:0:
184,268,3807,1,2,0:0:0:0:
184,111,3920,1,8,0:0:0:0:
172,281,4034,1,2,0:0:0:0:
271,66,4147,6,0,P|326:38|381:48,1,92.0000017547608,12|2,0:0|0:0,0:0:0:0:
87,190,4375,2,0,P|27:164|0:111,1,92.0000017547608,8|2,0:0|0:0,0:0:0:0:
340,126,4602,6,0,P|374:188|362:235,1,94.3999966870118,8|2,0:0|0:0,0:0:0:0:
87,98,4829,2,0,P|107:33|154:7,1,94.3999966870118,8|2,0:0|0:0,0:0:0:0:
423,89,5056,5,8,0:0:0:0:
259,150,5170,1,2,0:0:0:0:
437,80,5283,2,0,B|464:43|464:43|459:-25,1,95.9999970703126,8|2,0:0|0:0,0:0:0:0:
183,107,5510,5,8,0:0:0:0:
355,119,5624,1,2,0:0:0:0:
169,94,5737,1,8,0:0:0:0:
328,216,5851,1,2,0:0:0:0:
328,216,5908,1,2,0:0:0:0:
328,216,5964,6,0,P|286:244|225:240,1,95.9999970703126,12|2,0:0|0:0,0:0:0:0:
302,18,6192,2,0,P|374:-1|425:26,1,95.9999970703126,8|2,0:0|0:0,0:0:0:0:
156,276,6419,6,0,P|98:236|80:181,1,98.4000015014649,8|2,0:0|0:0,0:0:0:0:
358,79,6646,2,0,P|422:125|437:162,1,98.4000015014649,8|2,0:0|0:0,0:0:0:0:
411,369,6873,5,8,0:0:0:0:
497,181,6986,1,2,0:0:0:0:
396,377,7100,2,0,B|349:383|349:383|294:355,1,100,8|2,0:0|0:0,0:0:0:0:
252,152,7327,5,8,0:0:0:0:
400,272,7441,1,2,0:0:0:0:
244,138,7554,1,8,0:0:0:0:
409,288,7668,1,2,0:0:0:0:
205,364,7781,5,12,0:0:0:0:
343,221,9598,6,0,P|301:223|244:198,1,80,6|0,0:0|0:0,0:0:0:0:
190,126,9826,1,8,0:0:0:0:
332,310,9939,2,0,L|503:291,1,160,2|2,0:0|0:0,0:0:0:0:
181,215,10280,2,0,P|162:246|161:303,1,80,8|0,0:0|0:0,0:0:0:0:
360,143,10507,5,2,0:0:0:0:
293,91,10620,1,2,0:0:0:0:
343,221,10734,1,8,0:0:0:0:
379,61,10848,2,0,B|335:16|335:16|221:5,1,160,2|2,0:0|0:0,0:0:0:0:
110,164,11188,2,0,P|75:180|7:178,1,80,8|0,0:0|0:0,0:0:0:0:
293,91,11415,6,0,L|304:208,1,80,2|0,0:0|0:0,0:0:0:0:
310,289,11642,1,8,0:0:0:0:
509,190,11756,2,0,P|459:131|375:157,1,160,2|2,0:0|0:0,0:0:0:0:
230,266,12097,2,0,P|180:256|137:222,1,80,8|0,0:0|0:0,0:0:0:0:
380,239,12324,6,0,P|394:271|386:338,2,80,2|2|8,0:0|0:0|0:0,0:0:0:0:
113,164,12665,2,0,P|77:200|66:234,1,80,2|0,0:0|0:0,0:0:0:0:
199,378,12892,1,2,0:0:0:0:
244,255,13005,1,8,0:0:0:0:
230,266,13232,5,8,3:2:0:0:
153,299,13459,1,2,3:2:0:0:
158,114,13687,5,2,3:2:0:0:
233,153,13914,1,2,3:2:0:0:
63,247,14141,5,2,3:2:0:0:
60,164,14368,1,2,3:2:0:0:
254,344,14595,6,0,P|296:295|410:316,1,173.599993112793,6|0,0:3|0:0,0:0:0:0:
408,316,15049,1,6,0:3:0:0:
417,329,15504,6,0,L|421:248,1,80,6|0,0:0|0:0,0:0:0:0:
342,52,15731,1,8,0:0:0:0:
363,189,15844,2,0,P|438:207|500:161,1,160,2|2,0:0|0:0,0:0:0:0:
304,126,16185,2,0,P|277:192|289:230,1,80,8|0,0:0|0:0,0:0:0:0:
421,121,16412,6,0,L|427:28,2,80,2|2|8,0:0|0:0|0:0,0:0:0:0:
285,215,16753,2,0,B|187:222|187:222|122:194,1,160,2|2,0:0|0:0,0:0:0:0:
363,189,17093,2,0,P|383:233|374:280,1,80,8|0,0:0|0:0,0:0:0:0:
218,138,17320,6,0,P|225:89|257:53,2,80,2|0|8,0:0|0:0|0:0,0:0:0:0:
306,301,17661,2,0,L|494:312,1,160,2|2,0:0|0:0,0:0:0:0:
235,256,18002,2,0,P|208:298|213:355,1,80,8|0,0:0|0:0,0:0:0:0:
363,189,18229,5,2,0:0:0:0:
304,126,18343,1,2,0:0:0:0:
340,265,18456,1,8,0:0:0:0:
385,108,18570,2,0,P|338:49|247:62,1,160,2|2,0:0|0:0,0:0:0:0:
126,184,18910,1,8,0:0:0:0:
113,193,19137,6,0,L|103:98,1,80,2|0,0:0|0:0,0:0:0:0:
198,141,19365,1,8,0:0:0:0:
82,277,19478,2,0,B|35:242|35:242|21:137,1,160,2|2,0:0|0:0,0:0:0:0:
278,91,19819,1,8,0:0:0:0:
205,126,19932,1,0,0:0:0:0:
311,215,20046,6,0,P|357:194|381:170,1,80,2|2,0:0|0:0,0:0:0:0:
357,62,20273,1,8,0:0:0:0:
226,233,20387,2,0,P|265:284|364:283,1,160,2|2,0:0|0:0,0:0:0:0:
460,156,20727,1,8,0:0:0:0:
472,168,20954,5,10,3:2:0:0:
512,244,21182,1,2,3:2:0:0:
293,151,21409,5,2,3:2:0:0:
361,103,21636,1,2,3:2:0:0:
217,291,21863,5,2,3:2:0:0:
299,316,22090,1,2,3:2:0:0:
132,49,22317,6,0,P|175:103|177:215,1,173.599993112793,6|0,0:3|0:0,0:0:0:0:
172,219,22771,1,6,0:3:0:0:
161,233,23226,5,6,0:0:0:0:
419,66,23453,1,8,0:0:0:0:
423,80,23907,1,8,0:0:0:0:
427,94,24361,1,8,0:0:0:0:
431,112,24815,1,8,0:0:0:0:
187,91,25042,5,2,0:0:0:0:
409,196,25270,1,8,0:0:0:0:
415,213,25724,1,8,0:0:0:0:
187,91,25951,6,0,L|179:14,1,64,2|2,0:0|0:0,0:0:0:0:
266,133,26178,1,8,0:0:0:0:
266,133,26292,2,0,P|215:174|137:163,1,128,2|2,0:0|0:0,0:0:0:0:
66,84,26632,1,8,0:0:0:0:
245,343,26859,5,2,0:0:0:0:
413,307,27087,1,8,0:0:0:0:
429,313,27541,1,8,0:0:0:0:
445,320,27995,1,8,0:0:0:0:
459,326,28449,1,8,0:0:0:0:
202,172,28676,5,2,0:0:0:0:
245,343,28904,1,8,0:0:0:0:
261,348,29358,1,8,0:0:0:0:
80,230,29585,6,0,L|-8:240,1,64,2|2,0:0|0:0,0:0:0:0:
112,307,29812,2,0,L|175:314,1,64,8|0,0:0|0:0,0:0:0:0:
70,215,30039,6,0,L|-18:225,1,64,2|0,0:0|0:0,0:0:0:0:
123,323,30266,2,0,B|195:330,1,64,8|0,0:0|0:0,0:0:0:0:
29,131,30493,5,6,0:0:0:0:
298,259,30721,1,8,0:0:0:0:
317,255,31175,1,8,0:0:0:0:
335,250,31629,1,8,0:0:0:0:
353,246,32083,1,8,0:0:0:0:
186,133,32310,5,2,0:0:0:0:
423,187,32538,1,8,0:0:0:0:
439,184,32992,1,8,0:0:0:0:
156,211,33219,6,0,P|130:262|131:291,1,64,2|2,0:0|0:0,0:0:0:0:
239,375,33446,1,8,0:0:0:0:
239,375,33560,2,0,L|230:222,1,128,2|2,0:0|0:0,0:0:0:0:
223,107,33900,1,8,0:0:0:0:
386,296,34127,5,6,0:0:0:0:
169,179,34354,1,8,0:0:0:0:
150,184,34809,1,8,0:0:0:0:
132,189,35263,1,8,0:0:0:0:
115,193,35717,1,8,0:0:0:0:
283,290,35944,5,2,0:0:0:0:
262,80,36171,1,8,0:0:0:0:
247,75,36626,1,8,0:0:0:0:
393,261,36853,6,0,P|457:272|491:263,1,73.599997529297,6|0,0:0|0:0,0:0:0:0:
361,181,37080,1,8,0:0:0:0:
361,181,37194,2,0,L|350:331,1,147.199995058594,2|2,0:0|0:0,0:0:0:0:
276,178,37534,2,0,P|299:121|325:104,1,73.599997529297,8|0,0:0|0:0,0:0:0:0:
215,298,37761,6,0,L|124:303,2,73.599997529297,6|0|8,0:0|0:0|0:0,0:0:0:0:
372,169,38102,2,0,P|383:81|314:31,1,147.199995058594,2|2,0:0|0:0,0:0:0:0:
378,255,38443,2,0,P|424:285|471:288,1,73.599997529297,8|0,0:0|0:0,0:0:0:0:
305,114,38670,6,0,B|258:118|258:118|216:144|216:144|144:151,1,147.199995058594,6|8,0:0|0:0,0:0:0:0:
36,65,39010,1,2,0:0:0:0:
36,65,39124,2,0,P|79:67|124:92,1,73.599997529297,0|2,0:0|0:0,0:0:0:0:
214,236,39351,1,8,0:0:0:0:
214,236,39578,5,4,0:0:0:0:
315,220,39692,1,2,0:0:0:0:
243,323,39805,5,8,0:0:0:0:
268,146,39919,1,8,0:0:0:0:
252,327,40033,1,8,0:0:0:0:
259,143,40146,1,8,0:0:0:0:
261,331,40260,1,8,0:0:0:0:
252,141,40373,1,8,0:0:0:0:
382,330,40487,6,0,P|454:338|510:257,1,160,6|8,0:0|0:0,0:0:0:0:
433,181,40827,1,2,0:0:0:0:
433,181,40941,2,0,L|423:274,1,80,0|2,0:0|0:0,0:0:0:0:
259,143,41168,2,0,P|296:92|340:83,1,80,8|0,0:0|0:0,0:0:0:0:
255,285,41395,6,0,P|190:300|147:282,1,80,2|2,0:0|0:0,0:0:0:0:
116,206,41622,1,8,0:0:0:0:
312,225,41736,2,0,B|338:249|341:291|341:291|327:327|327:327|331:377,1,160,2|2,0:0|0:0,0:0:0:0:
385,177,42077,2,0,P|351:148|280:144,1,80,8|0,0:0|0:0,0:0:0:0:
107,218,42304,6,0,P|57:186|65:89,1,160,2|8,0:0|0:0,0:0:0:0:
303,53,42644,1,2,0:0:0:0:
303,53,42758,2,0,P|256:71|228:105,1,80,0|2,0:0|0:0,0:0:0:0:
325,306,42985,2,0,L|422:314,1,80,8|0,0:0|0:0,0:0:0:0:
311,136,43212,5,2,0:0:0:0:
242,186,43326,1,2,0:0:0:0:
390,173,43439,1,8,0:0:0:0:
235,91,43553,2,0,L|53:83,1,160,2|2,0:0|0:0,0:0:0:0:
16,208,43894,2,0,P|71:183|120:186,1,80,8|0,0:0|0:0,0:0:0:0:
325,306,44121,6,0,P|369:337|422:341,2,80,2|0|8,0:0|0:0|0:0,0:0:0:0:
378,135,44461,2,0,P|461:120|517:191,1,160,2|2,0:0|0:0,0:0:0:0:
314,193,44802,2,0,P|291:142|305:86,1,80,8|0,0:0|0:0,0:0:0:0:
371,251,45029,6,0,P|338:270|281:271,1,80,2|2,0:0|0:0,0:0:0:0:
84,191,45256,1,8,0:0:0:0:
84,191,45370,1,2,0:0:0:0:
84,191,45483,2,0,L|172:198,1,80,0|2,0:0|0:0,0:0:0:0:
364,93,45711,2,0,P|322:98|285:125,1,80,8|0,0:0|0:0,0:0:0:0:
172,317,45938,5,12,3:2:0:0:
255,344,46165,1,2,3:2:0:0:
317,152,46392,5,2,3:2:0:0:
236,124,46619,1,2,3:2:0:0:
344,312,46846,5,2,3:2:0:0:
372,235,47073,1,2,3:2:0:0:
154,176,47300,5,6,3:3:0:0:
154,176,47755,6,0,P|195:128|300:138,1,160,6|8,0:0|0:0,0:0:0:0:
353,275,48095,1,2,0:0:0:0:
353,275,48209,2,0,L|341:171,1,80,0|2,0:0|0:0,0:0:0:0:
432,68,48436,2,0,P|401:100|363:114,1,80,8|0,0:0|0:0,0:0:0:0:
205,34,48663,6,0,P|146:10|100:17,2,80,2|2|8,0:0|0:0|0:0,0:0:0:0:
240,203,49004,2,0,B|185:228|185:228|68:211,1,160,2|2,0:0|0:0,0:0:0:0:
286,128,49345,2,0,P|314:160|324:215,1,80,8|0,0:0|0:0,0:0:0:0:
214,338,49572,6,0,P|176:333|126:295,1,80,2|0,0:0|0:0,0:0:0:0:
169,144,49799,1,8,0:0:0:0:
277,277,49912,2,0,L|436:287,1,160,2|2,0:0|0:0,0:0:0:0:
355,80,50253,1,8,0:0:0:0:
286,128,50366,1,0,0:0:0:0:
422,181,50480,6,0,P|456:155|477:108,2,80,2|2|8,0:0|0:0|0:0,0:0:0:0:
219,180,50821,2,0,P|199:128|254:48,1,160,2|2,0:0|0:0,0:0:0:0:
226,266,51162,2,0,L|119:272,1,80,8|0,0:0|0:0,0:0:0:0:
286,128,51389,6,0,B|334:165|334:165|350:272,1,160,2|8,0:0|0:0,0:0:0:0:
269,378,51729,1,2,0:0:0:0:
269,378,51843,2,0,P|319:367|357:335,1,80,0|2,0:0|0:0,0:0:0:0:
204,118,52070,2,0,P|171:158|173:212,1,80,8|0,0:0|0:0,0:0:0:0:
422,181,52297,6,0,L|430:80,1,80,2|2,0:0|0:0,0:0:0:0:
329,127,52524,1,8,0:0:0:0:
376,254,52638,2,0,P|440:265|505:193,1,160,2|2,0:0|0:0,0:0:0:0:
314,133,52979,2,0,P|280:172|281:227,1,80,8|0,0:0|0:0,0:0:0:0:
317,369,53206,5,10,3:2:0:0:
239,334,53433,1,2,3:2:0:0:
394,318,53660,5,2,3:2:0:0:
350,242,53887,1,2,3:2:0:0:
489,297,54114,5,2,3:2:0:0:
495,207,54341,1,2,3:2:0:0:
286,142,54568,5,6,3:3:0:0:
286,142,55023,5,6,0:0:0:0:
91,240,55250,1,8,0:0:0:0:
74,243,55704,1,8,0:0:0:0:
59,246,56158,1,8,0:0:0:0:
42,251,56612,1,8,0:0:0:0:
339,199,56840,5,2,0:0:0:0:
185,73,57067,1,8,0:0:0:0:
169,70,57521,1,8,0:0:0:0:
324,285,57748,6,0,L|403:275,1,64,2|2,0:0|0:0,0:0:0:0:
320,116,57975,1,8,0:0:0:0:
320,116,58089,2,0,P|280:156|267:253,1,128,2|2,0:0|0:0,0:0:0:0:
279,357,58429,1,8,0:0:0:0:
433,204,58657,5,2,0:0:0:0:
220,297,58884,1,8,0:0:0:0:
203,292,59338,1,8,0:0:0:0:
185,286,59792,1,8,0:0:0:0:
167,279,60246,1,8,0:0:0:0:
388,345,60474,5,2,0:0:0:0:
351,133,60701,1,8,0:0:0:0:
355,117,61155,1,8,0:0:0:0:
303,334,61382,6,0,L|221:349,2,64,2|2|8,0:0|0:0|0:0,0:0:0:0:
441,251,61723,2,0,P|410:237|367:232,1,64,2|0,0:0|0:0,0:0:0:0:
295,247,61950,1,2,0:0:0:0:
295,247,62063,2,0,P|274:191|280:160,1,64,8|0,0:0|0:0,0:0:0:0:
364,21,62291,5,2,0:0:0:0:
157,66,62518,1,8,0:0:0:0:
139,62,62972,1,8,0:0:0:0:
121,59,63426,1,8,0:0:0:0:
104,55,63880,1,8,0:0:0:0:
279,16,64107,5,2,0:0:0:0:
228,224,64335,1,8,0:0:0:0:
233,241,64789,1,8,0:0:0:0:
455,112,65016,6,0,P|425:94|386:87,1,64,2|2,0:0|0:0,0:0:0:0:
303,107,65243,1,8,0:0:0:0:
303,107,65357,2,0,B|335:143|335:143|341:244,1,128,2|2,0:0|0:0,0:0:0:0:
347,351,65697,1,8,0:0:0:0:
214,139,65924,5,2,0:0:0:0:
425,201,66152,1,8,0:0:0:0:
441,207,66606,1,8,0:0:0:0:
456,214,67060,1,8,0:0:0:0:
471,220,67514,1,8,0:0:0:0:
331,46,67741,5,2,0:0:0:0:
259,242,67969,1,8,0:0:0:0:
263,259,68423,1,8,0:0:0:0:
66,162,68650,6,0,P|69:98|83:76,1,73.599997529297,6|0,0:0|0:0,0:0:0:0:
293,128,68877,1,8,0:0:0:0:
293,128,68991,2,0,L|145:134,1,147.199995058594,2|2,0:0|0:0,0:0:0:0:
337,202,69331,2,0,L|430:197,1,73.599997529297,8|0,0:0|0:0,0:0:0:0:
258,38,69558,6,0,P|213:41|168:68,2,73.599997529297,6|0|8,0:0|0:0|0:0,0:0:0:0:
448,120,69899,2,0,P|502:71|492:-4,1,147.199995058594,2|2,0:0|0:0,0:0:0:0:
410,198,70240,2,0,P|448:247|480:255,1,73.599997529297,8|0,0:0|0:0,0:0:0:0:
421,40,70467,6,0,L|313:48,1,73.599997529297,6|0,0:0|0:0,0:0:0:0:
149,128,70694,1,8,0:0:0:0:
149,128,70808,2,0,P|218:78|280:100,1,147.199995058594,2|2,0:0|0:0,0:0:0:0:
327,234,71148,1,8,0:0:0:0:
327,234,71375,5,4,0:0:0:0:
339,147,71489,1,2,0:0:0:0:
244,262,71603,5,8,0:0:0:0:
408,200,71716,1,8,0:0:0:0:
273,94,71830,1,8,0:0:0:0:
327,234,71943,5,8,0:0:0:0:
353,63,72057,1,8,0:0:0:0:
191,124,72170,1,8,0:0:0:0:
423,115,72284,6,0,P|439:76|437:37,2,80,6|0|8,0:0|0:0|0:0,0:0:0:0:
258,180,72625,2,0,B|218:144|218:144|200:14,1,160,2|2,0:0|0:0,0:0:0:0:
327,234,72965,2,0,P|291:260|221:261,1,80,8|0,0:0|0:0,0:0:0:0:
296,103,73192,6,0,L|398:114,2,80,2|2|8,0:0|0:0|0:0,0:0:0:0:
61,186,73533,1,2,0:0:0:0:
61,186,73647,2,0,P|63:228|92:272,1,80,0|2,0:0|0:0,0:0:0:0:
334,302,73874,2,0,P|365:276|381:230,1,80,8|0,0:0|0:0,0:0:0:0:
138,122,74101,6,0,L|147:221,1,80,2|0,0:0|0:0,0:0:0:0:
159,377,74328,1,8,0:0:0:0:
92,273,74442,2,0,B|133:239|133:239|249:228,1,160,2|2,0:0|0:0,0:0:0:0:
412,340,74782,2,0,P|465:360|510:354,1,80,8|0,0:0|0:0,0:0:0:0:
356,137,75009,5,2,0:0:0:0:
345,220,75123,1,2,0:0:0:0:
434,106,75236,1,8,0:0:0:0:
288,83,75350,2,0,B|231:88|231:88|195:115|195:115|123:123,1,160,2|2,0:0|0:0,0:0:0:0:
3,35,75691,2,0,P|73:50|97:75,1,80,8|0,0:0|0:0,0:0:0:0:
202,197,75918,6,0,L|301:204,1,80,2|0,0:0|0:0,0:0:0:0:
137,121,76145,1,8,0:0:0:0:
197,278,76259,2,0,B|295:288|295:288|375:254,1,160,2|2,0:0|0:0,0:0:0:0:
343,59,76599,2,0,P|300:95|288:145,1,80,8|0,0:0|0:0,0:0:0:0:
431,231,76826,5,2,0:0:0:0:
410,145,76940,1,2,0:0:0:0:
351,263,77053,2,0,L|345:372,1,80,8|2,0:0|0:0,0:0:0:0:
170,243,77281,2,0,L|163:146,1,80,0|2,0:0|0:0,0:0:0:0:
363,271,77508,2,0,L|358:380,1,80,8|0,0:0|0:0,0:0:0:0:
85,251,77735,5,12,3:2:0:0:
77,170,77962,1,2,3:2:0:0:
301,150,78189,5,2,3:2:0:0:
253,218,78416,1,2,3:2:0:0:
128,13,78643,5,2,3:2:0:0:
202,51,78870,1,2,3:2:0:0:
84,252,79098,5,6,3:3:0:0:
84,252,79552,6,0,L|248:262,1,160,6|8,0:0|0:0,0:0:0:0:
385,176,79892,1,2,0:0:0:0:
385,176,80006,2,0,P|329:210|313:248,1,80,0|2,0:0|0:0,0:0:0:0:
341,384,80233,2,0,P|328:327|298:291,1,80,8|0,0:0|0:0,0:0:0:0:
84,252,80460,6,0,P|57:295|57:350,2,80,2|2|8,0:0|0:0|0:0,0:0:0:0:
245,168,80801,2,0,P|255:93|194:36,1,160,2|2,0:0|0:0,0:0:0:0:
93,130,81142,2,0,L|186:119,1,80,8|0,0:0|0:0,0:0:0:0:
373,107,81369,6,0,P|425:126|452:166,1,80,2|0,0:0|0:0,0:0:0:0:
456,265,81596,1,8,0:0:0:0:
308,218,81709,2,0,B|281:117|281:117|294:45,1,160,2|2,0:0|0:0,0:0:0:0:
323,298,82050,2,0,P|278:329|225:329,1,80,8|0,0:0|0:0,0:0:0:0:
101,204,82277,5,2,0:0:0:0:
185,215,82391,1,2,0:0:0:0:
55,274,82504,1,8,0:0:0:0:
152,133,82618,2,0,L|256:122,1,80,2|0,0:0|0:0,0:0:0:0:
410,187,82845,1,2,0:0:0:0:
410,187,82959,2,0,P|358:162|305:168,1,80,8|0,0:0|0:0,0:0:0:0:
137,288,83186,6,0,P|174:338|279:334,1,160,2|8,0:0|0:0,0:0:0:0:
346,247,83526,1,2,0:0:0:0:
346,247,83640,2,0,L|237:255,1,80,0|2,0:0|0:0,0:0:0:0:
216,42,83867,2,0,P|285:63|305:89,1,80,8|0,0:0|0:0,0:0:0:0:
156,205,84094,6,0,P|121:148|122:110,2,80,2|2|8,0:0|0:0|0:0,0:0:0:0:
346,247,84435,2,0,L|516:237,1,160,2|2,0:0|0:0,0:0:0:0:
288,127,84776,2,0,L|185:135,1,80,8|0,0:0|0:0,0:0:0:0:
70,293,85003,5,12,3:2:0:0:
154,311,85230,1,2,3:2:0:0:
130,90,85457,5,2,3:2:0:0:
170,164,85684,1,2,3:2:0:0:
330,164,85911,5,2,3:2:0:0:
301,245,86138,1,2,3:2:0:0:
205,25,86365,5,12,3:2:0:0:
293,14,86592,1,2,3:2:0:0:
196,191,86819,5,2,3:2:0:0:
151,118,87047,1,2,3:2:0:0:
365,96,87274,5,2,3:2:0:0:
345,176,87501,1,2,3:2:0:0:
121,32,87728,5,12,3:2:0:0:
50,94,87955,1,2,3:2:0:0:
208,71,88182,5,2,3:2:0:0:
198,158,88409,1,2,3:2:0:0:
314,63,88636,5,2,3:2:0:0:
366,137,88864,1,2,3:2:0:0:
167,300,89091,6,0,L|61:292,1,80,6|0,0:0|0:0,0:0:0:0:
274,242,89545,2,0,L|360:249,1,80,2|0,0:0|0:0,0:0:0:0:
207,45,89999,2,0,P|160:103|139:195,1,160,12|0,0:0|0:0,0:0:0:0:
167,300,90680,1,2,0:0:0:0:
360,174,90907,5,2,0:0:0:0:
274,107,91135,1,0,0:0:0:0:
259,216,91362,1,0,0:0:0:0:
459,80,91589,5,2,0:0:0:0:
365,14,91816,2,0,L|272:5,1,80,8|0,0:0|0:0,0:0:0:0:
146,169,92270,1,8,0:0:0:0:
257,217,92497,1,0,3:0:0:0:
257,217,92611,1,0,3:0:0:0:
257,217,92724,6,0,P|232:266|234:319,1,80,6|0,3:2|0:0,0:0:0:0:
407,175,93179,2,0,P|400:135|379:101,1,80,2|0,0:0|0:0,0:0:0:0:
55,107,93633,2,0,L|234:120,1,160,12|0,0:0|0:0,0:0:0:0:
285,24,94314,1,2,0:0:0:0:
98,199,94541,6,0,P|74:248|78:288,1,80,2|0,0:0|0:0,0:0:0:0:
130,370,94996,1,0,0:0:0:0:
272,158,95223,5,2,0:0:0:0:
338,246,95450,2,0,L|346:335,1,80,8|0,0:0|0:0,0:0:0:0:
166,139,95904,2,0,L|178:29,1,80,8|0,0:0|3:0,0:0:0:0:
184,46,96245,1,0,3:0:0:0:
193,33,96358,6,0,P|244:44|278:78,1,80,6|0,3:2|0:0,0:0:0:0:
338,247,96813,2,0,P|403:228|429:197,1,80,2|0,0:0|0:0,0:0:0:0:
177,153,97267,2,0,B|154:191|168:242|176:223|194:266|165:318,1,160,12|0,0:0|0:0,0:0:0:0:
53,350,97948,1,2,0:0:0:0:
280,197,98175,6,0,L|380:205,1,80,2|0,0:0|0:0,0:0:0:0:
256,38,98630,2,0,P|201:77|187:116,1,80,0|2,0:0|0:0,0:0:0:0:
482,171,99084,2,0,P|475:103|448:72,1,80,8|0,0:0|0:0,0:0:0:0:
240,304,99538,2,0,P|301:332|342:324,1,80
329,322,99879,1,0,0:0:0:0:
347,313,99992,6,0,B|396:292|396:292|456:303,1,106.666666666667,0|0,3:0|3:0,3:0:0:0:
253,148,100674,2,0,L|258:54,2,85.3333333333333,0|0|0,3:0|3:0|3:0,3:0:0:0:
184,359,101582,1,0,3:0:0:0:
184,359,101809,6,0,L|177:267,1,80,6|0,0:0|0:0,0:0:0:0:
246,55,102264,2,0,L|239:139,1,80,2|0,0:0|0:0,0:0:0:0:
447,274,102718,2,0,P|395:216|306:236,1,160,12|0,0:0|0:0,0:0:0:0:
290,325,103399,1,2,0:0:0:0:
85,193,103626,6,0,P|96:137|125:109,1,80,2|0,0:0|0:0,0:0:0:0:
219,93,104081,1,0,0:0:0:0:
131,287,104308,5,2,0:0:0:0:
214,349,104535,2,0,L|301:340,1,80,8|0,0:0|0:0,0:0:0:0:
448,196,104989,1,8,0:0:0:0:
341,235,105216,1,0,3:0:0:0:
341,235,105330,1,0,3:0:0:0:
341,235,105443,6,0,P|325:170|300:140,1,80,6|0,3:2|0:0,0:0:0:0:
385,336,105897,2,0,P|432:358|487:357,1,80,2|0,0:0|0:0,0:0:0:0:
418,112,106352,2,0,L|230:99,1,160,12|0,0:0|0:0,0:0:0:0:
138,92,107033,1,2,0:0:0:0:
170,305,107260,5,2,0:0:0:0:
240,225,107487,1,0,0:0:0:0:
139,206,107714,1,0,0:0:0:0:
309,341,107942,5,2,0:0:0:0:
343,245,108169,2,0,L|350:157,1,80,8|0,0:0|0:0,0:0:0:0:
194,86,108623,2,0,L|199:145,1,40,8|0,0:0|3:0,0:0:0:0:
213,233,108850,1,0,3:0:0:0:
213,233,108964,1,0,3:0:0:0:
213,233,109077,6,0,P|149:203|105:204,1,80,6|0,3:2|0:0,0:0:0:0:
45,350,109531,2,0,L|152:344,1,80,2|0,0:0|0:0,0:0:0:0:
305,158,109986,2,0,B|363:134|363:134|488:155,1,160,12|0,0:0|0:0,0:0:0:0:
381,251,110667,1,2,0:0:0:0:
211,100,110894,6,0,L|217:6,1,80,2|0,0:0|0:0,0:0:0:0:
283,270,111348,2,0,P|248:285|184:284,1,80,0|2,0:0|0:0,0:0:0:0:
419,171,111803,2,0,P|449:193|480:249,1,80,8|0,0:0|0:0,0:0:0:0:
270,94,112257,2,0,P|274:56|307:1,1,80
311,25,112598,1,0,0:0:0:0:
326,33,112711,6,0,B|376:52|376:52|444:45,1,106.666666666667,0|0,3:0|3:0,3:0:0:0:
133,95,113392,2,0,B|103:127|103:127|90:177,2,85.3333333333333,0|0|0,3:0|3:0|3:0,3:0:0:0:
334,160,114301,1,0,3:0:0:0:
334,160,114528,6,0,P|272:177|237:209,1,88.000002685547,6|2,0:0|0:0,0:0:0:0:
346,360,114982,2,0,L|335:264,1,88.000002685547,8|0,0:0|0:0,0:0:0:0:
127,304,115437,2,0,L|137:208,1,88.000002685547,2|2,0:0|0:0,0:0:0:0:
217,26,115891,1,8,0:0:0:0:
231,128,116118,1,0,0:0:0:0:
38,75,116345,5,6,0:0:0:0:
38,75,116572,2,0,P|85:90|138:81,1,88.000002685547,2|8,0:0|0:0,0:0:0:0:
346,17,117026,2,0,P|395:59|429:168,1,176.000005371094,2|2,0:0|0:0,0:0:0:0:
299,308,117708,2,0,P|358:264|390:261,1,88.000002685547,8|0,0:0|3:0,0:0:0:0:
386,269,118048,1,0,3:0:0:0:
400,278,118162,6,0,L|494:286,1,88.000002685547,6|2,3:2|0:0,0:0:0:0:
322,115,118616,2,0,L|202:129,1,88.000002685547,8|0,0:0|0:0,0:0:0:0:
50,149,119071,1,2,0:0:0:0:
127,54,119298,1,2,0:0:0:0:
151,231,119525,2,0,P|195:257|253:259,1,88.000002685547,8|0,0:0|0:0,0:0:0:0:
383,216,119979,5,6,0:0:0:0:
383,216,120206,2,0,L|375:314,1,88.000002685547,2|8,0:0|0:0,0:0:0:0:
485,87,120660,2,0,B|437:45|437:45|318:33,1,176.000005371094,2|2,0:0|0:0,0:0:0:0:
175,146,121342,2,0,P|237:117|289:129,1,88.000002685547,8|0,0:0|0:0,0:0:0:0:
368,316,121796,6,0,L|263:324,1,88.000002685547,6|2,0:0|0:0,0:0:0:0:
414,186,122250,2,0,L|519:194,1,88.000002685547,8|0,0:0|0:0,0:0:0:0:
67,244,122704,2,0,P|49:195|54:143,1,88.000002685547,6|2,0:0|0:0,0:0:0:0:
270,313,123159,2,0,P|298:251|296:206,1,88.000002685547,8|0,0:0|0:0,0:0:0:0:
145,54,123613,6,0,P|106:101|-20:69,1,176.000005371094,6|8,0:0|0:0,0:0:0:0:
259,21,124294,2,0,B|291:79|291:79|270:206,1,176.000005371094,2|2,0:0|0:0,0:0:0:0:
112,300,124976,2,0,P|153:262|206:254,1,88.000002685547,8|0,0:0|0:0,0:0:0:0:
193,256,125278,1,0,3:0:0:0:
202,258,125354,1,0,3:0:0:0:
212,261,125430,6,0,B|251:283|251:283|307:288,1,85.3333333333333,0|0,3:0|3:0,3:0:0:0:
244,86,126036,2,0,B|205:108|205:108|173:154,1,85.3333333333333,0|0,3:0|3:0,3:0:0:0:
387,205,126641,2,0,B|386:160|386:160|362:109,1,85.3333333333333,0|0,3:0|3:0,3:0:0:0:
268,219,127095,1,0,3:0:0:0:
271,227,127171,1,0,3:0:0:0:
274,234,127247,6,0,L|181:240,1,85.3333333333333,0|0,3:0|3:0,3:0:0:0:
307,129,127853,2,0,L|207:112,1,85.3333333333333,0|0,3:0|3:0,3:0:0:0:
391,35,128458,2,0,L|296:9,1,85.3333333333333,0|0,3:0|3:0,3:0:0:0:
436,141,128912,1,0,3:0:0:0:
443,147,128988,1,0,3:0:0:0:
450,153,129064,6,0,B|494:151|494:151|538:128,1,85.3333333333333,0|0,3:0|3:0,3:0:0:0:
321,185,129670,2,0,B|300:224|300:224|298:273,1,85.3333333333333,0|0,3:0|3:0,3:0:0:0:
359,59,130275,2,0,B|335:21|335:21|293:-4,1,85.3333333333333,0|0,3:0|3:0,3:0:0:0:
81,110,130881,5,4,3:2:0:0:
256,192,130957,12,0,138944,0:0:0:0:
