osu file format v14

[General]
AudioFilename: state of the union.mp3
AudioLeadIn: 0
PreviewTime: 40373
Countdown: 0
SampleSet: Soft
StackLeniency: 0.1
Mode: 0
LetterboxInBreaks: 0
WidescreenStoryboard: 0

[Editor]
Bookmarks: 101128
DistanceSpacing: 1.8
BeatDivisor: 6
GridSize: 4
TimelineZoom: 1.9

[Metadata]
Title:State of the Union
TitleUnicode:State of the Union
Artist:Rise Against
ArtistUnicode:Rise Against
Creator:pishifat
Version:Extra
Source:
Tags:siren song counter culture milan- punk hardcore
BeatmapID:846019
BeatmapSetID:387185

[Difficulty]
HPDrainRate:5.5
CircleSize:3
OverallDifficulty:8.6
ApproachRate:9.3
SliderMultiplier:1.7
SliderTickRate:2

[Events]
//Background and Video events
0,0,"no.jpg",0,0
//Break Periods
//Storyboard Layer 0 (Background)
//Storyboard Layer 1 (Fail)
//Storyboard Layer 2 (Pass)
//Storyboard Layer 3 (Foreground)
//Storyboard Sound Samples

[TimingPoints]
514,227.12217280212,4,2,1,80,1,0
514,-105.263157894737,4,2,1,80,0,0
968,-102.040816326531,4,2,1,80,0,0
1422,-100,4,2,1,80,0,0
1876,-97.0873786407767,4,2,1,80,0,0
2330,-100,4,2,1,85,0,0
2785,-97.0873786407767,4,2,1,85,0,0
3239,-95.2380952380952,4,2,1,85,0,0
3693,-92.5925925925926,4,2,1,85,0,0
4147,-95.2380952380952,4,2,1,90,0,0
4602,-92.5925925925926,4,2,1,90,0,0
5056,-90.9090909090909,4,2,1,90,0,0
5510,-88.4955752212389,4,2,1,90,0,0
5964,-90.9090909090909,4,2,1,95,0,0
6419,-88.4955752212389,4,2,1,95,0,0
6873,-86.9565217391304,4,2,1,95,0,0
7327,-84.7457627118644,4,2,1,95,0,0
7781,-100,4,2,1,100,0,0
9598,-100,4,2,1,80,0,0
13232,-166.666666666667,4,2,1,80,0,0
13687,-133.333333333333,4,2,1,80,0,0
14141,-166.666666666667,4,2,1,80,0,0
14595,-161.290322580645,4,2,1,80,0,0
14993,-161.290322580645,4,2,1,5,0,0
15049,-100,4,2,1,80,0,0
15504,227.12217280212,4,2,1,80,1,0
15504,-100,4,2,1,80,0,0
20954,-166.666666666667,4,2,1,80,0,0
21409,-133.333333333333,4,2,1,80,0,0
21863,-166.666666666667,4,2,1,80,0,0
22317,-161.290322580645,4,2,1,80,0,0
22715,-100,4,2,1,5,0,0
22771,-161.290322580645,4,2,1,80,0,0
23226,227.12217280212,4,2,1,76,1,0
23226,-125,4,2,1,76,0,0
23737,-125,4,2,1,55,0,0
24938,-125,4,2,1,75,0,0
25518,-125,4,2,1,55,0,0
25828,-125,4,2,1,75,0,0
27348,-125,4,2,1,55,0,0
28528,-125,4,2,1,75,0,0
29178,-125,4,2,1,55,0,0
29528,-125,4,2,1,75,0,0
30962,-125,4,2,1,55,0,0
31175,-200,4,2,1,60,0,0
32310,-125,4,2,1,76,0,0
32992,-200,4,2,1,60,0,0
33219,-125,4,2,1,76,0,0
34582,-200,4,2,1,60,0,0
35944,-125,4,2,1,76,0,0
36399,-200,4,2,1,60,0,0
36853,-100,4,2,1,76,0,0
39805,-100,4,2,1,60,0,0
40033,-100,4,2,1,67,0,0
40260,-100,4,2,1,74,0,0
40487,-90.9090909090909,4,2,1,80,0,1
45938,-166.666666666667,4,2,1,80,0,0
46392,-133.333333333333,4,2,1,80,0,0
46846,-166.666666666667,4,2,1,80,0,0
47755,-90.9090909090909,4,2,1,80,0,1
53206,-166.666666666667,4,2,1,80,0,0
53660,-133.333333333333,4,2,1,80,0,0
54114,-166.666666666667,4,2,1,80,0,0
55023,-125,4,2,1,75,0,0
55553,-125,4,2,1,55,0,0
56678,-125,4,2,1,75,0,0
57278,-125,4,2,1,55,0,0
57688,-125,4,2,1,75,0,0
59131,-125,4,2,1,55,0,0
60349,-125,4,2,1,75,0,0
60939,-125,4,2,1,55,0,0
61279,-125,4,2,1,76,0,0
62972,-200,4,2,1,60,0,0
64107,-125,4,2,1,75,0,0
64562,-200,4,2,1,60,0,0
64959,-125,4,2,1,75,0,0
66379,-200,4,2,1,60,0,0
67741,-125,4,2,1,75,0,0
68139,-200,4,2,1,60,0,0
68650,-100,4,2,1,80,0,0
71603,-100,4,2,1,60,0,0
71830,-100,4,2,1,67,0,0
72057,-100,4,2,1,74,0,0
72284,-90.9090909090909,4,2,1,80,0,1
77735,-166.666666666667,4,2,1,80,0,0
78189,-133.333333333333,4,2,1,80,0,0
78643,-166.666666666667,4,2,1,80,0,0
79552,-90.9090909090909,4,2,1,80,0,1
85003,227.12217280212,6,2,1,80,1,0
85003,-166.666666666667,6,2,1,80,0,0
85457,-133.333333333333,6,2,1,80,0,0
85911,-166.666666666667,6,2,1,80,0,0
86365,-166.666666666667,6,2,1,80,0,0
86819,-133.333333333333,6,2,1,80,0,0
87274,-166.666666666667,6,2,1,80,0,0
87728,-166.666666666667,6,2,1,80,0,0
88182,-133.333333333333,6,2,1,80,0,0
88636,-166.666666666667,6,2,1,80,0,0
89091,454.242626128036,4,2,1,100,1,0
89091,-200,4,2,1,100,0,0
99992,-153.846153846154,4,2,1,100,0,0
101809,-200,4,2,1,100,0,0
112711,-153.846153846154,4,2,1,100,0,0
114528,-125,4,2,1,100,0,0
125430,-153.846153846154,4,2,1,100,0,0
130957,-153.846153846154,4,2,1,5,0,0

[Colours]
Combo1 : 255,185,40
Combo2 : 236,50,45

[HitObjects]
245,217,400,5,2,0:0:0:0:
264,215,457,1,2,0:0:0:0:
280,214,514,6,0,L|385:205,1,80.7499978437424,12|2,0:0|0:0,0:0:0:0:
146,228,741,2,0,L|43:237,1,80.7499978437424,8|2,2:0|2:0,0:0:0:0:
291,120,968,6,0,L|399:111,1,83.2999992373657,8|2,0:0|0:0,0:0:0:0:
125,329,1195,2,0,L|19:340,1,83.2999992373657,8|2,0:0|0:0,0:0:0:0:
192,103,1422,5,8,0:0:0:0:
280,214,1536,1,2,0:0:0:0:
175,92,1649,2,0,L|74:87,1,85,8|2,0:0|0:0,0:0:0:0:
290,312,1876,5,8,0:0:0:0:
363,166,1990,1,2,0:0:0:0:
277,323,2103,2,0,L|177:333,1,87.5499992652512,8|2,0:0|0:0,0:0:0:0:
265,55,2330,6,0,B|312:51|312:51|375:80,1,85,12|2,0:0|0:0,0:0:0:0:
181,202,2558,2,0,B|134:206|134:206|89:192,1,85,8|2,0:0|0:0,0:0:0:0:
363,166,2785,6,0,B|375:211|375:211|353:288,1,87.5499992652512,8|2,0:0|0:0,0:0:0:0:
153,107,3013,2,0,B|140:65|140:65|147:21,1,87.5499992652512,8|2,0:0|0:0,0:0:0:0:
458,153,3239,5,8,0:0:0:0:
274,209,3353,1,2,0:0:0:0:
472,140,3466,2,0,L|486:36,1,89.2499972763062,8|2,0:0|0:0,0:0:0:0:
280,114,3693,5,8,0:0:0:0:
483,245,3807,1,2,0:0:0:0:
268,103,3920,2,0,L|150:90,1,91.800002241211,8|2,0:0|0:0,0:0:0:0:
340,339,4147,6,0,B|382:317|382:317|397:264,1,89.2499972763062,12|2,0:0|0:0,0:0:0:0:
179,185,4375,2,0,B|137:207|137:207|125:247,1,89.2499972763062,8|2,0:0|0:0,0:0:0:0:
406,181,4602,6,0,B|391:135|391:135|338:110,1,91.800002241211,8|2,0:0|0:0,0:0:0:0:
197,319,4830,2,0,B|211:364|211:364|254:386,1,91.800002241211,8|2,0:0|0:0,0:0:0:0:
483,245,5056,5,8,0:0:0:0:
318,219,5170,1,2,0:0:0:0:
498,255,5283,2,0,L|512:347,1,93.5000028533936,8|2,0:0|0:0,0:0:0:0:
292,370,5510,5,8,0:0:0:0:
406,181,5624,1,2,0:0:0:0:
275,382,5737,2,0,L|166:369,1,96.0500002931213,8|2,0:0|0:0,0:0:0:0:
284,80,5964,6,0,B|331:71|331:71|382:130,1,93.5000028533936,12|2,0:0|0:0,0:0:0:0:
181,271,6192,2,0,B|134:280|134:280|83:221,1,93.5000028533936,8|2,0:0|0:0,0:0:0:0:
406,181,6419,6,0,B|426:224|426:224|382:289,1,96.0500002931213,8|2,0:0|0:0,0:0:0:0:
57,169,6647,2,0,B|36:125|36:125|80:59,1,96.0500002931213,8|2,0:0|0:0,0:0:0:0:
450,102,6873,5,8,0:0:0:0:
269,200,6986,1,2,0:0:0:0:
462,94,7100,2,0,L|474:-4,1,97.7500018644333,8|2,0:0|0:0,0:0:0:0:
223,108,7327,5,8,0:0:0:0:
500,184,7441,1,2,0:0:0:0:
206,101,7554,2,0,L|83:93,1,100.29999647995,8|2,0:0|0:0,0:0:0:0:
385,358,7781,5,12,0:0:0:0:
494,270,9598,6,0,B|455:218|455:218|311:230,1,170,6|8,0:0|0:0,0:0:0:0:
139,244,9939,2,0,P|132:157|187:172,1,170,2|2,0:0|0:0,0:0:0:0:
255,360,10280,1,8,0:0:0:0:
263,268,10393,1,0,0:0:0:0:
274,175,10507,6,0,B|304:145|304:145|370:131,1,85,2|2,0:0|0:0,0:0:0:0:
495,160,10734,1,8,0:0:0:0:
350,226,10848,2,0,L|150:212,1,170,2|2,0:0|0:0,0:0:0:0:
0,198,11188,2,0,L|113:208,1,85,8|0,0:0|0:0,0:0:0:0:
444,238,11415,6,0,B|482:258|482:258|520:308,2,85,2|0|8,0:0|0:0|0:0,0:0:0:0:
241,283,11756,2,0,P|237:328|326:301,1,170,2|2,0:0|0:0,0:0:0:0:
191,91,12097,1,8,0:0:0:0:
157,176,12210,1,0,0:0:0:0:
249,167,12324,6,0,L|346:156,1,85,2|2,0:0|0:0,0:0:0:0:
456,145,12551,1,8,0:0:0:0:
157,176,12665,2,0,B|102:209|102:209|91:346,1,170,2|2,0:0|0:0,0:0:0:0:
191,91,13005,2,0,B|169:49|169:49|103:10,1,85,8|0,0:0|0:0,0:0:0:0:
273,282,13232,6,0,L|375:324,1,101.999996887207,8|2,3:2|3:2,0:0:0:0:
249,167,13687,6,0,L|366:217,1,127.500004863739,2|2,3:2|3:2,0:0:0:0:
236,57,14141,6,0,L|338:99,1,101.999996887207,2|2,3:2|3:2,0:0:0:0:
106,214,14595,6,0,P|71:168|134:197,1,184.449992682343,6|0,0:3|0:0,0:0:0:0:
134,196,15049,1,6,0:3:0:0:
134,196,15504,6,0,B|172:256|172:256|310:270,1,170,6|8,0:0|0:0,0:0:0:0:
468,268,15844,2,0,P|436:290|418:196,1,170,2|2,0:0|0:0,0:0:0:0:
300,92,16185,2,0,L|305:176,1,85,8|0,0:0|0:0,0:0:0:0:
276,350,16412,6,0,L|269:251,1,85,2|2,0:0|0:0,0:0:0:0:
395,107,16639,1,8,0:0:0:0:
305,176,16753,2,0,B|202:184|202:184|139:141,1,170,2|2,0:0|0:0,0:0:0:0:
400,203,17093,2,0,B|419:243|419:243|413:303,1,85,8|0,0:0|0:0,0:0:0:0:
49,160,17320,6,0,B|53:112|53:112|87:63,2,85,2|0|8,0:0|0:0|0:0,0:0:0:0:
234,309,17661,2,0,P|263:293|200:225,1,170,2|2,0:0|0:0,0:0:0:0:
76,318,18002,1,8,0:0:0:0:
108,231,18115,1,0,0:0:0:0:
146,146,18229,6,0,B|184:123|184:123|250:117,1,85,2|2,0:0|0:0,0:0:0:0:
379,122,18456,1,8,0:0:0:0:
291,192,18570,2,0,L|275:-8,1,170,2|2,0:0|0:0,0:0:0:0:
300,288,18910,2,0,L|307:373,1,85,8|0,0:0|0:0,0:0:0:0:
451,161,19137,6,0,B|420:133|420:133|359:117,2,85,2|0|8,0:0|0:0|0:0,0:0:0:0:
449,384,19478,2,0,B|400:337|400:337|389:219,1,170,2|2,0:0|0:0,0:0:0:0:
512,88,19819,1,8,0:0:0:0:
451,161,19932,1,0,0:0:0:0:
390,237,20046,6,0,B|274:249,1,85,2|2,0:0|0:0,0:0:0:0:
117,205,20273,1,8,0:0:0:0:
222,157,20387,2,0,P|267:187|200:243,1,170,2|2,0:0|0:0,0:0:0:0:
64,123,20727,2,0,B|70:80|70:80|103:34,1,85,8|0,0:0|0:0,0:0:0:0:
390,237,20954,6,0,L|497:266,1,101.999996887207,10|2,3:2|3:2,0:0:0:0:
222,157,21409,6,0,L|339:105,1,127.500004863739,2|2,3:2|3:2,0:0:0:0:
61,202,21863,6,0,L|93:98,1,101.999996887207,2|2,3:2|3:2,0:0:0:0:
220,341,22317,6,0,P|173:319|234:328,1,184.449992682343,6|0,0:3|0:0,0:0:0:0:
235,323,22771,1,6,0:3:0:0:
235,323,23226,6,0,L|313:318,1,68,6|0,0:0|0:0,0:0:0:0:
460,307,23453,2,0,L|365:314,1,68,8|0,0:0|0:0,0:0:0:0:
460,307,23906,1,8,0:0:0:0:
460,307,24360,1,8,0:0:0:0:
460,307,24815,1,8,0:0:0:0:
190,169,25042,6,0,L|185:87,1,68,2|0,0:0|0:0,0:0:0:0:
285,192,25270,2,0,L|294:282,1,68,8|0,0:0|0:0,0:0:0:0:
285,192,25724,1,8,0:0:0:0:
133,338,25951,5,2,0:0:0:0:
79,346,26065,1,2,0:0:0:0:
25,355,26178,1,8,0:0:0:0:
85,253,26292,2,0,B|153:242|153:242|223:276,1,136,2|2,0:0|0:0,0:0:0:0:
278,343,26632,2,0,B|310:355|310:355|367:357,1,68,8|0,0:0|0:0,0:0:0:0:
453,200,26859,6,0,L|442:292,1,68,2|0,0:0|0:0,0:0:0:0:
367,146,27087,2,0,L|354:228,1,68,8|0,0:0|0:0,0:0:0:0:
367,146,27541,1,8,0:0:0:0:
367,146,27995,1,8,0:0:0:0:
367,146,28449,1,8,0:0:0:0:
123,256,28676,6,0,L|112:172,1,68,2|0,0:0|0:0,0:0:0:0:
93,25,28904,2,0,L|105:120,1,68,8|0,0:0|0:0,0:0:0:0:
93,25,29358,1,8,0:0:0:0:
216,111,29585,5,2,0:0:0:0:
269,123,29698,1,2,0:0:0:0:
320,103,29812,1,8,0:0:0:0:
344,54,29926,1,0,0:0:0:0:
475,168,30039,5,2,0:0:0:0:
422,156,30152,1,0,0:0:0:0:
372,175,30266,2,0,B|350:203|350:203|341:244,1,68,8|0,0:0|0:0,0:0:0:0:
459,336,30493,6,0,L|378:329,1,68,6|0,0:0|0:0,0:0:0:0:
230,312,30721,2,0,L|329:322,1,68,8|0,0:0|0:0,0:0:0:0:
230,312,31175,2,0,L|275:346,1,42.5,8|0,0:0|0:0,0:0:0:0:
230,312,31629,2,0,L|251:370,1,42.5,8|0,0:0|0:0,0:0:0:0:
230,312,32083,2,0,L|213:368,1,42.5,8|0,0:0|0:0,0:0:0:0:
47,131,32310,6,0,L|39:56,1,68,2|0,0:0|0:0,0:0:0:0:
141,151,32538,2,0,L|148:237,1,68,8|0,0:0|0:0,0:0:0:0:
141,151,32992,2,0,L|174:192,1,42.5,8|0,0:0|0:0,0:0:0:0:
380,98,33219,5,2,0:0:0:0:
333,69,33332,1,2,0:0:0:0:
278,75,33446,1,8,0:0:0:0:
317,159,33560,2,0,L|477:150,1,136,2|2,0:0|0:0,0:0:0:0:
370,255,33900,2,0,L|283:259,1,68,8|0,0:0|0:0,0:0:0:0:
50,239,34127,6,0,L|58:312,1,68,6|0,0:0|0:0,0:0:0:0:
138,186,34354,2,0,L|148:268,1,68,8|0,0:0|0:0,0:0:0:0:
138,186,34809,2,0,L|172:224,1,42.5,8|0,0:0|0:0,0:0:0:0:
137,186,35263,2,0,L|190:196,1,42.5,8|0,0:0|0:0,0:0:0:0:
137,186,35717,2,0,L|181:164,1,42.5,8|0,0:0|0:0,0:0:0:0:
457,122,35944,6,0,L|545:128,1,68,2|0,0:0|0:0,0:0:0:0:
365,112,36171,2,0,L|294:107,1,68,8|0,0:0|0:0,0:0:0:0:
365,112,36626,2,0,L|324:89,1,42.5,8|0,0:0|0:0,0:0:0:0:
305,308,36853,6,0,L|181:321,1,85,6|0,0:0|0:0,0:0:0:0:
60,336,37080,1,8,0:0:0:0:
220,219,37194,2,0,B|324:208|324:208|389:232,1,170,2|2,0:0|0:0,0:0:0:0:
134,273,37534,2,0,B|119:233|119:233|127:164,1,85,8|0,0:0|0:0,0:0:0:0:
382,70,37761,6,0,L|499:91,2,85,6|0|8,0:0|0:0|0:0,0:0:0:0:
190,48,38102,2,0,B|135:91|135:91|123:190,1,170,2|2,0:0|0:0,0:0:0:0:
373,341,38443,1,8,0:0:0:0:
323,257,38556,1,0,0:0:0:0:
276,344,38670,6,0,B|237:362|237:362|163:367,1,85,6|0,0:0|0:0,0:0:0:0:
65,170,38897,1,8,0:0:0:0:
162,177,39010,1,2,0:0:0:0:
255,182,39124,2,0,L|352:188,1,85,0|2,0:0|0:0,0:0:0:0:
115,84,39351,2,0,L|9:78,1,85,8|0,0:0|0:0,0:0:0:0:
160,303,39578,5,4,0:0:0:0:
160,303,39805,5,8,0:0:0:0:
249,269,39919,1,8,0:0:0:0:
173,209,40033,1,8,0:0:0:0:
148,319,40146,5,8,0:0:0:0:
268,268,40260,1,8,0:0:0:0:
166,191,40373,1,8,0:0:0:0:
238,362,40487,6,0,B|356:374|356:374|408:321,1,187.000005706787,6|8,0:0|0:0,0:0:0:0:
495,150,40827,2,0,P|458:241|426:181,1,187.000005706787,2|2,0:0|0:0,0:0:0:0:
352,46,41168,1,8,0:0:0:0:
405,125,41282,1,0,0:0:0:0:
315,134,41395,6,0,L|204:146,1,93.5000028533936,2|2,0:0|0:0,0:0:0:0:
72,155,41622,1,8,0:0:0:0:
300,231,41736,2,0,L|400:218,2,93.5000028533936,2|0|2,0:0|0:0|0:0,0:0:0:0:
72,155,42077,2,0,B|38:121|38:121|31:50,1,93.5000028533936,8|0,0:0|0:0,0:0:0:0:
315,134,42304,6,0,B|348:191|348:191|332:351,1,187.000005706787,2|8,0:0|0:0,0:0:0:0:
171,267,42644,2,0,P|157:210|252:229,1,187.000005706787,2|2,0:0|0:0,0:0:0:0:
148,364,42985,1,8,0:0:0:0:
79,298,43099,1,0,0:0:0:0:
13,229,43212,6,0,L|21:118,1,93.5000028533936,2|2,0:0|0:0,0:0:0:0:
29,14,43439,1,8,0:0:0:0:
113,203,43553,2,0,B|173:242|173:242|318:226,1,187.000005706787,2|2,0:0|0:0,0:0:0:0:
474,210,43894,2,0,L|374:221,1,93.5000028533936,8|0,0:0|0:0,0:0:0:0:
110,107,44121,6,0,B|116:60|116:60|166:7,1,93.5000028533936,2|0,0:0|0:0,0:0:0:0:
313,0,44348,1,8,0:0:0:0:
198,146,44461,2,0,L|-6:166,1,187.000005706787,2|2,0:0|0:0,0:0:0:0:
260,77,44802,1,8,0:0:0:0:
291,166,44916,1,0,0:0:0:0:
319,258,45029,6,0,B|361:281|361:281|434:286,1,93.5000028533936,2|2,0:0|0:0,0:0:0:0:
260,77,45256,1,8,0:0:0:0:
198,146,45370,1,2,0:0:0:0:
291,166,45483,1,0,0:0:0:0:
352,91,45597,1,2,0:0:0:0:
254,60,45711,5,8,0:0:0:0:
193,301,45938,6,0,L|80:351,1,101.999996887207,12|2,3:2|3:2,0:0:0:0:
227,180,46392,6,0,L|94:233,1,127.500004863739,2|2,3:2|3:2,0:0:0:0:
254,60,46846,6,0,L|140:104,1,101.999996887207,2|2,3:2|3:2,0:0:0:0:
416,292,47300,5,6,3:3:0:0:
416,292,47755,6,0,B|365:246|365:246|354:122,1,187.000005706787,6|8,0:0|0:0,0:0:0:0:
194,325,48095,2,0,P|271:307|224:242,1,187.000005706787,2|2,0:0|0:0,0:0:0:0:
254,60,48436,2,0,B|262:153,1,93.5000028533936,8|0,0:0|0:0,0:0:0:0:
102,344,48663,6,0,B|54:345|54:345|3:323,2,93.5000028533936,2|2|8,0:0|0:0|0:0,0:0:0:0:
262,153,49004,2,0,B|212:109|212:109|88:95,1,187.000005706787,2|2,0:0|0:0,0:0:0:0:
316,237,49345,2,0,L|430:229,1,93.5000028533936,8|0,0:0|0:0,0:0:0:0:
170,200,49572,6,0,B|144:237|144:237|139:294,2,93.5000028533936,2|0|8,0:0|0:0|0:0,0:0:0:0:
321,75,49912,2,0,L|511:57,1,187.000005706787,2|2,0:0|0:0,0:0:0:0:
158,109,50253,1,8,0:0:0:0:
229,45,50367,1,0,0:0:0:0:
247,138,50480,6,0,L|264:248,1,93.5000028533936,2|2,0:0|0:0,0:0:0:0:
277,361,50707,1,8,0:0:0:0:
440,273,50821,2,0,P|443:206|359:253,1,187.000005706787,2|2,0:0|0:0,0:0:0:0:
198,302,51162,2,0,L|94:312,1,93.5000028533936,8|0,0:0|0:0,0:0:0:0:
141,93,51389,6,0,B|179:64|179:64|241:55,1,93.5000028533936,2|0,0:0|0:0,0:0:0:0:
343,115,51616,1,8,0:0:0:0:
122,196,51729,2,0,L|97:3,1,187.000005706787,2|2,0:0|0:0,0:0:0:0:
343,115,52070,1,8,0:0:0:0:
355,211,52184,1,0,0:0:0:0:
367,308,52297,6,0,B|411:328|411:328|483:321,1,93.5000028533936,2|2,0:0|0:0,0:0:0:0:
432,153,52524,1,8,0:0:0:0:
276,271,52638,2,0,L|160:281,1,93.5000028533936,2|0,0:0|0:0,0:0:0:0:
0,293,52865,1,2,0:0:0:0:
90,286,52979,5,8,0:0:0:0:
90,286,53206,6,0,L|48:173,1,101.999996887207,10|2,3:2|3:2,0:0:0:0:
219,173,53660,6,0,L|239:46,1,127.500004863739,2|2,3:2|3:2,0:0:0:0:
390,134,54114,6,0,L|473:68,1,101.999996887207,2|2,3:2|3:2,0:0:0:0:
294,322,54568,5,6,3:3:0:0:
294,322,55023,6,0,L|197:317,1,68,6|0,0:0|0:0,0:0:0:0:
383,280,55250,2,0,L|473:288,1,68,8|0,0:0|0:0,0:0:0:0:
383,280,55704,1,8,0:0:0:0:
383,280,56158,1,8,0:0:0:0:
383,280,56612,1,8,0:0:0:0:
216,132,56840,6,0,L|223:41,1,68,2|0,0:0|0:0,0:0:0:0:
210,226,57067,2,0,L|205:308,1,68,8|0,0:0|0:0,0:0:0:0:
210,226,57521,1,8,0:0:0:0:
440,121,57748,5,2,0:0:0:0:
427,67,57862,1,2,0:0:0:0:
414,14,57975,1,8,0:0:0:0:
338,109,58089,2,0,B|351:177|351:177|425:242,1,136,2|2,0:0|0:0,0:0:0:0:
365,311,58429,2,0,L|265:303,1,68,8|0,0:0|0:0,0:0:0:0:
138,139,58657,6,0,L|145:231,1,68,2|0,0:0|0:0,0:0:0:0:
154,370,58884,2,0,L|147:277,1,68,8|0,0:0|0:0,0:0:0:0:
154,370,59338,1,8,0:0:0:0:
154,370,59792,1,8,0:0:0:0:
154,370,60246,1,8,0:0:0:0:
223,147,60474,6,0,L|316:135,1,68,2|0,0:0|0:0,0:0:0:0:
358,222,60701,2,0,L|290:233,1,68,8|0,0:0|0:0,0:0:0:0:
358,222,61155,1,8,0:0:0:0:
79,162,61382,5,2,0:0:0:0:
48,116,61496,1,2,0:0:0:0:
53,62,61609,1,8,0:0:0:0:
144,95,61723,2,0,B|177:100|177:100|230:84,1,68,2|0,0:0|0:0,0:0:0:0:
261,72,61950,1,2,0:0:0:0:
172,188,62063,2,0,L|167:271,1,68,8|0,0:0|0:0,0:0:0:0:
359,346,62291,6,0,L|282:338,1,68,2|0,0:0|0:0,0:0:0:0:
368,256,62518,2,0,L|452:269,1,68,8|0,0:0|0:0,0:0:0:0:
368,256,62972,2,0,L|428:240,1,42.5,8|0,0:0|0:0,0:0:0:0:
368,256,63426,2,0,L|412:220,1,42.5,8|0,0:0|0:0,0:0:0:0:
368,256,63880,2,0,L|390:201,1,42.5,8|0,0:0|0:0,0:0:0:0:
144,97,64107,6,0,L|134:183,1,68,2|0,0:0|0:0,0:0:0:0:
120,326,64335,2,0,L|127:253,1,68,8|0,0:0|0:0,0:0:0:0:
120,326,64789,2,0,L|102:276,1,42.5,8|0,0:0|0:0,0:0:0:0:
306,179,65016,5,2,0:0:0:0:
358,192,65130,1,2,0:0:0:0:
390,235,65243,1,8,0:0:0:0:
242,257,65357,2,0,B|208:200|208:200|221:106,1,136,2|2,0:0|0:0,0:0:0:0:
316,18,65697,2,0,L|300:92,1,68,8|0,0:0|0:0,0:0:0:0:
355,351,65924,6,0,L|432:343,1,68,2|0,0:0|0:0,0:0:0:0:
260,360,66152,2,0,L|169:367,1,68,8|0,0:0|0:0,0:0:0:0:
260,360,66606,2,0,L|209:347,1,42.5,8|0,0:0|0:0,0:0:0:0:
260,360,67060,2,0,L|233:327,1,42.5,8|0,0:0|0:0,0:0:0:0:
260,360,67514,2,0,L|255:313,1,42.5,8|0,0:0|0:0,0:0:0:0:
365,68,67741,6,0,L|355:159,1,68,2|0,0:0|0:0,0:0:0:0:
453,113,67969,2,0,L|445:188,1,68,8|0,0:0|0:0,0:0:0:0:
453,113,68423,2,0,L|463:164,1,42.5,8|0,0:0|0:0,0:0:0:0:
225,177,68650,6,0,L|208:64,1,85,6|0,0:0|0:0,0:0:0:0:
317,18,68877,1,8,0:0:0:0:
318,214,68991,2,0,B|276:267|276:267|140:279,1,170,2|2,0:0|0:0,0:0:0:0:
0,287,69331,2,0,L|100:281,1,85,8|0,0:0|0:0,0:0:0:0:
384,280,69558,6,0,B|407:315|407:315|416:373,2,85,6|0|8,0:0|0:0|0:0,0:0:0:0:
225,177,69899,2,0,L|202:-4,1,170,2|2,0:0|0:0,0:0:0:0:
239,267,70240,2,0,L|252:360,1,85,8|0,0:0|0:0,0:0:0:0:
413,122,70467,6,0,B|375:102|375:102|306:97,1,85,6|0,0:0|0:0,0:0:0:0:
225,177,70694,1,8,0:0:0:0:
451,217,70808,2,0,B|504:169|504:169|509:32,1,170,2|2,0:0|0:0,0:0:0:0:
362,249,71148,2,0,L|243:259,1,85,8|0,0:0|0:0,0:0:0:0:
99,122,71375,5,4,0:0:0:0:
99,122,71603,5,8,0:0:0:0:
160,195,71716,1,8,0:0:0:0:
194,110,71830,1,8,0:0:0:0:
81,116,71943,5,8,0:0:0:0:
164,215,72057,1,8,0:0:0:0:
210,96,72170,1,8,0:0:0:0:
54,238,72284,6,0,L|46:335,2,93.5000028533936,6|0|8,0:0|0:0|0:0,0:0:0:0:
230,84,72625,2,0,B|348:70|348:70|424:113,1,187.000005706787,2|2,0:0|0:0,0:0:0:0:
241,296,72965,1,8,0:0:0:0:
180,216,73079,1,0,0:0:0:0:
276,203,73192,6,0,L|382:192,1,93.5000028533936,2|2,0:0|0:0,0:0:0:0:
492,179,73420,1,8,0:0:0:0:
310,111,73533,2,0,L|104:126,1,187.000005706787,2|2,0:0|0:0,0:0:0:0:
407,103,73874,2,0,L|514:92,1,93.5000028533936,8|0,0:0|0:0,0:0:0:0:
28,134,74101,6,0,B|0:173|0:173|-10:247,2,93.5000028533936,2|0|8,0:0|0:0|0:0,0:0:0:0:
310,111,74442,2,0,B|368:158|368:158|392:310,1,187.000005706787,2|2,0:0|0:0,0:0:0:0:
185,222,74782,1,8,0:0:0:0:
217,134,74896,1,0,0:0:0:0:
278,213,75009,6,0,L|293:306,2,93.5000028533936,2|2|8,0:0|0:0|0:0,0:0:0:0:
218,39,75350,2,0,P|145:5|140:85,1,187.000005706787,2|2,0:0|0:0,0:0:0:0:
363,174,75691,2,0,B|409:160|409:160|454:117,1,93.5000028533936,8|0,0:0|0:0,0:0:0:0:
101,168,75918,6,0,L|94:282,1,93.5000028533936,2|0,0:0|0:0,0:0:0:0:
90,372,76145,1,8,0:0:0:0:
2,129,76259,2,0,B|55:80|55:80|198:63,1,187.000005706787,2|2,0:0|0:0,0:0:0:0:
454,47,76599,1,8,0:0:0:0:
361,56,76713,1,0,0:0:0:0:
270,64,76826,6,0,B|248:108|248:108|255:186,1,93.5000028533936,2|2,0:0|0:0,0:0:0:0:
462,270,77053,1,8,0:0:0:0:
448,177,77167,1,2,0:0:0:0:
371,234,77281,1,0,0:0:0:0:
382,326,77394,1,2,0:0:0:0:
478,282,77508,5,8,0:0:0:0:
225,110,77735,6,0,L|191:13,1,101.999996887207,12|2,3:2|3:2,0:0:0:0:
161,221,78189,6,0,L|119:100,1,127.500004863739,2|2,3:2|3:2,0:0:0:0:
85,294,78643,6,0,L|49:198,1,101.999996887207,2|2,3:2|3:2,0:0:0:0:
506,193,79098,5,6,3:3:0:0:
506,193,79552,6,0,B|458:248|458:248|323:259,1,187.000005706787,6|8,0:0|0:0,0:0:0:0:
136,269,79892,2,0,P|216:264|187:189,1,187.000005706787,2|2,0:0|0:0,0:0:0:0:
288,69,80233,2,0,L|299:187,1,93.5000028533936,8|0,0:0|0:0,0:0:0:0:
377,351,80460,6,0,B|420:368|420:368|492:357,2,93.5000028533936,2|2|8,0:0|0:0|0:0,0:0:0:0:
385,105,80801,2,0,P|443:103|380:183,1,187.000005706787,2|2,0:0|0:0,0:0:0:0:
196,128,81142,2,0,L|185:19,1,93.5000028533936,8|0,0:0|0:0,0:0:0:0:
163,266,81369,6,0,L|172:367,1,93.5000028533936,2|0,0:0|0:0,0:0:0:0:
288,293,81596,1,8,0:0:0:0:
113,174,81709,2,0,B|67:228|67:228|73:356,1,187.000005706787,2|2,0:0|0:0,0:0:0:0:
274,121,82050,1,8,0:0:0:0:
180,101,82164,1,0,0:0:0:0:
86,84,82277,6,0,L|-31:62,2,93.5000028533936,2|2|8,0:0|0:0|0:0,0:0:0:0:
369,135,82618,2,0,P|416:89|324:59,1,187.000005706787,2|2,0:0|0:0,0:0:0:0:
399,226,82959,2,0,B|444:247|444:247|506:251,1,93.5000028533936,8|0,0:0|0:0,0:0:0:0:
274,121,83186,6,0,B|156:129,1,93.5000028533936,2|0,0:0|0:0,0:0:0:0:
43,138,83413,1,8,0:0:0:0:
243,30,83526,2,0,B|360:24|360:24|439:78,1,187.000005706787,2|2,0:0|0:0,0:0:0:0:
244,252,83867,1,8,0:0:0:0:
186,175,83981,1,0,0:0:0:0:
280,165,84094,6,0,L|402:152,1,93.5000028533936,2|2,0:0|0:0,0:0:0:0:
497,143,84321,1,8,0:0:0:0:
186,175,84435,2,0,L|69:184,1,93.5000028533936,2|0,0:0|0:0,0:0:0:0:
319,77,84662,1,2,0:0:0:0:
337,245,84776,5,8,0:0:0:0:
337,245,85003,6,0,L|283:357,1,101.999996887207,12|2,3:2|3:2,0:0:0:0:
235,111,85457,6,0,L|223:266,1,127.500004863739,2|2,3:2|3:2,0:0:0:0:
104,66,85911,6,0,L|131:172,1,101.999996887207,2|2,3:2|3:2,0:0:0:0:
429,223,86365,6,0,L|315:170,1,101.999996887207,12|2,3:2|3:2,0:0:0:0:
339,294,86819,6,0,L|204:228,1,127.500004863739,2|2,3:2|3:2,0:0:0:0:
236,355,87274,6,0,L|128:299,1,101.999996887207,2|2,3:2|3:2,0:0:0:0:
377,23,87728,6,0,L|439:126,1,101.999996887207,12|2,3:2|3:2,0:0:0:0:
251,51,88182,6,0,L|251:209,1,127.500004863739,2|2,3:2|3:2,0:0:0:0:
125,23,88636,6,0,L|63:126,1,101.999996887207,2|2,3:2|3:2,0:0:0:0:
301,327,89091,6,0,L|396:321,1,85,6|2,0:0|0:0,0:0:0:0:
208,126,89999,2,0,P|162:161|161:240,1,127.5,12|2,0:0|0:0,0:0:0:0:
235,282,90907,6,0,L|289:275,2,42.5,2|0|0,0:0|0:0|0:0,0:0:0:0:
149,320,91589,1,2,0:0:0:0:
149,320,91816,2,0,L|92:315,1,42.5,8|0,0:0|0:0,0:0:0:0:
228,365,92270,1,8,0:0:0:0:
156,224,92497,1,0,3:0:0:0:
164,207,92611,1,0,3:0:0:0:
174,190,92724,6,0,P|232:167|263:166,1,85,6|2,3:2|0:0,0:0:0:0:
456,280,93633,2,0,L|443:148,1,127.5,12|2,0:0|0:0,0:0:0:0:
461,65,94541,6,0,L|512:74,2,42.5,2|0|0,0:0|0:0|0:0,0:0:0:0:
387,13,95223,1,2,0:0:0:0:
387,13,95450,2,0,L|327:28,1,42.5,8|0,0:0|0:0,0:0:0:0:
264,68,95904,2,0,P|255:102|258:141,1,63.75,8|0,0:0|3:0,0:0:0:0:
265,149,96358,6,0,L|171:158,1,85,6|2,3:2|0:0,0:0:0:0:
351,340,97267,2,0,P|356:285|317:225,1,127.5,12|2,0:0|0:0,0:0:0:0:
262,304,98175,6,0,L|216:310,2,42.5,2|0|0,0:0|0:0|0:0,0:0:0:0:
232,216,98857,1,2,0:0:0:0:
232,216,99084,2,0,L|129:227,1,85,8|0,0:0|0:0,0:0:0:0:
319,23,99992,6,0,B|341:63|341:63|338:124,1,92.0833291180931,0|0,3:0|3:0,0:0:0:0:
153,40,100674,2,0,P|184:13|227:8,2,73.6666632944744,0|0|0,3:0|3:0|0:0,0:0:0:0:
62,201,101582,1,0,3:0:0:0:
62,201,101809,6,0,L|74:288,1,85,6|2,0:0|0:0,0:0:0:0:
329,236,102718,2,0,L|338:108,1,127.5,12|2,0:0|0:0,0:0:0:0:
241,134,103626,6,0,L|238:185,2,42.5,2|0|0,0:0|0:0|0:0,0:0:0:0:
143,149,104308,1,2,0:0:0:0:
143,149,104535,2,0,L|140:203,1,42.5,8|0,0:0|0:0,0:0:0:0:
203,269,104989,2,0,L|211:349,1,63.75,8|0,0:0|3:0,0:0:0:0:
211,352,105443,6,0,P|261:333|292:336,1,85,6|2,3:2|0:0,0:0:0:0:
425,146,106352,1,12,0:0:0:0:
425,146,106806,2,0,P|394:157|365:160,1,42.5,0|2,0:0|0:0,0:0:0:0:
309,100,107260,6,0,L|312:52,2,42.5,2|0|0,0:0|0:0|0:0,0:0:0:0:
225,150,107942,1,2,0:0:0:0:
225,150,108169,2,0,L|211:93,1,42.5,8|0,0:0|0:0,0:0:0:0:
155,33,108623,1,8,0:0:0:0:
125,123,108850,1,0,3:0:0:0:
119,138,108964,1,0,3:0:0:0:
112,153,109077,6,0,P|59:166|23:162,1,85,6|2,3:2|0:0,0:0:0:0:
250,194,109986,2,0,P|290:152|370:155,1,127.5,12|2,0:0|0:0,0:0:0:0:
443,108,110894,6,0,L|445:60,2,42.5,2|0|0,0:0|0:0|0:0,0:0:0:0:
435,200,111576,1,2,0:0:0:0:
435,200,111803,2,0,P|478:214|521:215,1,85,8|0,0:0|0:0,0:0:0:0:
274,83,112711,6,0,B|244:120|244:120|238:174,1,92.0833291180931,0|0,3:0|3:0,0:0:0:0:
318,308,113392,2,0,P|315:286|284:242,2,73.6666632944744,0|0|0,3:0|3:0|0:0,0:0:0:0:
116,327,114301,1,0,3:0:0:0:
116,327,114528,6,0,L|189:337,1,68,6|2,0:0|0:0,0:0:0:0:
88,162,114982,2,0,P|39:169|-3:192,1,68,8|0,0:0|0:0,0:0:0:0:
124,74,115437,2,0,P|93:51|44:40,1,68,2|2,0:0|0:0,0:0:0:0:
134,246,115891,1,8,0:0:0:0:
134,246,116345,5,6,0:0:0:0:
205,182,116572,2,0,L|302:168,1,68,2|8,0:0|0:0,0:0:0:0:
491,273,117026,2,0,P|442:316|361:305,1,136,2|2,0:0|0:0,0:0:0:0:
468,178,117708,2,0,P|440:161|395:153,1,68,8|0,0:0|3:0,0:0:0:0:
385,164,118048,1,0,3:0:0:0:
364,175,118162,6,0,L|355:90,1,68,6|2,3:2|0:0,0:0:0:0:
233,258,118616,2,0,P|265:292|301:308,1,68,8|0,0:0|0:0,0:0:0:0:
141,277,119071,2,0,P|133:320|143:366,1,68,2|2,0:0|0:0,0:0:0:0:
153,118,119525,1,8,0:0:0:0:
153,118,119979,5,6,0:0:0:0:
78,176,120206,2,0,L|-18:183,1,68,2|8,0:0|0:0,0:0:0:0:
113,27,120660,2,0,P|197:28|247:83,1,136,2|2,0:0|0:0,0:0:0:0:
279,145,121342,2,0,L|376:152,1,68,8|0,0:0|0:0,0:0:0:0:
206,225,121796,6,0,P|156:251|133:274,1,68,6|2,0:0|0:0,0:0:0:0:
109,351,122250,1,8,0:0:0:0:
447,165,122704,2,0,L|437:72,1,68,6|2,0:0|0:0,0:0:0:0:
379,239,123159,2,0,L|388:321,1,68,8|0,0:0|0:0,0:0:0:0:
324,113,123613,6,0,P|267:81|180:101,1,136,6|8,0:0|0:0,0:0:0:0:
163,228,124294,2,0,P|108:241|27:194,1,136,2|2,0:0|0:0,0:0:0:0:
250,177,124976,2,0,L|259:248,1,68,8|0,0:0|0:0,0:0:0:0:
439,99,125430,6,0,B|410:74|410:74|367:59,1,73.6666632944744,0|0,3:0|3:0,0:0:0:0:
401,218,126036,2,0,B|388:181|388:181|358:147,1,73.6666632944744,0|0,3:0|3:0,0:0:0:0:
307,312,126641,2,0,B|314:274|314:274|305:229,1,73.6666632944744,0|0,3:0|3:0,0:0:0:0:
225,194,127095,1,0,3:0:0:0:
217,199,127171,1,0,3:0:0:0:
209,205,127247,6,0,L|130:215,1,73.6666632944744,0|0,3:0|3:0,0:0:0:0:
75,126,127853,2,0,L|148:116,1,73.6666632944744,0|0,3:0|3:0,0:0:0:0:
167,18,128458,2,0,L|93:27,1,73.6666632944744,0|0,3:0|3:0,0:0:0:0:
7,67,128912,1,0,3:0:0:0:
10,77,128988,1,0,3:0:0:0:
13,87,129064,6,0,B|40:113|40:113|84:129,1,73.6666632944744,0|0,3:0|3:0,0:0:0:0:
40,210,129670,2,0,B|76:219|76:219|122:210,1,73.6666632944744,0|0,3:0|3:0,0:0:0:0:
123,305,130275,2,0,B|159:294|159:294|194:264,1,73.6666632944744,0|0,3:0|3:0,0:0:0:0:
250,50,130881,5,4,3:2:0:0:
256,192,130957,12,0,138944,0:0:0:0:
