osu file format v14

[General]
AudioFilename: state of the union.mp3
AudioLeadIn: 0
PreviewTime: 40373
Countdown: 0
SampleSet: Soft
StackLeniency: 0.5
Mode: 0
LetterboxInBreaks: 0
WidescreenStoryboard: 1

[Editor]
Bookmarks: 101128
DistanceSpacing: 1.5
BeatDivisor: 4
GridSize: 4
TimelineZoom: 0.7999994

[Metadata]
Title:State of the Union
TitleUnicode:State of the Union
Artist:Rise Against
ArtistUnicode:Rise Against
Creator:pishifat
Version:Easy
Source:
Tags:siren song counter culture milan- punk hardcore
BeatmapID:859382
BeatmapSetID:387185

[Difficulty]
HPDrainRate:2
CircleSize:2
OverallDifficulty:2
ApproachRate:3
SliderMultiplier:0.5
SliderTickRate:1

[Events]
//Background and Video events
0,0,"no.jpg",0,0
//Break Periods
//Storyboard Layer 0 (Background)
//Storyboard Layer 1 (Fail)
//Storyboard Layer 2 (Pass)
//Storyboard Layer 3 (Foreground)
//Storyboard Sound Samples

[TimingPoints]
514,227.12217280212,4,2,1,100,1,0
514,-100,4,2,1,100,0,0
968,-100,4,2,1,100,0,0
1422,-100,4,2,1,100,0,0
1876,-100,4,2,1,100,0,0
2330,-100,4,2,1,100,0,0
2785,-100,4,2,1,100,0,0
3239,-100,4,2,1,100,0,0
3693,-100,4,2,1,100,0,0
4147,-100,4,2,1,100,0,0
4602,-100,4,2,1,100,0,0
5056,-100,4,2,1,100,0,0
5510,-100,4,2,1,100,0,0
5964,-100,4,2,1,100,0,0
6419,-100,4,2,1,100,0,0
6873,-100,4,2,1,100,0,0
7327,-100,4,2,1,100,0,0
7781,-100,4,2,1,100,0,0
13232,-100,4,2,1,100,0,0
13687,-100,4,2,1,100,0,0
14141,-100,4,2,1,100,0,0
14595,-100,4,2,1,100,0,0
14936,-100,4,2,1,5,0,0
15049,-100,4,2,1,100,0,0
15504,227.12217280212,4,2,1,100,1,0
15504,-100,4,2,1,100,0,0
20954,-100,4,2,1,100,0,0
21409,-100,4,2,1,100,0,0
21863,-100,4,2,1,100,0,0
22317,-100,4,2,1,100,0,0
22658,-100,4,2,1,5,0,0
22771,-100,4,2,1,80,0,0
23226,227.12217280212,4,2,1,75,1,0
23226,-100,4,2,1,75,0,0
23453,-100,4,2,1,75,0,0
25042,-100,4,2,1,75,0,0
25270,-100,4,2,1,75,0,0
25951,-100,4,2,1,75,0,0
27087,-100,4,2,1,75,0,0
28676,-100,4,2,1,75,0,0
28904,-100,4,2,1,75,0,0
29585,-100,4,2,1,75,0,0
30721,-100,4,2,1,75,0,0
32310,-100,4,2,1,75,0,0
32538,-100,4,2,1,75,0,0
33219,-100,4,2,1,75,0,0
34354,-100,4,2,1,75,0,0
35944,-100,4,2,1,75,0,0
36171,-100,4,2,1,75,0,0
36853,-100,4,2,1,75,0,0
40487,-100,4,2,1,80,0,1
40827,-100,4,2,1,80,0,1
45938,-100,4,2,1,80,0,0
46392,-100,4,2,1,80,0,0
46846,-100,4,2,1,80,0,0
47755,-100,4,2,1,80,0,1
53206,-100,4,2,1,80,0,0
53660,-100,4,2,1,80,0,0
54114,-100,4,2,1,80,0,0
55023,-100,4,2,1,75,0,0
55250,-100,4,2,1,75,0,0
56840,-100,4,2,1,75,0,0
57067,-100,4,2,1,75,0,0
57748,-100,4,2,1,75,0,0
58884,-100,4,2,1,75,0,0
60474,-100,4,2,1,75,0,0
60701,-100,4,2,1,75,0,0
61382,-100,4,2,1,75,0,0
62518,-100,4,2,1,75,0,0
64107,-100,4,2,1,75,0,0
64335,-100,4,2,1,75,0,0
64959,-100,4,2,1,75,0,0
66152,-100,4,2,1,75,0,0
67741,-100,4,2,1,75,0,0
67969,-100,4,2,1,75,0,0
68650,-100,4,2,1,75,0,0
72284,-100,4,2,1,80,0,1
77735,-100,4,2,1,80,0,0
78189,-100,4,2,1,80,0,0
78643,-100,4,2,1,80,0,0
79552,-100,4,2,1,80,0,1
85003,227.12217280212,6,2,1,80,1,0
85003,-100,6,2,1,80,0,0
85457,-100,6,2,1,80,0,0
85911,-100,6,2,1,80,0,0
86365,-100,6,2,1,80,0,0
86819,-100,6,2,1,80,0,0
87274,-100,6,2,1,80,0,0
87728,-100,6,2,1,80,0,0
88182,-100,6,2,1,80,0,0
88636,-100,6,2,1,80,0,0
89091,454.242626128036,4,2,1,100,1,0
89091,-66.6666666666667,4,2,1,100,0,0
99992,-66.6666666666667,4,2,1,100,0,0
101809,-66.6666666666667,4,2,1,100,0,0
112711,-66.6666666666667,4,2,1,100,0,0
114528,-66.6666666666667,4,2,1,100,0,0
125430,-66.6666666666667,4,2,1,100,0,0
130957,-66.6666666666667,4,2,1,5,0,0

[Colours]
Combo1 : 255,185,40
Combo2 : 236,50,45

[HitObjects]
49,44,514,6,0,P|94:25|149:32,1,100,12|8,0:0|0:0,0:0:0:0:
227,85,1422,1,8,0:0:0:0:
161,160,1876,1,8,0:0:0:0:
223,235,2330,2,0,P|271:253|328:246,1,100,12|8,0:0|0:0,0:0:0:0:
392,180,3239,1,8,0:0:0:0:
488,205,3693,1,8,0:0:0:0:
418,277,4147,6,0,L|413:383,2,100,12|8|8,0:0|0:0|0:0,0:0:0:0:
392,180,5510,1,8,0:0:0:0:
299,142,5964,2,0,P|238:157|201:194,1,100,12|8,0:0|0:0,0:0:0:0:
158,265,6873,1,8,0:0:0:0:
58,277,7327,1,8,0:0:0:0:
4,192,7781,5,12,0:0:0:0:
255,186,9598,6,0,P|297:142|387:146,1,150,6|8,0:0|0:0,0:0:0:0:
419,176,10507,1,2,0:0:0:0:
281,320,11415,6,0,B|230:285|230:285|137:277,1,150,6|8,0:0|0:0,0:0:0:0:
92,272,12324,2,0,P|70:224|155:127,1,200,2|8,0:0|3:2,0:0:0:0:
455,148,14595,6,0,L|344:139,1,100,6|6,0:3|0:3,0:0:0:0:
256,156,15504,6,0,B|248:214|248:214|266:246|266:246|257:300,1,150,6|8,0:0|0:0,0:0:0:0:
249,349,16412,1,2,0:0:0:0:
149,175,17320,2,0,P|66:162|-1:248,1,200,6|2,0:0|0:0,0:0:0:0:
188,309,19137,6,0,B|245:277|245:277|332:284,1,150,6|8,0:0|0:0,0:0:0:0:
379,288,20046,2,0,P|442:255|437:129,1,200,2|10,0:0|3:2,0:0:0:0:
147,92,22317,6,0,L|157:195,1,100,6|6,0:3|0:3,0:0:0:0:
166,291,23226,5,6,0:0:0:0:
166,291,25042,1,2,0:0:0:0:
298,140,25951,2,0,B|351:127|351:127|389:136|389:136|449:122,1,150,2|8,0:0|0:0,0:0:0:0:
491,107,26859,5,2,0:0:0:0:
491,107,28676,1,2,0:0:0:0:
334,231,29585,2,0,L|223:225,1,100,2|2,0:0|0:0,0:0:0:0:
134,220,30493,5,6,0:0:0:0:
134,220,32310,1,2,0:0:0:0:
279,356,33219,2,0,P|351:364|409:317,1,150,2|8,0:0|0:0,0:0:0:0:
420,269,34127,5,6,0:0:0:0:
420,269,35944,1,2,0:0:0:0:
271,135,36853,6,0,B|201:124|201:124|149:149|149:149|70:138,2,200,6|6|6,0:0|0:0|0:0,0:0:0:0:
369,154,39124,1,0,0:0:0:0:
467,171,39578,1,4,0:0:0:0:
325,312,40487,6,0,P|263:278|177:284,1,150,6|8,0:0|0:0,0:0:0:0:
140,303,41395,2,0,L|135:199,1,100,2|0,0:0|0:0,0:0:0:0:
164,107,42304,2,0,B|208:65|208:65|300:75,1,150,6|8,0:0|0:0,0:0:0:0:
345,84,43212,1,2,0:0:0:0:
254,262,44121,6,0,P|312:310|393:302,1,150,6|8,0:0|0:0,0:0:0:0:
420,273,45029,2,0,L|432:173,1,100,2|0,0:0|0:0,0:0:0:0:
443,74,45938,1,12,3:2:0:0:
411,372,47300,1,6,3:3:0:0:
338,302,47755,6,0,P|275:291|201:345,1,150,6|8,0:0|0:0,0:0:0:0:
165,365,48663,2,0,L|61:374,1,100,2|0,0:0|0:0,0:0:0:0:
19,284,49572,2,0,B|28:231|28:231|54:197|54:197|61:144,1,150,6|8,0:0|0:0,0:0:0:0:
68,94,50480,1,2,0:0:0:0:
218,225,51389,6,0,L|370:215,1,150,6|8,0:0|0:0,0:0:0:0:
417,212,52297,2,0,P|447:164|452:119,1,100,2|0,0:0|0:0,0:0:0:0:
421,26,53206,1,10,3:2:0:0:
124,73,54568,1,6,3:3:0:0:
191,146,55023,5,6,0:0:0:0:
191,146,56840,1,2,0:0:0:0:
251,336,57748,2,0,P|317:315|408:306,1,150,2|8,0:0|0:0,0:0:0:0:
446,316,58657,5,2,0:0:0:0:
446,316,60474,1,2,0:0:0:0:
262,236,61382,2,0,B|251:144|251:144|276:91,1,150,2|8,0:0|0:0,0:0:0:0:
302,50,62291,5,2,0:0:0:0:
302,50,64107,1,2,0:0:0:0:
209,227,65016,2,0,P|143:235|74:188,1,150,2|8,0:0|0:0,0:0:0:0:
59,143,65924,5,2,0:0:0:0:
59,143,67741,1,2,0:0:0:0:
230,245,68650,6,0,B|355:236|355:236|416:285,2,200,6|6|6,0:0|0:0|0:0,0:0:0:0:
30,259,71375,1,4,0:0:0:0:
114,77,72284,6,0,P|157:63|252:108,1,150,6|8,0:0|0:0,0:0:0:0:
281,141,73192,2,0,B|385:149,1,100,2|0,0:0|0:0,0:0:0:0:
362,247,74101,2,0,L|206:237,1,150,6|8,0:0|0:0,0:0:0:0:
162,232,75009,1,2,0:0:0:0:
324,348,75918,6,0,B|415:355|415:355|474:335,1,150,6|8,0:0|0:0,0:0:0:0:
494,292,76826,2,0,P|487:226|467:198,1,100,2|0,0:0|0:0,0:0:0:0:
375,163,77735,1,12,3:2:0:0:
80,203,79098,1,6,3:3:0:0:
96,104,79552,6,0,P|159:61|234:69,1,150,6|8,0:0|0:0,0:0:0:0:
263,103,80460,2,0,L|271:205,1,100,2|0,0:0|0:0,0:0:0:0:
282,302,81369,2,0,B|339:308|339:308|374:295|374:295|435:303,1,150,6|8,0:0|0:0,0:0:0:0:
478,309,82277,1,2,0:0:0:0:
308,197,83186,6,0,P|219:211|179:253,1,150,6|8,0:0|0:0,0:0:0:0:
145,288,84094,2,0,B|95:293|95:293|45:272,1,100,2|0,0:0|0:0,0:0:0:0:
17,178,85003,5,12,3:2:0:0:
272,20,86365,1,12,3:2:0:0:
432,273,87728,1,12,3:2:0:0:
204,329,89091,6,0,L|195:178,1,150.000005722046,6|12,0:0|0:0,0:0:0:0:
399,86,90907,2,0,P|458:105|518:100,2,112.500004291535,2|2|8,0:0|0:0|0:0,0:0:0:0:
313,12,92724,6,0,P|246:6|169:49,1,150.000005722046,6|12,3:2|0:0,0:0:0:0:
117,261,94541,2,0,L|-5:275,2,112.500004291535,2|2|8,0:0|0:0|0:0,0:0:0:0:
196,181,96358,6,0,B|291:170|291:170|345:200,1,150.000005722046,6|12,3:2|0:0,0:0:0:0:
486,364,98175,1,2,0:0:0:0:
445,259,98630,2,0,L|439:175,2,75.0000028610231,0|8|0,0:0|0:0|0:0,0:0:0:0:
377,349,99992,5,0,3:0:0:0:
208,90,101809,6,0,P|139:79|62:124,1,150.000005722046,6|12,0:0|0:0,0:0:0:0:
160,320,103626,2,0,L|279:331,2,112.500004291535,2|2|8,0:0|0:0|0:0,0:0:0:0:
55,278,105443,6,0,B|22:212|22:212|33:119,1,150.000005722046,6|12,3:2|0:0,0:0:0:0:
231,33,107260,2,0,P|276:52|340:51,2,112.500004291535,2|2|8,0:0|0:0|0:0,0:0:0:0:
119,19,109077,6,0,P|138:93|204:140,1,150.000005722046,6|12,3:2|0:0,0:0:0:0:
417,162,110894,1,2,0:0:0:0:
341,245,111348,2,0,L|335:322,2,75.0000028610231,0|8|0,0:0|0:0|0:0,0:0:0:0:
312,135,112711,5,0,3:0:0:0:
312,135,114528,5,6,0:0:0:0:
212,82,114982,2,0,L|127:77,2,75.0000028610231,8|2|8,0:0|0:0|0:0,0:0:0:0:
312,135,116345,2,0,P|342:189|335:252,2,112.500004291535,6|2|8,0:0|0:0|0:0,0:0:0:0:
230,213,118162,5,6,3:2:0:0:
149,134,118616,2,0,P|85:124|11:173,1,150.000005722046,8|8,0:0|0:0,0:0:0:0:
102,238,119979,2,0,L|110:367,2,112.500004291535,6|2|8,0:0|0:0|0:0,0:0:0:0:
149,134,121796,6,0,P|195:111|221:108,1,75.0000028610231,6|8,0:0|0:0,0:0:0:0:
315,163,122704,2,0,L|397:171,1,75.0000028610231,6|8,0:0|0:0,0:0:0:0:
477,99,123613,2,0,P|507:159|501:218,2,112.500004291535,6|2|8,0:0|0:0|0:0,0:0:0:0:
375,50,125430,5,2,3:0:0:0:
204,366,127247,1,2,3:0:0:0:
12,51,129064,1,2,3:0:0:0:
401,277,130881,5,4,3:2:0:0:
256,192,131108,12,0,138944,0:0:0:0:
