osu file format v14

[General]
AudioFilename: savior.mp3
AudioLeadIn: 0
PreviewTime: 39062
Countdown: 0
SampleSet: Soft
StackLeniency: 0.4
Mode: 0
LetterboxInBreaks: 1
WidescreenStoryboard: 1

[Editor]
Bookmarks: 53795,99747,174365,174765
DistanceSpacing: 1
BeatDivisor: 4
GridSize: 4
TimelineZoom: 1.5

[Metadata]
Title:Savior
TitleUnicode:Savior
Artist:Rise Against
ArtistUnicode:Rise Against
Creator:pishifat
Version:Smokeman's Normal
Source:
Tags:punk metal appeal to reason milan- smokeman fieryrage raiden
BeatmapID:1126559
BeatmapSetID:509675

[Difficulty]
HPDrainRate:4
CircleSize:3.4
OverallDifficulty:4
ApproachRate:5
SliderMultiplier:1.1
SliderTickRate:1

[Events]
//Background and Video events
0,0,"background.jpg",0,0
//Break Periods
2,82662,85528
2,113814,137119
//Storyboard Layer 0 (Background)
//Storyboard Layer 1 (Fail)
//Storyboard Layer 2 (Pass)
//Storyboard Layer 3 (Foreground)
//Storyboard Sound Samples

[TimingPoints]
321,331.491712707182,4,2,2,70,1,0
17307,-100,4,2,2,70,0,0
20126,-100,4,2,2,70,0,0
20209,-100,4,2,2,70,0,0
22779,-100,4,2,2,5,0,0
22862,266.666666666667,4,2,2,70,1,0
22862,-100,4,2,2,70,0,0
30195,-100,4,2,2,70,0,0
30995,-100,4,2,2,70,0,0
31262,-100,4,2,2,70,0,0
31395,-100,4,2,2,70,0,0
39928,-100,4,2,2,70,0,0
39995,-100,4,2,2,60,0,0
48462,-100,4,2,2,65,0,0
56728,-100,4,2,2,70,0,0
57262,-100,4,2,2,70,0,0
60995,-100,4,2,2,70,0,0
61528,-100,4,2,2,70,0,0
63395,-100,4,2,2,70,0,0
65528,-100,4,2,2,70,0,1
72862,-100,4,2,2,70,0,0
74062,-100,4,2,2,70,0,1
80462,-100,4,2,2,70,0,0
86728,-100,4,2,2,60,0,0
88462,-100,4,2,2,60,0,0
88862,-100,4,2,2,60,0,0
90595,-100,4,2,2,60,0,0
90995,-100,4,2,2,60,0,0
92728,-100,4,2,2,60,0,0
93128,-100,4,2,2,60,0,0
94328,-100,4,2,2,70,0,0
96414,266.666666666667,4,2,2,70,1,0
96414,-100,4,2,2,70,0,0
96547,266.666666666667,4,2,2,70,1,0
96813,-100,4,2,2,70,0,0
113614,392.156862745098,4,2,2,45,1,0
138319,-100,4,2,2,45,0,0
138614,-100,4,2,2,5,0,0
138712,-100,4,2,2,45,0,0
148123,294.117647058824,4,2,2,45,1,0
148123,-100,4,2,2,45,0,0
149299,266.666666666667,4,2,2,45,1,0
150365,-100,4,2,2,70,0,1
157699,-100,4,2,2,70,0,0
158899,-100,4,2,2,70,0,1
166232,-100,4,2,2,70,0,0
167432,-100,4,2,2,70,0,1
174765,-100,4,2,2,70,0,0
175965,-100,4,2,2,70,0,1
182365,-100,4,2,2,70,0,0
184365,-100,4,2,2,70,0,0
185432,-100,4,2,2,70,0,0

[Colours]
Combo1 : 238,162,162
Combo2 : 194,185,154
Combo3 : 197,197,197
Combo4 : 174,203,255

[HitObjects]
27,306,22862,6,0,B|88:321|88:321|144:309,1,110,6|8,0:0|0:0,0:0:0:0:
219,242,23395,2,0,L|237:120,1,110,2|8,0:0|0:0,0:0:0:0:
245,78,23795,2,0,P|297:44|394:67,1,165,2|8,0:0|0:0,0:0:0:0:
402,175,24462,1,0,0:0:0:0:
328,256,24728,1,8,0:0:0:0:
280,355,24995,6,0,P|239:321|220:255,1,110,4|8,0:0|0:0,0:0:0:0:
132,195,25528,2,0,L|117:249,2,55,4|4|8,0:3|0:3|0:0,0:0:0:0:
84,166,25928,2,0,P|62:90|127:29,1,165,2|8,0:0|0:0,0:0:0:0:
224,61,26595,2,0,L|280:75,2,55,2|0|8,0:0|0:0|0:0,0:0:0:0:
319,6,27128,6,0,P|351:39|350:108,1,110,6|8,0:0|0:0,0:0:0:0:
436,173,27662,2,0,P|417:225|417:280,1,110,2|8,0:0|0:0,0:0:0:0:
397,330,28062,2,0,P|355:291|280:287,1,110,2|2,0:0|0:0,0:0:0:0:
251,297,28462,2,0,P|208:335|134:339,1,110,8|0,0:0|0:0,0:0:0:0:
162,233,28995,1,8,0:0:0:0:
101,140,29262,6,0,B|160:125|160:125|209:134,1,110,4|8,0:0|0:0,0:0:0:0:
294,64,29795,2,0,L|284:9,2,55,4|4|8,0:3|0:3|0:0,0:0:0:0:
320,112,30195,2,0,P|358:81|420:76,1,110,4|0,0:0|1:0,0:0:0:0:
455,115,30595,1,8,1:2:0:0:
386,201,30862,1,8,0:3:0:0:
469,272,31128,1,8,0:0:0:0:
382,339,31395,6,0,P|353:312|274:312,1,110,6|8,0:0|0:0,0:0:0:0:
184,351,31928,2,0,L|203:243,1,110,2|8,0:0|0:0,0:0:0:0:
206,187,32328,2,0,P|137:161|54:215,1,165,2|8,0:0|0:0,0:0:0:0:
82,310,32995,1,0,0:0:0:0:
184,351,33262,1,8,0:0:0:0:
273,287,33528,6,0,P|317:260|379:265,1,110,4|8,0:0|0:0,0:0:0:0:
464,326,34062,2,0,L|458:383,2,55,4|4|8,0:3|0:3|0:0,0:0:0:0:
506,289,34462,2,0,P|525:222|470:149,1,165,2|8,0:0|0:0,0:0:0:0:
364,125,35128,2,0,L|303:135,2,55,2|0|8,0:0|0:0|0:0,0:0:0:0:
281,51,35662,6,0,B|225:60|225:60|159:49,1,110,4|8,0:0|0:0,0:0:0:0:
62,39,36195,2,0,L|89:151,1,110,2|8,0:0|0:0,0:0:0:0:
136,172,36595,2,0,L|114:294,1,110,2|2,0:0|0:0,0:0:0:0:
158,316,36995,2,0,L|267:275,1,110,8|0,0:0|0:0,0:0:0:0:
306,177,37528,1,8,0:0:0:0:
353,77,37795,6,0,B|293:65|293:65|231:88,1,110,4|8,0:0|0:0,0:0:0:0:
138,62,38328,2,0,P|129:34|127:6,2,55,4|4|8,0:3|0:3|0:0,0:0:0:0:
110,109,38728,2,0,P|90:163|100:228,1,110,4|0,0:0|1:0,0:0:0:0:
129,257,39128,2,0,P|159:257|185:248,1,55,8|0,1:2|0:0,0:0:0:0:
210,297,39395,2,0,P|246:306|269:305,2,55,8|8|4,0:0|0:3|0:3,0:0:0:0:
262,200,39928,6,0,L|372:191,2,110,4|8|8,0:0|0:0|0:3,0:0:0:0:
159,159,40728,1,8,0:0:0:0:
193,54,40995,2,0,L|304:62,1,110,0|8,0:0|0:0,0:0:0:0:
402,109,41528,2,0,L|529:97,1,110,4|8,0:3|0:0,0:0:0:0:
447,201,42062,6,0,L|331:190,2,110,4|8|8,0:3|0:0|0:3,0:0:0:0:
485,304,42862,1,8,0:0:0:0:
387,353,43128,2,0,L|259:362,1,110,0|8,0:0|0:0,0:0:0:0:
240,257,43662,2,0,L|107:245,1,110,4|8,0:3|0:0,0:0:0:0:
61,161,44195,6,0,P|65:108|108:59,2,110,4|8|8,0:3|0:0|0:3,0:0:0:0:
130,247,44995,1,8,0:0:0:0:
190,155,45262,2,0,P|229:116|284:100,1,110,0|8,0:0|0:0,0:0:0:0:
376,46,45795,2,0,P|389:98|375:155,1,110,4|8,0:3|0:0,0:0:0:0:
307,237,46328,6,0,B|375:243|375:243|427:266,1,110,4|8,0:3|0:0,0:0:0:0:
345,347,46862,2,0,B|276:353|276:353|224:376,2,110,8|8|0,0:3|0:0|0:0,0:0:0:0:
413,259,47662,1,8,0:0:0:0:
359,163,47928,2,0,P|275:151|221:227,1,165,8|4,0:3|0:3,0:0:0:0:
229,260,48462,6,0,P|189:219|137:201,1,110,4|8,0:0|0:0,0:0:0:0:
33,226,48995,1,8,0:3:0:0:
83,128,49262,1,8,0:0:0:0:
1,54,49528,2,0,P|39:25|99:19,1,110,0|8,0:0|0:0,0:0:0:0:
180,94,50062,2,0,P|228:117|297:112,1,110,4|8,0:3|0:0,0:0:0:0:
381,65,50595,6,0,B|396:109|396:109|385:180,1,110,4|8,0:3|0:0,0:0:0:0:
351,276,51128,1,8,0:3:0:0:
459,256,51395,1,8,0:0:0:0:
405,352,51662,2,0,P|349:369|281:338,1,110,4|8,0:3|0:0,0:0:0:0:
196,320,52195,2,0,L|204:377,2,55,4|0|8,0:3|0:0|0:0,0:0:0:0:
101,263,52728,6,0,B|86:219|86:219|97:148,1,110,4|8,0:3|0:0,0:0:0:0:
175,79,53262,1,8,0:3:0:0:
219,179,53528,1,8,0:0:0:0:
320,222,53795,2,0,B|335:178|335:178|324:107,1,110,0|8,0:0|0:0,0:0:0:0:
402,36,54328,1,0,0:0:0:0:
490,101,54595,1,8,0:0:0:0:
439,198,54862,6,0,B|419:258|419:258|427:304,1,110,4|8,0:3|0:0,0:0:0:0:
336,366,55395,1,8,0:3:0:0:
240,312,55662,1,8,0:0:0:0:
136,347,55928,2,0,P|136:277|156:239,1,110,4|8,0:3|0:0,0:0:0:0:
257,205,56462,1,4,0:3:0:0:
163,146,56728,1,8,1:2:0:0:
351,264,57262,6,0,L|364:154,2,110,12|4|8,0:0|0:3|0:0,0:0:0:0:
326,312,57928,2,0,P|255:284|211:298,1,110,0|0,0:0|0:0,0:0:0:0:
177,320,58328,2,0,L|164:210,1,110,8|4,0:0|0:3,0:0:0:0:
113,112,58862,2,0,P|153:101|171:101,1,55,8|0,0:0|0:0,0:0:0:0:
210,68,59128,6,0,P|267:88|316:73,1,110,4|8,0:0|0:0,0:0:0:0:
423,80,59662,2,0,P|371:105|341:153,1,110,4|8,0:3|0:0,0:0:0:0:
358,257,60195,1,2,0:0:0:0:
460,298,60462,2,0,L|446:188,1,110,8|4,0:0|0:3,0:0:0:0:
423,80,60995,1,8,0:0:0:0:
273,240,61528,6,0,P|273:185|287:132,2,110,12|4|8,0:0|0:3|0:0,0:0:0:0:
274,295,62195,2,0,P|226:267|173:252,1,110,0|0,0:0|0:0,0:0:0:0:
125,279,62595,2,0,P|123:224|111:170,1,110,8|4,0:0|0:3,0:0:0:0:
45,82,63128,1,8,0:0:0:0:
138,24,63395,5,4,0:0:0:0:
446,146,64462,1,4,0:0:0:0:
446,146,65528,6,0,L|459:260,1,110,4|8,0:0|0:0,0:0:0:0:
360,305,66062,2,0,P|362:331|366:359,2,55,4|4|8,0:3|0:3|0:0,0:0:0:0:
306,289,66462,2,0,P|314:225|316:176,1,110,4|4,0:3|0:3,0:0:0:0:
289,130,66862,1,8,0:0:0:0:
201,64,67128,2,0,P|175:52|148:51,2,55,4|4|8,0:3|0:3|0:0,0:0:0:0:
100,115,67662,6,0,L|95:229,1,110,4|8,0:0|0:0,0:0:0:0:
181,293,68195,2,0,L|185:370,2,55,4|4|8,0:3|0:3|0:0,0:0:0:0:
211,247,68595,2,0,P|264:214|314:221,1,110,4|4,0:3|0:3,0:0:0:0:
354,250,68995,1,8,0:0:0:0:
421,163,69262,2,0,P|374:144|357:143,2,55,4|4|8,0:3|0:3|0:0,0:0:0:0:
377,61,69795,6,0,B|330:68|330:68|252:45,1,110,4|8,0:0|0:0,0:0:0:0:
166,87,70328,2,0,L|92:98,2,55,4|4|8,0:3|0:3|0:0,0:0:0:0:
203,127,70728,2,0,P|211:159|170:239,1,110,4|4,0:3|0:3,0:0:0:0:
136,258,71128,1,8,0:0:0:0:
226,321,71395,2,0,P|251:289|265:262,2,55,4|4|8,0:3|0:3|0:0,0:0:0:0:
332,349,71928,2,0,P|344:294|346:228,1,110,4|8,0:0|0:0,0:0:0:0:
318,133,72462,1,4,0:3:0:0:
421,167,72728,1,8,0:0:0:0:
387,62,72995,6,0,P|326:36|268:48,1,110,4|0,0:0|1:0,0:0:0:0:
219,130,73528,1,8,0:3:0:0:
109,139,73795,1,8,0:0:0:0:
75,34,74062,6,0,L|184:43,1,110,4|8,0:0|0:0,0:0:0:0:
292,66,74595,2,0,L|287:11,2,55,4|4|8,0:3|0:3|0:0,0:0:0:0:
331,105,74995,2,0,P|386:84|440:95,1,110,4|4,0:3|0:3,0:0:0:0:
473,132,75395,1,8,0:0:0:0:
396,210,75662,2,0,P|348:202|329:190,2,55,4|4|8,0:3|0:3|0:0,0:0:0:0:
313,283,76195,6,0,B|269:267|269:267|194:287,1,110,4|8,0:0|0:0,0:0:0:0:
136,199,76728,2,0,B|82:213,2,55,4|4|8,0:3|0:3|0:0,0:0:0:0:
158,148,77128,2,0,B|281:180,1,110,4|4,0:3|0:3,0:0:0:0:
311,146,77528,1,8,0:0:0:0:
383,62,77795,1,4,0:3:0:0:
484,103,78062,1,8,0:0:0:0:
451,213,78328,6,0,B|434:257|434:257|450:322,1,110,4|8,0:0|0:0,0:0:0:0:
344,282,78862,2,0,B|330:228,2,55,4|4|8,0:3|0:3|0:0,0:0:0:0:
340,338,79262,2,0,P|310:362|232:363,1,110,4|4,0:3|0:3,0:0:0:0:
199,329,79662,1,8,0:0:0:0:
91,352,79928,2,0,L|101:298,2,55,4|4|8,0:3|0:3|0:0,0:0:0:0:
16,270,80462,5,4,0:0:0:0:
359,96,81395,1,2,0:0:0:0:
359,96,82062,6,0,L|348:167,2,55,8|8|4,0:0|0:3|0:3,0:0:0:0:
340,43,82462,1,4,0:0:0:0:
176,41,86728,6,0,B|186:150|186:150|159:239,1,165,4|4,0:0|0:3,0:0:0:0:
77,142,87395,1,8,0:0:0:0:
38,245,87662,2,0,P|62:246|94:257,1,55,4|0,0:3|0:0,0:0:0:0:
133,292,87928,1,8,0:3:0:0:
240,269,88195,1,4,0:3:0:0:
340,314,88462,2,0,L|331:402,1,55,8|8,0:0|0:0,0:0:0:0:
423,296,88862,6,0,L|404:92,1,165,4|4,0:0|0:3,0:0:0:0:
313,75,89528,1,8,0:0:0:0:
211,118,89795,2,0,L|203:200,1,55,4|0,0:3|0:0,0:0:0:0:
214,227,90062,1,8,0:3:0:0:
122,287,90328,1,4,0:3:0:0:
73,187,90595,2,0,P|61:160|41:140,2,55,8|8|8,0:0|0:0|0:0,0:0:0:0:
45,234,90995,6,0,P|31:311|88:374,1,165,4|4,0:0|0:0,0:0:0:0:
192,345,91662,1,8,0:0:0:0:
301,352,91928,2,0,P|338:342|370:299,1,55,4|0,0:3|0:0,0:0:0:0:
361,277,92195,1,8,0:3:0:0:
290,192,92462,1,4,0:3:0:0:
369,116,92728,2,0,P|406:126|450:161,1,55,8|8,0:0|0:0,0:0:0:0:
460,32,93128,6,0,P|366:13|268:33,1,165,4|4,0:0|0:3,0:0:0:0:
223,102,93795,1,8,0:0:0:0:
115,126,94062,2,0,P|78:116|46:73,1,55,4|4,0:3|0:3,0:0:0:0:
44,55,94328,1,8,0:0:0:0:
44,278,96414,6,0,P|109:241|188:268,1,110,4|0,0:0|0:0,0:0:0:0:
183,278,96813,1,8,0:0:0:0:
236,181,97080,1,4,0:3:0:0:
206,74,97347,1,8,0:0:0:0:
300,18,97613,2,0,P|353:16|428:87,1,110,4|8,0:3|0:0,0:0:0:0:
329,126,98147,2,0,P|334:193|365:230,1,110,4|8,0:3|0:0,0:0:0:0:
380,276,98547,6,0,B|336:295|336:295|241:282,1,110,4|0,0:0|0:0,0:0:0:0:
220,275,98947,1,8,0:0:0:0:
139,349,99213,1,4,0:3:0:0:
43,293,99480,1,8,0:0:0:0:
66,184,99747,2,0,B|110:167|110:167|205:185,1,110,4|8,0:3|0:0,0:0:0:0:
220,275,100280,2,0,P|263:297|339:282,1,110,4|8,0:3|0:0,0:0:0:0:
368,259,100680,6,0,B|384:214|384:214|373:153,1,110,4|0,0:0|0:0,0:0:0:0:
347,104,101080,1,8,0:0:0:0:
249,53,101347,1,4,0:3:0:0:
170,130,101613,1,8,0:0:0:0:
218,228,101880,2,0,P|228:280|214:338,1,110,4|8,0:3|0:0,0:0:0:0:
119,280,102413,2,0,P|75:237|12:218,1,110,4|8,0:3|0:0,0:0:0:0:
5,170,102813,6,0,P|49:127|112:108,1,110,4|0,0:0|0:0,0:0:0:0:
148,107,103213,2,0,B|166:168|166:168|202:209,1,110,8|4,0:0|0:3,0:0:0:0:
268,116,103747,2,0,P|321:107|369:72,1,110,4|0,0:0|1:0,0:0:0:0:
419,91,104147,2,0,P|442:76|468:68,1,55,0|0,1:0|1:0,0:0:0:0:
494,175,104547,2,0,P|499:229|480:280,1,110,4|0,1:3|1:0,0:0:0:0:
428,299,104947,6,0,B|378:281|378:281|299:301,1,110,4|0,0:0|0:0,0:0:0:0:
279,329,105347,1,8,0:0:0:0:
178,285,105613,1,4,0:3:0:0:
83,341,105880,1,8,0:0:0:0:
5,262,106147,2,0,P|56:230|127:238,1,110,4|8,0:3|0:0,0:0:0:0:
202,178,106680,2,0,P|253:146|324:154,1,110,4|8,0:3|0:0,0:0:0:0:
349,172,107080,6,0,L|329:281,1,110,4|0,0:0|0:0,0:0:0:0:
346,332,107480,1,8,0:0:0:0:
242,295,107747,1,4,0:3:0:0:
145,347,108013,1,8,0:0:0:0:
47,295,108280,2,0,P|27:243|39:190,1,110,4|8,0:3|0:0,0:0:0:0:
128,127,108813,2,0,L|116:264,1,110,4|8,0:3|0:0,0:0:0:0:
173,231,109213,6,0,L|297:172,1,110,4|0,0:0|0:0,0:0:0:0:
323,162,109613,1,8,0:0:0:0:
418,216,109880,1,4,0:3:0:0:
488,131,110147,1,8,0:0:0:0:
390,80,110413,2,0,L|376:16,2,55,4|4|8,0:3|0:3|0:0,0:0:0:0:
323,162,110947,2,0,L|253:202,2,55,4|4|8,0:3|0:3|0:0,0:0:0:0:
418,216,111480,5,4,0:0:0:0:
225,322,112013,1,4,0:0:0:0:
142,117,112547,1,4,0:0:0:0:
314,252,113080,1,4,0:0:0:0:
372,40,113614,1,4,0:0:0:0:
215,209,138319,5,0,0:0:0:0:
215,209,138712,2,0,P|151:191|145:313,2,220,4|2|0,0:3|0:0|0:0,0:0:0:0:
294,285,140672,1,0,0:0:0:0:
294,285,141064,1,0,0:0:0:0:
401,260,141457,1,4,0:3:0:0:
315,190,141849,6,0,B|331:168|360:153|388:149|388:149|355:109|345:54|370:12,2,220,4|2|0,0:3|0:0|0:0,0:0:0:0:
228,257,143810,2,0,P|206:197|222:130,1,110,0|0,0:0|3:0,0:0:0:0:
252,50,144594,1,4,0:3:0:0:
142,66,144986,6,0,B|101:125|101:125|122:298,2,220,4|2|0,0:3|0:0|0:0,0:0:0:0:
252,50,146947,1,0,0:0:0:0:
252,50,147339,1,0,3:0:0:0:
211,152,147731,1,4,0:3:0:0:
319,136,148123,5,4,0:3:0:0:
34,177,149299,1,4,0:0:0:0:
34,177,150365,6,0,L|55:296,1,110,4|8,0:0|0:0,0:0:0:0:
160,257,150899,2,0,P|167:216|158:179,2,55,0|4|8,0:3|0:3|0:0,0:0:0:0:
153,311,151299,2,0,P|215:287|267:299,1,110,4|4,0:3|0:3,0:0:0:0:
298,330,151699,1,8,0:0:0:0:
387,266,151965,2,0,L|377:211,2,55,4|4|8,0:3|0:3|0:0,0:0:0:0:
456,179,152499,6,0,P|460:134|415:77,1,110,4|8,0:0|0:0,0:0:0:0:
314,81,153032,2,0,L|323:135,2,55,4|4|8,0:3|0:3|0:0,0:0:0:0:
263,58,153432,2,0,B|214:48|214:48|131:67,1,110,4|4,0:3|0:3,0:0:0:0:
124,107,153832,1,8,0:0:0:0:
181,200,154099,2,0,P|209:185|259:180,2,55,4|4|8,0:3|0:3|0:0,0:0:0:0:
280,246,154632,6,0,L|294:376,1,110,4|8,0:0|0:0,0:0:0:0:
398,327,155165,2,0,L|391:388,2,55,0|4|8,0:3|0:3|0:0,0:0:0:0:
381,274,155565,2,0,P|375:218|406:158,1,110,4|4,0:3|0:3,0:0:0:0:
439,136,155965,1,8,0:0:0:0:
364,54,156232,2,0,P|299:64|274:82,2,55,4|4|8,0:3|0:3|0:0,0:0:0:0:
300,143,156765,2,0,B|256:156|256:156|197:133,1,110,4|8,0:0|0:0,0:0:0:0:
95,90,157299,2,0,L|113:222,1,110,4|8,0:3|0:0,0:0:0:0:
108,254,157699,6,0,P|155:233|218:245,1,110,2|0,0:0|1:0,0:0:0:0:
249,283,158099,1,0,1:0:0:0:
351,242,158365,1,8,0:0:0:0:
393,343,158632,1,8,0:3:0:0:
492,298,158899,6,0,B|504:229|504:229|492:182,1,110,4|8,0:0|0:0,0:0:0:0:
404,125,159432,2,0,L|331:168,2,55,4|4|8,0:3|0:3|0:0,0:0:0:0:
441,84,159832,2,0,P|408:48|330:41,1,110,4|4,0:3|0:3,0:0:0:0:
297,54,160232,1,8,0:0:0:0:
189,77,160499,2,0,P|151:39|144:15,2,55,4|4|8,0:3|0:3|0:0,0:0:0:0:
79,84,161032,6,0,P|32:112|0:157,1,110,4|8,0:0|0:0,0:0:0:0:
20,264,161565,2,0,L|28:339,2,55,4|4|8,0:3|0:3|0:0,0:0:0:0:
61,227,161965,2,0,P|121:207|174:231,1,110,4|2,0:3|0:0,0:0:0:0:
196,266,162365,1,8,0:0:0:0:
275,342,162632,1,4,0:3:0:0:
366,280,162899,1,8,0:0:0:0:
286,204,163165,6,0,B|276:149|276:149|296:79,1,110,4|8,0:0|0:0,0:0:0:0:
400,84,163699,2,0,L|380:147,2,55,4|4|8,0:3|0:3|0:0,0:0:0:0:
370,36,164099,2,0,P|325:3|261:4,1,110,4|0,0:0|0:0,0:0:0:0:
232,31,164499,1,8,0:0:0:0:
137,86,164765,2,0,P|86:91|65:87,2,55,4|4|8,0:3|0:3|0:0,0:0:0:0:
213,166,165299,2,0,B|223:221|223:221|203:291,1,110,4|8,0:0|0:0,0:0:0:0:
300,333,165832,2,0,B|342:296|342:296|413:279,1,110,4|8,0:3|0:0,0:0:0:0:
447,300,166232,6,0,P|498:262|490:188,1,110,4|0,0:0|1:0,0:0:0:0:
493,164,166632,2,0,B|443:87|362:121|362:121|345:76|300:53|248:61,1,275,2|0,1:3|1:0,0:0:0:0:
227,101,167432,6,0,P|217:157|219:219,1,110,6|8,0:0|0:0,0:0:0:0:
131,278,167965,2,0,P|137:313|136:351,2,55,2|0|8,0:0|0:0|0:0,0:0:0:0:
85,246,168365,2,0,P|45:190|46:123,1,110,2|2,0:0|0:0,0:0:0:0:
66,101,168765,1,8,0:0:0:0:
163,151,169032,1,0,0:0:0:0:
253,88,169299,1,8,0:0:0:0:
355,126,169565,6,0,P|331:168|249:198,1,110,4|8,0:0|0:0,0:0:0:0:
186,259,170099,2,0,P|158:241|124:238,2,55,4|4|8,0:3|0:3|0:0,0:0:0:0:
220,302,170499,2,0,P|274:289|330:310,1,110,2|0,0:0|0:0,0:0:0:0:
366,342,170899,1,8,0:0:0:0:
412,242,171165,1,4,0:3:0:0:
364,142,171432,1,8,0:0:0:0:
447,70,171699,6,0,P|402:38|347:32,1,110,6|8,0:0|0:0,0:0:0:0:
249,80,172232,2,0,P|240:29|251:-5,2,55,2|0|8,0:0|0:0|0:0,0:0:0:0:
221,127,172632,2,0,B|236:174|236:174|225:254,1,110,2|2,0:0|0:0,0:0:0:0:
190,275,173032,1,8,0:0:0:0:
80,286,173299,1,0,0:0:0:0:
126,186,173565,1,8,0:0:0:0:
46,109,173832,2,0,P|106:76|168:87,1,110,4|8,0:0|0:0,0:0:0:0:
233,145,174365,2,0,P|278:175|332:176,1,110,4|8,0:3|0:0,0:0:0:0:
385,161,174765,6,0,L|357:290,1,110,4|0,0:0|0:0,0:0:0:0:
380,320,175165,1,8,0:0:0:0:
273,291,175431,1,8,0:0:0:0:
166,262,175699,1,8,0:0:0:0:
66,308,175965,5,6,0:0:0:0:
4,216,176232,1,8,0:0:0:0:
80,137,176499,2,0,L|207:171,1,110,2|8,0:0|0:0,0:0:0:0:
230,198,176899,2,0,P|271:161|346:149,1,110,2|2,0:0|0:0,0:0:0:0:
373,171,177299,1,8,0:0:0:0:
330,272,177565,1,0,0:0:0:0:
412,344,177832,1,8,0:0:0:0:
505,288,178099,6,0,P|476:232|476:181,1,110,4|8,0:0|0:0,0:0:0:0:
448,79,178632,2,0,P|460:47|463:4,2,55,4|4|8,0:3|0:3|0:0,0:0:0:0:
393,87,179032,2,0,P|346:58|267:62,1,110,2|0,0:0|0:0,0:0:0:0:
244,82,179432,2,0,B|194:98|194:98|117:81,2,110,8|4|8,0:0|0:3|0:0,0:0:0:0:
312,165,180232,6,0,P|332:216|334:271,1,110,4|8,0:0|0:0,0:0:0:0:
227,298,180765,2,0,P|215:330|212:373,2,55,2|4|8,0:0|0:3|0:0,0:0:0:0:
215,243,181165,2,0,P|180:200|134:171,1,110,2|2,0:0|0:0,0:0:0:0:
85,197,181565,1,8,0:0:0:0:
24,104,181832,1,0,0:0:0:0:
93,17,182099,1,8,0:0:0:0:
197,55,182365,5,4,0:0:0:0:
10,300,183299,1,4,0:0:0:0:
355,234,184410,2,0,P|357:185|195:284,1,421.666666666667,4|4,0:0|0:3,0:0:0:0:
220,299,185565,1,12,0:0:0:0:
