osu file format v14

[General]
AudioFilename: savior.mp3
AudioLeadIn: 0
PreviewTime: 39062
Countdown: 0
SampleSet: Normal
StackLeniency: 0.8
Mode: 1
LetterboxInBreaks: 0
WidescreenStoryboard: 0

[Editor]
Bookmarks: 31395,39928,48462,86728,104947,167432
DistanceSpacing: 0.1
BeatDivisor: 4
GridSize: 4
TimelineZoom: 1.9

[Metadata]
Title:Savior
TitleUnicode:Savior
Artist:Rise Against
ArtistUnicode:Rise Against
Creator:pishifat
Version:Raiden's Muzukashii
Source:
Tags:punk metal appeal to reason milan- smokeman fieryrage raiden
BeatmapID:1132152
BeatmapSetID:509675

[Difficulty]
HPDrainRate:5
CircleSize:2
OverallDifficulty:5
ApproachRate:10
SliderMultiplier:1.4
SliderTickRate:1

[Events]
//Background and Video events
0,0,"background.jpg",0,0
//Break Periods
2,113813,138262
//Storyboard Layer 0 (Background)
//Storyboard Layer 1 (Fail)
//Storyboard Layer 2 (Pass)
//Storyboard Layer 3 (Foreground)
//Storyboard Sound Samples

[TimingPoints]
321,331.491712707182,4,1,0,50,1,0
321,-125,4,1,0,50,0,0
22862,266.666666666667,4,1,0,75,1,0
65528,-100,4,1,0,90,0,1
82462,-100,4,1,0,90,0,0
86662,-111.111111111111,4,1,0,75,0,0
96414,266.666666666667,4,1,0,75,1,8
96547,266.666666666667,4,1,0,75,1,0
113614,392.156862745098,4,1,0,75,1,0
113614,-68.0272108843537,4,1,0,75,0,0
138614,-111.111111111111,4,1,0,75,0,0
148123,294.117647058824,4,1,0,75,1,0
148123,-133.333333333333,4,1,0,75,0,0
149299,266.666666666667,4,1,0,75,1,0
149299,-133.333333333333,4,1,0,75,0,0
150365,-100,4,1,0,75,0,1
182365,-100,4,1,0,75,0,0

[Colours]
Combo1 : 238,162,162
Combo2 : 194,185,154
Combo3 : 197,197,197
Combo4 : 174,203,255

[HitObjects]
144,116,321,5,0,0:0:0:0:
282,261,983,1,8,0:0:0:0:
153,141,1481,1,0,0:0:0:0:
153,141,1812,1,0,0:0:0:0:
153,141,2144,1,0,0:0:0:0:
361,268,2475,1,8,0:0:0:0:
160,91,2807,1,0,0:0:0:0:
135,122,3304,1,0,0:0:0:0:
135,122,3470,1,0,0:0:0:0:
397,286,3635,1,8,0:0:0:0:
135,122,3967,1,0,0:0:0:0:
381,284,4133,1,8,0:0:0:0:
381,284,4464,1,8,0:0:0:0:
143,127,4796,1,0,0:0:0:0:
137,103,5127,1,0,0:0:0:0:
394,308,5624,1,8,0:0:0:0:
195,116,5956,1,0,0:0:0:0:
395,321,6287,1,8,0:0:0:0:
157,116,6619,1,0,0:0:0:0:
360,302,6785,1,8,0:0:0:0:
366,296,7116,1,8,0:0:0:0:
365,294,7448,1,8,0:0:0:0:
365,294,7779,1,8,0:0:0:0:
366,296,7945,1,8,0:0:0:0:
146,104,8111,1,0,0:0:0:0:
382,319,8608,1,8,0:0:0:0:
180,123,8939,1,0,0:0:0:0:
351,306,9271,1,8,0:0:0:0:
128,48,9602,1,0,0:0:0:0:
316,284,10597,1,8,0:0:0:0:
171,127,10928,5,0,0:0:0:0:
146,120,11425,1,0,0:0:0:0:
357,271,11591,1,8,0:0:0:0:
171,127,11923,1,0,0:0:0:0:
392,313,12088,1,8,0:0:0:0:
389,293,12420,1,8,0:0:0:0:
389,293,12751,1,8,0:0:0:0:
134,97,13083,1,0,0:0:0:0:
366,312,13414,1,8,0:0:0:0:
144,111,13912,1,0,0:0:0:0:
144,111,14077,1,0,0:0:0:0:
332,272,14243,1,8,0:0:0:0:
69,69,14575,1,0,0:0:0:0:
388,264,14740,1,8,0:0:0:0:
366,286,15072,1,8,0:0:0:0:
122,119,15735,1,0,0:0:0:0:
406,314,15901,1,8,0:0:0:0:
449,324,16232,1,8,0:0:0:0:
181,119,16729,1,0,0:0:0:0:
362,288,16895,1,8,0:0:0:0:
389,313,17392,1,8,0:0:0:0:
389,313,17724,1,8,0:0:0:0:
165,133,18055,1,0,0:0:0:0:
165,133,18387,1,0,0:0:0:0:
444,340,18718,1,8,0:0:0:0:
171,143,19216,1,0,0:0:0:0:
190,139,19381,1,0,0:0:0:0:
444,340,19547,1,8,0:0:0:0:
143,100,19879,1,0,0:0:0:0:
256,192,20210,12,8,22530,0:0:0:0:
102,258,22862,5,4,0:0:0:0:
406,288,23128,1,8,0:0:0:0:
178,99,23395,1,0,0:0:0:0:
121,117,23528,1,0,0:0:0:0:
419,291,23662,1,8,0:0:0:0:
163,103,24062,1,0,0:0:0:0:
356,274,24195,1,8,0:0:0:0:
105,115,24462,1,0,0:0:0:0:
132,193,24595,1,0,0:0:0:0:
384,318,24728,1,8,0:0:0:0:
171,148,24995,5,0,0:0:0:0:
351,298,25262,1,8,0:0:0:0:
63,120,25528,1,0,0:0:0:0:
156,97,25662,1,0,0:0:0:0:
347,284,25795,1,8,0:0:0:0:
137,129,26195,1,0,0:0:0:0:
399,328,26328,1,8,0:0:0:0:
156,163,26595,1,0,0:0:0:0:
138,113,26728,1,0,0:0:0:0:
405,312,26862,1,8,0:0:0:0:
113,134,27128,1,0,0:0:0:0:
305,288,27395,1,8,0:0:0:0:
166,143,27662,1,0,0:0:0:0:
158,87,27795,1,0,0:0:0:0:
371,297,27928,1,8,0:0:0:0:
165,118,28328,1,0,0:0:0:0:
304,229,28462,1,8,0:0:0:0:
168,136,28728,1,0,0:0:0:0:
120,119,28862,1,0,0:0:0:0:
337,293,28995,1,8,0:0:0:0:
155,115,29262,1,4,0:0:0:0:
366,301,29528,1,8,0:0:0:0:
359,313,29795,1,8,0:0:0:0:
358,313,29928,1,8,0:0:0:0:
116,139,30195,1,4,0:0:0:0:
370,308,30462,1,8,0:0:0:0:
371,310,30528,1,8,0:0:0:0:
366,309,30595,1,8,0:0:0:0:
379,333,30728,1,8,0:0:0:0:
156,156,30862,1,0,0:0:0:0:
156,156,30995,1,0,0:0:0:0:
376,324,31128,1,8,0:0:0:0:
102,258,31395,5,4,0:0:0:0:
406,288,31662,1,8,0:0:0:0:
136,103,31928,1,0,0:0:0:0:
419,291,32195,1,8,0:0:0:0:
144,107,32328,1,0,0:0:0:0:
163,103,32595,1,0,0:0:0:0:
356,274,32728,1,8,0:0:0:0:
105,115,32995,1,0,0:0:0:0:
105,115,33128,1,0,0:0:0:0:
384,318,33262,1,8,0:0:0:0:
171,148,33528,5,0,0:0:0:0:
351,298,33795,1,8,0:0:0:0:
114,124,34062,1,0,0:0:0:0:
114,124,34195,1,0,0:0:0:0:
347,284,34328,1,8,0:0:0:0:
137,129,34728,1,0,0:0:0:0:
399,328,34862,1,8,0:0:0:0:
156,163,35128,1,0,0:0:0:0:
108,108,35262,1,0,0:0:0:0:
405,312,35395,1,8,0:0:0:0:
113,134,35662,5,0,0:0:0:0:
305,288,35928,1,8,0:0:0:0:
158,87,36195,1,0,0:0:0:0:
371,297,36462,1,8,0:0:0:0:
158,87,36595,1,0,0:0:0:0:
165,118,36862,1,0,0:0:0:0:
304,229,36995,1,8,0:0:0:0:
168,136,37262,1,0,0:0:0:0:
337,293,37528,1,8,0:0:0:0:
155,115,37795,1,4,0:0:0:0:
366,301,38062,1,8,0:0:0:0:
359,313,38328,1,8,0:0:0:0:
358,313,38462,1,8,0:0:0:0:
116,139,38728,1,4,0:0:0:0:
370,308,38995,1,8,0:0:0:0:
371,310,39062,1,8,0:0:0:0:
366,309,39128,1,8,0:0:0:0:
379,333,39262,1,8,0:0:0:0:
156,156,39395,1,0,0:0:0:0:
156,156,39528,1,0,0:0:0:0:
376,324,39662,1,8,0:0:0:0:
156,324,39928,5,4,0:0:0:0:
365,275,40195,1,8,0:0:0:0:
132,136,40462,1,0,0:0:0:0:
141,193,40595,1,0,0:0:0:0:
386,289,40728,1,8,0:0:0:0:
207,114,41128,1,0,0:0:0:0:
371,283,41262,1,8,0:0:0:0:
426,314,41795,1,8,0:0:0:0:
165,127,42062,1,0,0:0:0:0:
406,316,42328,1,8,0:0:0:0:
201,154,42595,1,0,0:0:0:0:
201,154,42728,1,0,0:0:0:0:
383,308,42862,1,8,0:0:0:0:
190,163,43262,1,0,0:0:0:0:
371,318,43395,1,8,0:0:0:0:
148,87,43662,1,0,0:0:0:0:
148,87,43795,1,0,0:0:0:0:
414,322,43928,1,8,0:0:0:0:
167,173,44195,5,0,0:0:0:0:
398,334,44462,1,8,0:0:0:0:
172,165,44728,1,0,0:0:0:0:
188,180,44862,1,0,0:0:0:0:
362,327,44995,1,8,0:0:0:0:
172,165,45395,1,0,0:0:0:0:
386,321,45528,1,8,0:0:0:0:
346,293,46062,1,8,0:0:0:0:
136,140,46328,5,0,0:0:0:0:
346,293,46595,1,8,0:0:0:0:
109,134,46862,1,0,0:0:0:0:
188,168,46995,1,0,0:0:0:0:
368,332,47128,1,8,0:0:0:0:
152,128,47528,1,0,0:0:0:0:
376,340,47662,1,8,0:0:0:0:
148,120,47795,1,0,0:0:0:0:
120,120,47928,1,0,0:0:0:0:
120,120,48062,1,0,0:0:0:0:
376,304,48195,1,8,0:0:0:0:
172,276,48462,5,4,0:0:0:0:
344,320,48728,1,8,0:0:0:0:
140,104,48995,1,0,0:0:0:0:
140,104,49128,1,0,0:0:0:0:
416,340,49262,1,8,0:0:0:0:
60,108,49395,1,0,0:0:0:0:
88,132,49662,1,0,0:0:0:0:
384,296,49795,1,8,0:0:0:0:
416,320,50328,1,8,0:0:0:0:
128,112,50595,1,0,0:0:0:0:
380,292,50862,1,8,0:0:0:0:
168,136,51128,1,0,0:0:0:0:
360,324,51262,1,8,0:0:0:0:
360,324,51395,1,8,0:0:0:0:
112,88,51528,1,0,0:0:0:0:
212,176,51795,1,0,0:0:0:0:
360,296,51928,1,8,0:0:0:0:
376,312,52462,1,8,0:0:0:0:
140,112,52728,5,0,0:0:0:0:
356,308,52995,1,8,0:0:0:0:
140,128,53262,1,0,0:0:0:0:
140,128,53395,1,0,0:0:0:0:
384,308,53528,1,8,0:0:0:0:
120,112,53662,1,0,0:0:0:0:
108,104,53928,1,0,0:0:0:0:
436,320,54062,1,8,0:0:0:0:
184,176,54595,1,8,0:0:0:0:
168,120,54862,1,0,0:0:0:0:
384,268,55128,1,8,0:0:0:0:
152,128,55395,1,0,0:0:0:0:
152,128,55528,1,0,0:0:0:0:
384,268,55662,1,8,0:0:0:0:
152,148,55928,1,0,0:0:0:0:
152,148,56062,1,0,0:0:0:0:
392,300,56195,1,8,0:0:0:0:
392,300,56328,1,8,0:0:0:0:
128,116,56462,1,0,0:0:0:0:
128,116,56595,1,0,0:0:0:0:
376,304,56728,5,8,0:0:0:0:
400,72,57262,5,12,0:0:0:0:
176,120,57662,1,0,0:0:0:0:
452,304,57795,1,8,0:0:0:0:
188,120,58062,1,0,0:0:0:0:
188,120,58195,1,0,0:0:0:0:
436,328,58328,1,8,0:0:0:0:
172,292,58595,1,4,0:0:0:0:
428,344,58862,1,8,0:0:0:0:
428,344,59395,1,8,0:0:0:0:
132,140,59662,1,0,0:0:0:0:
132,140,59795,1,0,0:0:0:0:
408,344,59928,1,8,0:0:0:0:
124,104,60195,1,0,0:0:0:0:
264,300,60462,1,8,0:0:0:0:
152,192,60728,1,0,0:0:0:0:
424,324,60995,1,8,0:0:0:0:
408,144,61528,5,12,0:0:0:0:
164,140,61795,1,0,0:0:0:0:
140,56,61928,1,0,0:0:0:0:
480,272,62062,1,8,0:0:0:0:
164,140,62195,1,0,0:0:0:0:
164,140,62462,1,0,0:0:0:0:
400,304,62595,1,8,0:0:0:0:
400,304,63128,1,8,0:0:0:0:
64,248,63395,5,4,0:0:0:0:
124,296,64462,5,4,0:0:0:0:
140,300,65528,5,4,0:0:0:0:
376,288,65795,1,8,0:0:0:0:
144,112,65928,1,0,0:0:0:0:
144,112,66062,1,0,0:0:0:0:
144,112,66195,1,0,0:0:0:0:
400,304,66328,1,8,0:0:0:0:
144,112,66595,1,0,0:0:0:0:
144,112,66728,1,0,0:0:0:0:
400,304,66862,1,8,0:0:0:0:
144,112,67128,1,0,0:0:0:0:
400,304,67395,1,8,0:0:0:0:
384,300,67928,1,8,0:0:0:0:
120,128,68195,1,0,0:0:0:0:
120,128,68328,1,0,0:0:0:0:
356,324,68462,1,8,0:0:0:0:
112,104,68728,5,0,0:0:0:0:
348,284,68995,1,8,0:0:0:0:
144,132,69262,1,0,0:0:0:0:
328,268,69528,1,8,0:0:0:0:
24,68,69928,1,0,0:0:0:0:
400,288,70062,1,8,0:0:0:0:
120,136,70328,1,0,0:0:0:0:
120,136,70462,1,0,0:0:0:0:
416,332,70595,1,8,0:0:0:0:
160,164,70995,1,0,0:0:0:0:
432,328,71128,1,8,0:0:0:0:
164,152,71395,1,0,0:0:0:0:
164,152,71528,1,0,0:0:0:0:
420,344,71662,1,8,0:0:0:0:
100,148,71928,1,0,0:0:0:0:
440,352,72195,1,8,0:0:0:0:
440,352,72462,1,8,0:0:0:0:
440,352,72728,1,8,0:0:0:0:
440,352,72862,1,12,0:0:0:0:
440,352,73128,1,8,0:0:0:0:
440,352,73195,1,8,0:0:0:0:
440,352,73262,1,8,0:0:0:0:
396,312,73395,1,8,0:0:0:0:
88,76,73528,1,0,0:0:0:0:
88,76,73662,1,0,0:0:0:0:
416,344,73795,1,8,0:0:0:0:
140,300,74062,5,4,0:0:0:0:
376,288,74328,1,8,0:0:0:0:
408,292,74462,1,8,0:0:0:0:
144,112,74595,1,0,0:0:0:0:
144,112,74728,1,0,0:0:0:0:
400,304,74862,1,8,0:0:0:0:
144,112,75128,1,0,0:0:0:0:
144,112,75262,1,0,0:0:0:0:
400,304,75395,1,8,0:0:0:0:
144,112,75662,1,0,0:0:0:0:
400,304,75928,1,8,0:0:0:0:
384,300,76462,1,8,0:0:0:0:
120,128,76728,1,0,0:0:0:0:
120,128,76862,1,0,0:0:0:0:
356,324,76995,1,8,0:0:0:0:
112,104,77262,5,0,0:0:0:0:
348,284,77528,1,8,0:0:0:0:
144,132,77795,1,0,0:0:0:0:
328,268,78062,1,8,0:0:0:0:
24,68,78462,1,0,0:0:0:0:
400,288,78595,1,8,0:0:0:0:
120,136,78862,1,0,0:0:0:0:
120,136,78995,1,0,0:0:0:0:
416,332,79128,1,8,0:0:0:0:
160,164,79528,1,0,0:0:0:0:
432,328,79662,1,8,0:0:0:0:
164,152,79928,1,0,0:0:0:0:
164,152,80062,1,0,0:0:0:0:
420,344,80195,1,8,0:0:0:0:
100,148,80462,1,0,0:0:0:0:
440,352,80728,1,8,0:0:0:0:
440,352,80995,1,8,0:0:0:0:
440,352,81262,1,8,0:0:0:0:
384,32,81395,5,12,0:0:0:0:
440,352,81795,1,8,0:0:0:0:
448,304,82062,5,8,0:0:0:0:
448,304,82195,1,8,0:0:0:0:
176,104,82328,1,0,0:0:0:0:
128,264,82462,5,4,0:0:0:0:
156,288,86728,1,4,0:0:0:0:
156,152,87128,1,0,0:0:0:0:
440,312,87395,1,8,0:0:0:0:
144,104,87662,1,0,0:0:0:0:
328,276,87928,1,8,0:0:0:0:
136,68,88195,1,0,0:0:0:0:
380,284,88462,1,8,0:0:0:0:
380,284,88595,1,8,0:0:0:0:
124,288,88862,1,4,0:0:0:0:
136,120,89262,1,0,0:0:0:0:
424,328,89528,1,8,0:0:0:0:
156,76,89795,1,0,0:0:0:0:
424,344,90062,1,8,0:0:0:0:
136,148,90328,1,0,0:0:0:0:
376,324,90595,1,8,0:0:0:0:
376,324,90728,1,8,0:0:0:0:
376,324,90862,1,8,0:0:0:0:
88,292,90995,5,4,0:0:0:0:
140,272,91395,5,4,0:0:0:0:
356,288,91662,1,8,0:0:0:0:
152,136,91928,1,0,0:0:0:0:
332,336,92195,1,8,0:0:0:0:
132,72,92462,1,0,0:0:0:0:
388,308,92728,1,8,0:0:0:0:
388,308,92862,1,8,0:0:0:0:
104,272,93128,1,4,0:0:0:0:
92,132,93528,1,0,0:0:0:0:
340,296,93795,1,8,0:0:0:0:
132,132,94195,1,0,0:0:0:0:
192,164,94328,1,0,0:0:0:0:
336,304,94528,1,12,0:0:0:0:
336,304,94728,1,12,0:0:0:0:
336,304,94928,1,12,0:0:0:0:
256,192,95062,12,0,96195,0:0:0:0:
156,324,96395,5,4,0:0:0:0:
365,275,96813,1,8,0:0:0:0:
180,144,97080,1,0,0:0:0:0:
141,193,97213,1,0,0:0:0:0:
386,289,97347,1,8,0:0:0:0:
207,114,97747,1,0,0:0:0:0:
371,283,97880,1,8,0:0:0:0:
426,314,98413,1,8,0:0:0:0:
165,127,98680,1,0,0:0:0:0:
406,316,98947,1,8,0:0:0:0:
201,154,99213,1,0,0:0:0:0:
201,154,99347,1,0,0:0:0:0:
383,308,99480,1,8,0:0:0:0:
190,163,99880,1,0,0:0:0:0:
371,318,100013,1,8,0:0:0:0:
148,87,100280,1,0,0:0:0:0:
148,87,100413,1,0,0:0:0:0:
414,322,100547,1,8,0:0:0:0:
167,173,100813,5,0,0:0:0:0:
398,334,101080,1,8,0:0:0:0:
172,165,101347,1,0,0:0:0:0:
188,180,101480,1,0,0:0:0:0:
362,327,101613,1,8,0:0:0:0:
172,165,102013,1,0,0:0:0:0:
386,321,102147,1,8,0:0:0:0:
112,120,102413,1,0,0:0:0:0:
160,128,102547,1,0,0:0:0:0:
346,293,102680,1,8,0:0:0:0:
136,140,102947,5,0,0:0:0:0:
346,293,103213,1,8,0:0:0:0:
109,134,103480,1,0,0:0:0:0:
188,168,103613,5,0,0:0:0:0:
368,332,103747,1,12,0:0:0:0:
364,280,104147,5,8,0:0:0:0:
372,284,104213,5,8,0:0:0:0:
372,284,104280,1,8,0:0:0:0:
364,280,104413,1,8,0:0:0:0:
156,116,104547,1,0,0:0:0:0:
340,256,104813,1,8,0:0:0:0:
156,324,104947,5,4,0:0:0:0:
112,92,105213,1,0,0:0:0:0:
365,275,105347,1,8,0:0:0:0:
112,92,105613,1,0,0:0:0:0:
141,193,105747,1,0,0:0:0:0:
386,289,105880,1,8,0:0:0:0:
180,144,106147,1,0,0:0:0:0:
371,283,106413,1,8,0:0:0:0:
152,108,106547,1,0,0:0:0:0:
426,314,106947,1,8,0:0:0:0:
165,127,107213,1,0,0:0:0:0:
406,316,107480,1,8,0:0:0:0:
201,154,107747,1,0,0:0:0:0:
201,154,107880,1,0,0:0:0:0:
383,308,108013,1,8,0:0:0:0:
180,148,108280,1,0,0:0:0:0:
371,318,108547,1,8,0:0:0:0:
190,163,108680,1,0,0:0:0:0:
414,322,109080,1,8,0:0:0:0:
167,173,109347,5,0,0:0:0:0:
398,334,109613,1,8,0:0:0:0:
172,165,109880,1,0,0:0:0:0:
188,180,110013,1,0,0:0:0:0:
362,327,110147,1,8,0:0:0:0:
172,165,110413,1,0,0:0:0:0:
386,321,110680,1,8,0:0:0:0:
132,120,110813,1,0,0:0:0:0:
346,293,111213,1,8,0:0:0:0:
356,300,111480,5,12,0:0:0:0:
109,134,112013,1,4,0:0:0:0:
356,300,112547,1,12,0:0:0:0:
128,236,113080,1,4,0:0:0:0:
396,108,113613,1,12,0:0:0:0:
136,108,138712,5,0,0:0:0:0:
84,64,139496,1,0,0:0:0:0:
84,64,140280,1,0,0:0:0:0:
124,160,140672,1,0,0:0:0:0:
124,160,141457,1,0,0:0:0:0:
124,160,141849,1,0,0:0:0:0:
124,160,142633,1,0,0:0:0:0:
124,160,143025,1,0,0:0:0:0:
124,160,143417,1,0,0:0:0:0:
112,140,143810,1,0,0:0:0:0:
112,140,144594,1,0,0:0:0:0:
112,140,144986,1,0,0:0:0:0:
112,140,145770,1,0,0:0:0:0:
112,140,146555,1,0,0:0:0:0:
112,140,146947,1,0,0:0:0:0:
112,140,147339,1,0,0:0:0:0:
112,140,147731,1,0,0:0:0:0:
112,96,148123,5,0,0:0:0:0:
140,284,149299,1,4,0:0:0:0:
140,300,150365,5,4,0:0:0:0:
376,288,150632,1,8,0:0:0:0:
144,112,150765,1,0,0:0:0:0:
144,112,150899,1,0,0:0:0:0:
144,112,151032,1,0,0:0:0:0:
400,304,151165,1,8,0:0:0:0:
144,112,151432,1,0,0:0:0:0:
144,112,151565,1,0,0:0:0:0:
400,304,151699,1,8,0:0:0:0:
144,112,151965,1,0,0:0:0:0:
400,304,152232,1,8,0:0:0:0:
384,300,152765,1,8,0:0:0:0:
120,128,153032,1,0,0:0:0:0:
120,128,153165,1,0,0:0:0:0:
356,324,153299,1,8,0:0:0:0:
112,104,153565,5,0,0:0:0:0:
348,284,153832,1,8,0:0:0:0:
144,132,154099,1,0,0:0:0:0:
328,268,154365,1,8,0:0:0:0:
24,68,154765,1,0,0:0:0:0:
400,288,154899,1,8,0:0:0:0:
120,136,155165,1,0,0:0:0:0:
120,136,155299,1,0,0:0:0:0:
416,332,155432,1,8,0:0:0:0:
160,164,155832,1,0,0:0:0:0:
432,328,155965,1,8,0:0:0:0:
164,152,156232,1,0,0:0:0:0:
164,152,156365,1,0,0:0:0:0:
420,344,156499,1,8,0:0:0:0:
100,148,156765,1,0,0:0:0:0:
440,352,157032,1,8,0:0:0:0:
440,352,157299,1,8,0:0:0:0:
440,352,157565,1,8,0:0:0:0:
440,352,157699,1,12,0:0:0:0:
440,352,157965,1,8,0:0:0:0:
440,352,158032,1,8,0:0:0:0:
440,352,158099,1,8,0:0:0:0:
396,312,158232,1,8,0:0:0:0:
88,76,158365,1,0,0:0:0:0:
88,76,158499,1,0,0:0:0:0:
416,344,158632,1,8,0:0:0:0:
140,300,158899,5,4,0:0:0:0:
376,288,159165,1,8,0:0:0:0:
408,292,159299,1,8,0:0:0:0:
144,112,159432,1,0,0:0:0:0:
144,112,159565,1,0,0:0:0:0:
400,304,159699,1,8,0:0:0:0:
144,112,159965,1,0,0:0:0:0:
144,112,160099,1,0,0:0:0:0:
400,304,160232,1,8,0:0:0:0:
144,112,160499,1,0,0:0:0:0:
400,304,160765,1,8,0:0:0:0:
384,300,161299,1,8,0:0:0:0:
120,128,161565,1,0,0:0:0:0:
120,128,161699,1,0,0:0:0:0:
356,324,161832,1,8,0:0:0:0:
112,104,162099,5,0,0:0:0:0:
348,284,162365,1,8,0:0:0:0:
144,132,162632,1,0,0:0:0:0:
328,268,162899,1,8,0:0:0:0:
24,68,163299,1,0,0:0:0:0:
400,288,163432,1,8,0:0:0:0:
120,136,163699,1,0,0:0:0:0:
120,136,163832,1,0,0:0:0:0:
416,332,163965,1,8,0:0:0:0:
160,164,164365,1,0,0:0:0:0:
432,328,164499,1,8,0:0:0:0:
164,152,164765,1,0,0:0:0:0:
164,152,164899,1,0,0:0:0:0:
420,344,165032,1,8,0:0:0:0:
100,148,165299,1,0,0:0:0:0:
440,352,165565,1,8,0:0:0:0:
440,352,165832,1,8,0:0:0:0:
440,352,166099,1,8,0:0:0:0:
384,32,166232,5,12,0:0:0:0:
320,276,166499,1,8,0:0:0:0:
320,276,166565,1,8,0:0:0:0:
440,352,166632,1,8,0:0:0:0:
376,304,166765,1,8,0:0:0:0:
148,136,166899,5,0,0:0:0:0:
176,104,167032,1,0,0:0:0:0:
448,304,167165,1,8,0:0:0:0:
102,258,167432,5,4,0:0:0:0:
406,288,167699,1,8,0:0:0:0:
178,99,167965,1,0,0:0:0:0:
121,117,168099,1,0,0:0:0:0:
419,291,168232,1,8,0:0:0:0:
121,117,168365,1,0,0:0:0:0:
163,103,168632,1,0,0:0:0:0:
356,274,168765,1,8,0:0:0:0:
105,115,169032,1,0,0:0:0:0:
132,193,169165,1,0,0:0:0:0:
384,318,169299,1,8,0:0:0:0:
171,148,169565,5,0,0:0:0:0:
351,298,169832,1,8,0:0:0:0:
63,120,170099,1,0,0:0:0:0:
156,97,170232,1,0,0:0:0:0:
347,284,170365,1,8,0:0:0:0:
116,120,170499,1,0,0:0:0:0:
137,129,170765,1,0,0:0:0:0:
399,328,170899,1,8,0:0:0:0:
156,163,171165,1,0,0:0:0:0:
138,113,171299,1,0,0:0:0:0:
405,312,171432,1,8,0:0:0:0:
388,324,171565,1,8,0:0:0:0:
113,134,171699,1,0,0:0:0:0:
305,288,171965,1,8,0:0:0:0:
166,143,172232,1,0,0:0:0:0:
158,87,172365,1,0,0:0:0:0:
371,297,172499,1,8,0:0:0:0:
144,108,172632,1,0,0:0:0:0:
165,118,172899,1,0,0:0:0:0:
304,229,173032,1,8,0:0:0:0:
168,136,173299,1,0,0:0:0:0:
120,119,173432,1,0,0:0:0:0:
337,293,173565,1,8,0:0:0:0:
155,115,173832,1,0,0:0:0:0:
366,301,174099,1,8,0:0:0:0:
359,313,174365,1,8,0:0:0:0:
358,313,174499,1,8,0:0:0:0:
380,280,174632,1,8,0:0:0:0:
116,139,174765,1,4,0:0:0:0:
370,308,175032,1,8,0:0:0:0:
379,333,175165,1,8,0:0:0:0:
384,296,175232,1,8,0:0:0:0:
366,309,175299,1,8,0:0:0:0:
384,344,175432,1,8,0:0:0:0:
156,156,175565,1,0,0:0:0:0:
376,324,175699,1,8,0:0:0:0:
102,258,175965,5,4,0:0:0:0:
406,288,176232,1,8,0:0:0:0:
136,103,176499,1,0,0:0:0:0:
419,291,176765,1,8,0:0:0:0:
144,107,176899,1,0,0:0:0:0:
163,103,177165,1,0,0:0:0:0:
356,274,177299,1,8,0:0:0:0:
105,115,177565,1,0,0:0:0:0:
105,115,177699,1,0,0:0:0:0:
384,318,177832,1,8,0:0:0:0:
171,148,178099,5,0,0:0:0:0:
351,298,178365,1,8,0:0:0:0:
114,124,178632,1,0,0:0:0:0:
114,124,178765,1,0,0:0:0:0:
347,284,178899,1,8,0:0:0:0:
120,132,179032,1,0,0:0:0:0:
137,129,179299,1,0,0:0:0:0:
399,328,179432,1,8,0:0:0:0:
156,163,179699,1,0,0:0:0:0:
405,312,179965,1,8,0:0:0:0:
113,134,180232,5,0,0:0:0:0:
305,288,180499,1,8,0:0:0:0:
158,87,180765,1,0,0:0:0:0:
120,132,180899,1,0,0:0:0:0:
371,297,181032,1,8,0:0:0:0:
158,87,181165,1,0,0:0:0:0:
165,118,181432,1,0,0:0:0:0:
304,229,181565,1,8,0:0:0:0:
168,136,181832,1,0,0:0:0:0:
120,132,181965,1,0,0:0:0:0:
337,293,182099,1,8,0:0:0:0:
155,115,182365,5,4,0:0:0:0:
366,301,182632,1,8,0:0:0:0:
359,313,182899,1,8,0:0:0:0:
320,272,183165,1,8,0:0:0:0:
328,264,183299,1,12,0:0:0:0:
340,308,183699,1,8,0:0:0:0:
156,156,183965,1,0,0:0:0:0:
320,312,184232,1,8,0:0:0:0:
156,324,184365,5,4,0:0:0:0:
144,240,185432,5,0,0:0:0:0:
340,268,185565,5,12,0:0:0:0:
