osu file format v14

[General]
AudioFilename: savior.mp3
AudioLeadIn: 0
PreviewTime: 39062
Countdown: 0
SampleSet: Soft
StackLeniency: 0.4
Mode: 0
LetterboxInBreaks: 1
WidescreenStoryboard: 1

[Editor]
DistanceSpacing: 0.3
BeatDivisor: 4
GridSize: 4
TimelineZoom: 1.6

[Metadata]
Title:Savior
TitleUnicode:Savior
Artist:Rise Against
ArtistUnicode:Rise Against
Creator:pishifat
Version:Insane
Source:
Tags:punk metal appeal to reason milan- smokeman fieryrage raiden
BeatmapID:1126558
BeatmapSetID:509675

[Difficulty]
HPDrainRate:5
CircleSize:3.6
OverallDifficulty:8
ApproachRate:9.2
SliderMultiplier:0.999999999999999
SliderTickRate:1

[Events]
//Background and Video events
0,0,"background.jpg",0,0
//Break Periods
2,82662,86158
2,113814,124416
2,128715,130661
2,135186,136935
//Storyboard Layer 0 (Background)
//Storyboard Layer 1 (Fail)
//Storyboard Layer 2 (Pass)
//Storyboard Layer 3 (Foreground)
//Storyboard Sound Samples

[TimingPoints]
321,331.491712707182,4,2,2,70,1,0
20209,-25,4,2,2,70,0,0
21536,-25,4,2,2,80,0,0
21867,-25,4,2,2,90,0,0
22779,-25,4,2,2,5,0,0
22862,266.666666666667,4,2,2,70,1,0
22862,-58.8235294117647,4,2,2,70,0,0
30195,-58.8235294117647,4,2,2,70,0,0
30995,-58.8235294117647,4,2,2,70,0,0
31262,-58.8235294117647,4,2,2,70,0,0
31395,-58.8235294117647,4,2,2,70,0,0
39928,-83.3333333333333,4,2,2,70,0,0
39995,-83.3333333333333,4,2,2,60,0,0
47662,-76.9230769230769,4,2,2,60,0,0
48462,-71.4285714285714,4,2,2,65,0,0
56728,-133.333333333333,4,2,2,70,0,0
56928,-100,4,2,2,5,0,0
56995,-133.333333333333,4,2,2,70,0,0
57195,-133.333333333333,4,2,2,5,0,0
57262,-62.5,4,2,2,70,0,0
60992,-133.333333333333,4,2,2,70,0,0
61195,-133.333333333333,4,2,2,5,0,0
61528,-62.5,4,2,2,70,0,0
63395,-100,4,2,2,70,0,0
65528,-55.5555555555556,4,2,2,70,0,1
72862,-55.5555555555556,4,2,2,70,0,0
74062,-55.5555555555556,4,2,2,70,0,1
76195,-57.1428571428571,4,2,2,70,0,1
76409,-55.5555555555556,4,2,2,70,0,1
80462,-100,4,2,2,70,0,0
86728,-83.3333333333333,4,2,2,60,0,0
88462,-100,4,2,2,60,0,0
88862,-83.3333333333333,4,2,2,60,0,0
90595,-100,4,2,2,60,0,0
90995,-83.3333333333333,4,2,2,60,0,0
91395,-66.6666666666667,4,2,2,60,0,0
91662,-83.3333333333333,4,2,2,60,0,0
92728,-100,4,2,2,60,0,0
93128,-83.3333333333333,4,2,2,60,0,0
94328,-62.5,4,2,2,70,0,0
96414,266.666666666667,4,2,2,70,1,0
96414,-58.8235294117647,4,2,2,70,0,0
96547,266.666666666667,4,2,2,70,1,0
96813,-58.8235294117647,4,2,2,70,0,0
113614,392.156862745098,4,2,2,45,1,0
124986,-200,4,2,2,45,0,0
126064,-200,4,2,2,45,0,0
138319,-100,4,2,2,45,0,0
138614,-100,4,2,2,5,0,0
138712,-153.846153846153,4,2,2,45,0,0
148123,294.117647058824,4,2,2,45,1,0
148123,-100,4,2,2,45,0,0
149299,266.666666666667,4,2,2,45,1,0
150365,-55.5555555555556,4,2,2,70,0,1
157699,-55.5555555555556,4,2,2,70,0,0
158899,-55.5555555555556,4,2,2,70,0,1
166232,-55.5555555555556,4,2,2,70,0,0
167432,-58.8235294117647,4,2,2,70,0,1
174765,-55.5555555555556,4,2,2,70,0,0
175965,-58.8235294117647,4,2,2,70,0,1
182365,-100,4,2,2,70,0,0
184365,-100,4,2,2,70,0,0
185432,-100,4,2,2,70,0,0

[Colours]
Combo1 : 238,162,162
Combo2 : 194,185,154
Combo3 : 197,197,197
Combo4 : 174,203,255

[HitObjects]
256,192,20210,12,0,22780,0:0:0:0:
66,298,22862,6,0,L|247:252,1,170.000003242493,6|8,0:0|0:0,0:0:0:0:
66,164,23262,1,2,0:0:0:0:
66,164,23395,2,0,L|148:184,1,85.0000016212463,2|0,0:0|0:0,0:0:0:0:
317,228,23662,1,8,0:0:0:0:
372,18,23795,6,0,P|328:55|326:155,1,127.500002431869,2|0,0:0|0:0,0:0:0:0:
323,135,24062,2,0,L|240:114,1,85.0000016212463,2|8,0:0|0:0,0:0:0:0:
17,47,24328,2,0,P|61:84|63:184,1,127.500002431869,2|0,0:0|0:0,0:0:0:0:
66,164,24595,2,0,L|148:143,1,85.0000016212463,2|8,0:0|0:0,0:0:0:0:
389,248,24862,1,2,0:0:0:0:
389,248,24928,1,0,0:0:0:0:
389,248,24995,6,0,L|224:206,2,170.000003242493,4|8|4,0:0|0:0|0:3,0:0:0:0:
475,270,25662,1,4,0:3:0:0:
324,141,25795,1,8,0:0:0:0:
256,381,25928,6,0,P|345:378|432:306,1,170.000003242493,2|0,0:0|0:0,0:0:0:0:
224,209,26328,2,0,L|141:229,1,85.0000016212463,8|0,0:0|0:0,0:0:0:0:
308,290,26595,1,2,0:0:0:0:
308,290,26728,1,0,0:0:0:0:
239,122,26862,2,0,L|156:142,1,85.0000016212463,8|0,0:0|0:0,0:0:0:0:
156,142,27062,1,0,0:0:0:0:
156,142,27128,6,0,P|200:55|283:35,1,170.000003242493,6|8,0:0|0:0,0:0:0:0:
409,132,27528,1,2,0:0:0:0:
409,132,27662,2,0,L|326:111,1,85.0000016212463,2|0,0:0|0:0,0:0:0:0:
488,23,27928,1,8,0:0:0:0:
440,226,28062,6,0,P|389:262|288:260,1,127.500002431869,2|0,0:0|0:0,0:0:0:0:
311,279,28328,2,0,L|393:299,1,85.0000016212463,2|8,0:0|0:0,0:0:0:0:
264,185,28595,2,0,P|201:193|149:230,1,127.500002431869,2|0,0:0|0:0,0:0:0:0:
145,247,28862,2,0,L|227:226,1,85.0000016212463,2|8,0:0|0:0,0:0:0:0:
326,111,29128,1,2,0:0:0:0:
326,111,29195,1,0,0:0:0:0:
326,111,29262,6,0,L|161:69,2,170.000003242493,4|8|4,0:0|0:0|0:3,0:0:0:0:
312,14,29928,1,4,0:3:0:0:
169,164,30062,1,8,0:0:0:0:
507,215,30195,6,0,P|508:152|477:97,1,127.500002431869,4|0,0:0|0:0,0:0:0:0:
462,88,30462,2,0,L|407:98,1,42.5000008106231,0|0,1:0|1:0,0:0:0:0:
326,111,30595,1,8,1:2:0:0:
388,183,30728,1,0,0:0:0:0:
357,24,30862,5,8,0:3:0:0:
234,125,30995,1,4,0:3:0:0:
388,183,31128,1,8,0:0:0:0:
326,111,31262,1,10,0:0:0:0:
257,289,31395,6,0,L|92:331,1,170.000003242493,6|8,0:0|0:0,0:0:0:0:
201,209,31795,1,2,0:0:0:0:
201,209,31928,2,0,L|118:188,1,85.0000016212463,2|0,0:0|0:0,0:0:0:0:
40,65,32195,1,8,0:0:0:0:
260,37,32328,6,0,P|200:93|137:98,1,127.500002431869,2|0,0:0|0:0,0:0:0:0:
141,93,32595,2,0,L|120:10,1,85.0000016212463,2|8,0:0|0:0,0:0:0:0:
280,156,32862,2,0,P|340:212|403:217,1,127.500002431869,2|0,0:0|0:0,0:0:0:0:
399,212,33128,2,0,L|420:129,1,85.0000016212463,2|8,0:0|0:0,0:0:0:0:
251,269,33395,1,2,0:0:0:0:
251,269,33462,1,0,0:0:0:0:
251,269,33528,6,0,L|86:311,2,170.000003242493,4|8|4,0:0|0:0|0:3,0:0:0:0:
146,203,34195,1,4,0:3:0:0:
192,375,34328,1,8,0:0:0:0:
239,168,34462,6,0,P|158:113|65:131,1,170.000003242493,2|0,0:0|0:0,0:0:0:0:
127,300,34862,2,0,L|210:279,1,85.0000016212463,8|0,0:0|0:0,0:0:0:0:
306,260,35128,1,2,0:0:0:0:
306,260,35262,1,0,0:0:0:0:
200,383,35395,2,0,L|283:362,1,85.0000016212463,8|0,0:0|0:0,0:0:0:0:
282,362,35595,1,0,0:0:0:0:
282,362,35662,6,0,P|370:376|442:329,1,170.000003242493,4|8,0:0|0:0,0:0:0:0:
421,148,36062,1,2,0:0:0:0:
402,247,36195,2,0,L|485:226,1,85.0000016212463,2|0,0:0|0:0,0:0:0:0:
448,55,36462,1,8,0:0:0:0:
185,145,36595,6,0,P|240:192|322:190,1,127.500002431869,2|0,0:0|0:0,0:0:0:0:
308,190,36862,2,0,L|287:107,1,85.0000016212463,2|8,0:0|0:0,0:0:0:0:
152,37,37128,2,0,P|97:84|15:82,1,127.500002431869,2|0,0:0|0:0,0:0:0:0:
28,82,37395,2,0,L|49:-1,1,85.0000016212463,2|8,0:0|0:0,0:0:0:0:
266,25,37662,1,2,0:0:0:0:
266,25,37728,1,0,0:0:0:0:
266,25,37795,6,0,L|287:108,1,85.0000016212463,4|0,0:0|0:0,0:0:0:0:
164,227,38062,2,0,L|185:144,1,85.0000016212463,8|0,0:0|0:0,0:0:0:0:
371,257,38328,1,4,0:3:0:0:
371,257,38462,1,4,0:3:0:0:
258,338,38595,1,8,0:0:0:0:
286,107,38728,6,0,P|344:84|406:97,1,127.500002431869,4|0,0:0|0:0,0:0:0:0:
421,105,38995,2,0,L|467:114,1,42.5000008106231,0|0,1:0|1:0,0:0:0:0:
450,19,39128,1,8,1:2:0:0:
354,182,39262,1,0,0:0:0:0:
478,117,39395,5,8,0:0:0:0:
350,43,39528,1,8,0:3:0:0:
346,196,39662,1,4,0:3:0:0:
460,8,39795,1,4,0:3:0:0:
256,153,39928,6,0,B|242:210|242:210|280:286,2,119.999996337891,4|8|8,0:0|0:0|0:3,0:0:0:0:
214,70,40595,2,0,P|185:60|155:62,1,59.9999981689453,0|8,0:3|0:0,0:0:0:0:
96,136,40862,6,0,B|152:179|152:179|118:308,1,179.999994506836,4|8,0:3|0:0,0:0:0:0:
120,299,41528,2,0,P|93:311|63:317,1,59.9999981689453,4|0,0:3|0:0,0:0:0:0:
0,245,41795,1,8,0:0:0:0:
357,239,42062,6,0,B|383:294|383:294|368:351,1,119.999996337891,4|8,0:3|0:0,0:0:0:0:
361,367,42595,1,8,0:3:0:0:
288,304,42728,1,0,0:0:0:0:
204,350,42862,1,8,0:0:0:0:
133,287,42995,6,0,L|87:106,1,179.999994506836,4|8,0:3|0:0,0:0:0:0:
85,97,43662,2,0,P|83:67|92:38,1,59.9999981689453,4|0,0:3|0:0,0:0:0:0:
175,84,43928,1,8,0:0:0:0:
124,370,44195,6,0,B|67:384|67:384|11:358,2,119.999996337891,4|8|8,0:3|0:0|0:3,0:0:0:0:
196,318,44862,2,0,P|231:304|272:306,1,59.9999981689453,0|8,0:0|0:0,0:0:0:0:
342,354,45128,6,0,B|286:311|286:311|313:205,1,179.999994506836,4|8,0:3|0:0,0:0:0:0:
318,190,45795,2,0,P|263:169|239:171,1,59.9999981689453,4|0,0:3|0:0,0:0:0:0:
177,196,46062,1,8,0:0:0:0:
498,79,46328,6,0,L|381:108,1,119.999996337891,4|8,0:3|0:0,0:0:0:0:
364,114,46862,1,8,0:3:0:0:
307,39,46995,1,0,0:0:0:0:
213,27,47128,1,8,0:0:0:0:
139,85,47262,6,0,B|83:111|83:111|26:96,1,119.999996337891,4|0,0:3|0:0,0:0:0:0:
162,179,47662,2,0,P|180:234|176:265,1,64.9999970245362,8|0,0:0|0:0,0:0:0:0:
32,353,47928,1,8,0:3:0:0:
80,232,48062,1,8,0:3:0:0:
167,330,48195,2,0,L|261:354,1,97.4999955368043,8|0,0:0|0:0,0:0:0:0:
278,356,48462,6,0,P|322:315|328:288,1,69.9999978637695,4|0,0:0|0:0,0:0:0:0:
296,150,48728,2,0,P|309:208|329:227,1,69.9999978637695,8|0,0:0|0:0,0:0:0:0:
472,181,48995,1,8,0:3:0:0:
433,103,49128,2,0,P|389:144|383:171,1,69.9999978637695,0|8,0:0|0:0,0:0:0:0:
460,341,49395,6,0,L|296:300,1,139.999995727539,4|0,0:3|0:0,0:0:0:0:
179,378,49795,2,0,P|213:376|243:359,1,69.9999978637695,8|0,0:0|0:0,0:0:0:0:
72,216,50062,2,0,P|106:261|184:285,1,139.999995727539,4|8,0:3|0:0,0:0:0:0:
122,55,50462,1,0,0:0:0:0:
168,191,50595,6,0,P|183:160|184:125,1,69.9999978637695,4|0,0:3|0:0,0:0:0:0:
31,40,50862,2,0,P|31:74|47:105,1,69.9999978637695,8|0,0:0|0:0,0:0:0:0:
212,34,51128,2,0,L|375:-6,1,139.999995727539,8|8,0:3|0:0,0:0:0:0:
439,28,51528,1,0,0:0:0:0:
360,228,51662,6,0,P|324:183|323:91,1,139.999995727539,4|8,0:3|0:0,0:0:0:0:
448,191,52062,2,0,P|446:259|406:315,1,139.999995727539,0|0,0:0|0:0,0:0:0:0:
269,261,52462,1,8,0:0:0:0:
360,228,52595,1,0,0:0:0:0:
300,374,52728,6,0,P|265:372|235:355,1,69.9999978637695,4|0,0:3|0:0,0:0:0:0:
154,213,52995,2,0,P|169:243|170:278,1,69.9999978637695,8|0,0:0|0:0,0:0:0:0:
30,159,53262,1,8,0:3:0:0:
99,103,53395,2,0,P|133:103|164:119,1,69.9999978637695,0|8,0:0|0:0,0:0:0:0:
269,261,53662,6,0,P|367:225|393:184,1,139.999995727539,4|0,0:3|0:0,0:0:0:0:
294,164,54062,1,8,0:0:0:0:
460,268,54195,2,0,P|477:165|455:122,1,139.999995727539,4|0,0:3|0:0,0:0:0:0:
315,75,54595,1,8,0:0:0:0:
294,164,54728,1,0,0:0:0:0:
452,42,54862,6,0,P|424:23|389:18,1,69.9999978637695,4|0,0:3|0:0,0:0:0:0:
226,96,55128,2,0,P|191:91|162:72,1,69.9999978637695,8|0,0:0|0:0,0:0:0:0:
230,8,55395,1,8,0:3:0:0:
101,144,55528,2,0,P|77:118|67:85,1,69.9999978637695,0|8,0:0|0:0,0:0:0:0:
230,8,55795,1,0,0:0:0:0:
296,186,55928,6,0,L|431:219,2,139.999995727539,4|8|4,0:3|0:0|0:3,0:0:0:0:
216,226,56595,1,0,0:0:0:0:
267,101,56728,6,0,L|394:71,1,131.25000500679,8|0,1:2|0:0,0:0:0:0:
403,57,57262,6,0,P|342:7|261:9,1,160,12|4,0:0|0:3,0:0:0:0:
181,61,57662,1,0,0:0:0:0:
287,179,57795,2,0,L|267:101,1,79.9999999999999,8|0,0:0|0:0,0:0:0:0:
102,0,58062,6,0,L|82:77,1,79.9999999999999,2|0,0:0|0:0,0:0:0:0:
218,308,58328,2,0,L|177:143,1,160,8|4,0:0|0:3,0:0:0:0:
108,244,58728,1,0,0:0:0:0:
407,197,58862,2,0,P|365:167|297:169,1,120,8|0,0:0|0:0,0:0:0:0:
287,179,59128,6,0,L|307:257,1,79.9999999999999,4|0,0:0|0:0,0:0:0:0:
198,384,59395,2,0,L|218:306,1,79.9999999999999,8|0,0:0|0:0,0:0:0:0:
309,360,59662,1,4,0:3:0:0:
309,360,59795,1,0,0:0:0:0:
117,313,59928,2,0,L|97:235,1,79.9999999999999,8|0,0:0|0:0,0:0:0:0:
306,101,60195,6,0,L|286:179,1,79.9999999999999,2|0,0:0|0:0,0:0:0:0:
2,199,60462,2,0,P|61:147|167:162,1,160,8|4,0:0|0:3,0:0:0:0:
203,221,60862,1,0,0:0:0:0:
95,29,60995,6,0,L|129:162,1,131.25000500679,8|0,0:0|0:0,0:0:0:0:
117,166,61528,6,0,L|97:244,1,79.9999999999999,12|0,0:0|0:0,0:0:0:0:
291,108,61795,2,0,L|271:30,2,79.9999999999999,4|0|8,0:3|0:0|0:0,0:0:0:0:
314,202,62195,1,0,0:0:0:0:
445,59,62328,6,0,L|367:39,1,79.9999999999999,2|0,0:0|0:0,0:0:0:0:
223,175,62595,2,0,L|405:128,1,160,8|4,0:0|0:3,0:0:0:0:
160,108,62995,1,0,0:0:0:0:
286,362,63128,2,0,P|325:319|331:250,1,120,8|0,0:0|0:0,0:0:0:0:
326,245,63395,5,4,0:0:0:0:
307,273,63662,5,0,0:0:0:0:
230,308,63928,5,0,0:0:0:0:
132,277,64195,5,0,0:0:0:0:
88,159,64462,5,4,0:0:0:0:
88,159,65528,6,0,P|126:181|208:182,1,89.999997253418,4|0,0:0|0:0,0:0:0:0:
410,122,65795,2,0,L|279:155,1,134.999995880127,8|0,0:0|0:0,0:0:0:0:
262,162,66062,1,4,0:3:0:0:
366,226,66195,1,4,0:3:0:0:
237,25,66328,2,0,P|201:71|196:124,1,89.999997253418,8|4,0:0|0:3,0:0:0:0:
254,344,66595,6,0,L|276:256,1,89.999997253418,2|4,0:0|0:3,0:0:0:0:
84,56,66862,2,0,L|118:187,1,134.999995880127,8|0,0:0|0:0,0:0:0:0:
122,204,67128,1,4,0:3:0:0:
194,100,67262,1,4,0:3:0:0:
63,285,67395,2,0,P|115:308|173:301,1,89.999997253418,8|2,0:0|0:0,0:0:0:0:
147,308,67595,1,0,0:0:0:0:
147,308,67662,6,0,P|223:255|317:264,1,179.999994506836,4|8,0:0|0:0,0:0:0:0:
246,348,68062,1,0,0:0:0:0:
197,120,68195,1,4,0:3:0:0:
281,161,68328,1,4,0:3:0:0:
134,191,68462,2,0,P|103:131|113:71,1,89.999997253418,8|4,0:0|0:3,0:0:0:0:
332,85,68728,5,2,0:0:0:0:
281,161,68862,1,4,0:3:0:0:
254,31,68995,2,0,P|321:-2|416:26,1,134.999995880127,8|0,0:0|0:0,0:0:0:0:
393,14,69262,1,4,0:3:0:0:
332,85,69395,1,4,0:3:0:0:
499,125,69528,1,8,0:0:0:0:
499,125,69795,6,0,P|461:192|465:239,1,89.999997253418,4|0,0:0|0:0,0:0:0:0:
405,361,70062,2,0,L|371:230,1,134.999995880127,8|0,0:0|0:0,0:0:0:0:
367,213,70328,1,4,0:3:0:0:
308,348,70462,1,4,0:3:0:0:
460,203,70595,1,8,0:0:0:0:
257,140,70728,6,0,P|196:179|200:305,1,179.999994506836,4|4,0:3|0:3,0:0:0:0:
325,67,71128,2,0,L|237:45,1,89.999997253418,8|0,0:0|0:0,0:0:0:0:
62,154,71395,1,4,0:3:0:0:
150,178,71528,1,4,0:3:0:0:
36,70,71662,1,8,0:0:0:0:
5,224,71795,1,2,0:0:0:0:
150,67,71928,6,0,L|238:45,1,89.999997253418,4|0,0:0|0:0,0:0:0:0:
392,181,72195,2,0,P|312:182|251:128,1,134.999995880127,8|0,0:0|0:0,0:0:0:0:
259,136,72462,1,4,0:3:0:0:
348,98,72595,1,4,0:3:0:0:
303,265,72728,1,8,0:0:0:0:
187,54,72862,5,2,0:0:0:0:
148,226,72995,2,0,L|170:314,1,89.999997253418,4|0,0:0|1:0,0:0:0:0:
169,313,73195,1,0,1:0:0:0:
169,313,73262,2,0,P|217:337|266:337,1,89.999997253418,0|0,1:0|1:0,0:0:0:0:
213,143,73528,5,8,0:3:0:0:
69,285,73662,1,4,0:3:0:0:
236,243,73795,1,8,0:0:0:0:
44,181,73928,1,8,0:0:0:0:
169,313,74062,6,0,P|257:331|325:277,2,179.999994506836,4|8|4,0:0|0:0|0:3,0:0:0:0:
44,181,74728,1,4,0:3:0:0:
253,154,74862,2,0,L|235:242,1,89.999997253418,8|4,0:0|0:3,0:0:0:0:
79,365,75128,6,0,L|61:276,1,89.999997253418,2|4,0:0|0:3,0:0:0:0:
304,68,75395,2,0,P|339:114|331:210,1,134.999995880127,8|0,0:0|0:0,0:0:0:0:
334,204,75662,1,4,0:3:0:0:
253,154,75795,1,4,0:3:0:0:
438,107,75928,1,8,0:0:0:0:
377,373,76062,1,2,0:0:0:0:
377,373,76128,1,0,0:0:0:0:
377,373,76195,6,0,L|329:188,1,175.00000166893,4|8,0:0|0:0,0:0:0:0:
253,154,76595,1,0,0:0:0:0:
390,284,76728,2,0,P|440:270|480:238,1,89.999997253418,4|4,0:3|0:3,0:0:0:0:
254,64,76995,2,0,P|204:78|164:110,1,89.999997253418,8|4,0:0|0:3,0:0:0:0:
236,336,77262,6,0,L|258:248,1,89.999997253418,2|4,0:0|0:3,0:0:0:0:
71,59,77528,2,0,L|107:201,1,134.999995880127,8|0,0:0|0:0,0:0:0:0:
110,204,77795,1,4,0:3:0:0:
173,99,77928,1,4,0:3:0:0:
63,281,78062,1,8,0:0:0:0:
63,281,78328,6,0,L|151:303,1,89.999997253418,4|0,0:0|0:0,0:0:0:0:
328,162,78595,2,0,P|253:169|209:243,1,134.999995880127,8|0,0:0|0:0,0:0:0:0:
210,228,78862,2,0,P|296:261|320:255,1,89.999997253418,4|4,0:3|0:3,0:0:0:0:
375,79,79128,1,8,0:0:0:0:
153,118,79262,6,0,L|331:162,1,179.999994506836,4|4,0:3|0:3,0:0:0:0:
442,312,79662,2,0,L|354:333,1,89.999997253418,8|0,0:0|0:0,0:0:0:0:
210,228,79928,1,4,0:3:0:0:
302,254,80062,1,4,0:3:0:0:
173,378,80195,2,0,P|144:326|153:263,1,89.999997253418,8|0,0:0|0:0,0:0:0:0:
295,110,80462,5,4,0:0:0:0:
182,58,80728,5,0,0:0:0:0:
136,127,80995,1,0,0:0:0:0:
92,194,81262,1,0,0:0:0:0:
295,110,81395,5,2,0:0:0:0:
182,58,81795,5,0,0:0:0:0:
92,194,82062,5,8,0:0:0:0:
136,127,82195,1,8,0:3:0:0:
182,58,82328,1,4,0:3:0:0:
295,110,82462,5,4,0:0:0:0:
223,172,86728,6,0,L|339:142,1,119.999996337891,4|0,0:0|0:0,0:0:0:0:
209,50,87128,2,0,L|267:64,1,59.9999981689453,4|0,0:3|0:0,0:0:0:0:
421,106,87395,1,8,0:0:0:0:
421,106,87662,1,4,0:3:0:0:
339,142,87795,1,0,0:0:0:0:
412,196,87928,2,0,P|480:179|515:125,1,119.999996337891,8|4,0:3|0:3,0:0:0:0:
509,141,88462,5,8,0:0:0:0:
223,172,88595,1,8,0:0:0:0:
223,172,88862,6,0,L|252:288,1,119.999996337891,4|0,0:0|0:0,0:0:0:0:
392,228,89262,2,0,L|333:213,1,59.9999981689453,4|0,0:3|0:0,0:0:0:0:
152,249,89528,1,8,0:0:0:0:
152,249,89795,2,0,P|122:201|119:176,1,59.9999981689453,4|0,0:3|0:0,0:0:0:0:
260,69,90062,2,0,P|260:131|206:178,1,119.999996337891,8|4,0:3|0:3,0:0:0:0:
222,171,90595,5,8,0:0:0:0:
442,119,90728,1,8,0:0:0:0:
207,174,90862,1,8,0:0:0:0:
387,330,90995,6,0,L|416:213,1,119.999996337891,4|0,0:0|0:0,0:0:0:0:
460,46,91395,2,0,L|441:118,1,75.000002861023,4|0,0:0|0:0,0:0:0:0:
314,244,91662,1,8,0:0:0:0:
314,244,91929,1,4,0:3:0:0:
243,184,92062,1,0,0:0:0:0:
441,118,92195,2,0,P|498:160|503:231,1,119.999996337891,8|4,0:3|0:3,0:0:0:0:
508,205,92728,5,8,0:0:0:0:
261,95,92862,1,8,0:0:0:0:
261,95,93128,6,0,L|144:124,1,119.999996337891,4|0,0:0|0:0,0:0:0:0:
319,202,93528,2,0,L|260:187,1,59.9999981689453,4|0,0:3|0:0,0:0:0:0:
64,227,93795,1,8,0:0:0:0:
64,227,94062,2,0,L|58:301,1,59.9999981689453,4|4,0:3|0:3,0:0:0:0:
58,298,94262,1,4,0:3:0:0:
57,307,94328,6,0,P|89:325|163:314,1,79.9999999999999,8|0,0:0|0:0,0:0:0:0:
146,321,94528,2,0,P|198:339|224:364,1,79.9999999999999,12|0,0:0|0:0,0:0:0:0:
224,368,94728,2,0,L|302:347,1,79.9999999999999,12|0,0:0|0:0,0:0:0:0:
387,317,94928,1,12,0:0:0:0:
256,192,94995,12,0,96328,0:0:0:0:
122,272,96414,6,0,L|286:313,1,170.000003242493,4|0,0:0|0:0,0:0:0:0:
140,147,96813,2,0,L|23:176,1,85.0000016212463,8|0,0:0|0:0,0:0:0:0:
223,207,97080,1,4,0:3:0:0:
223,207,97213,1,4,0:3:0:0:
147,48,97347,2,0,L|64:68,1,85.0000016212463,8|0,0:0|0:0,0:0:0:0:
247,300,97613,6,0,P|312:250|298:144,1,170.000003242493,4|8,0:3|0:0,0:0:0:0:
140,186,98013,1,0,0:0:0:0:
140,186,98147,2,0,L|222:206,1,85.0000016212463,4|4,0:3|0:3,0:0:0:0:
284,48,98413,1,8,0:0:0:0:
31,115,98547,6,0,L|195:73,1,170.000003242493,4|0,0:0|0:0,0:0:0:0:
323,189,98947,2,0,L|302:271,1,85.0000016212463,8|0,0:0|0:0,0:0:0:0:
140,186,99213,2,0,L|222:206,1,85.0000016212463,4|4,0:3|0:3,0:0:0:0:
483,275,99480,2,0,L|400:254,1,85.0000016212463,8|0,0:0|0:0,0:0:0:0:
195,73,99747,6,0,P|249:13|352:5,1,170.000003242493,4|8,0:3|0:0,0:0:0:0:
323,189,100147,1,0,0:0:0:0:
302,92,100280,2,0,L|385:113,1,85.0000016212463,4|4,0:3|0:3,0:0:0:0:
483,275,100547,1,8,0:0:0:0:
266,350,100680,6,0,L|224:186,1,170.000003242493,4|0,0:0|0:0,0:0:0:0:
74,130,101080,2,0,L|53:213,1,85.0000016212463,8|0,0:0|0:0,0:0:0:0:
204,92,101347,1,4,0:3:0:0:
204,92,101480,1,4,0:3:0:0:
141,247,101613,2,0,L|162:330,1,85.0000016212463,8|0,0:0|0:0,0:0:0:0:
381,138,101880,5,4,0:3:0:0:
293,116,102013,1,4,0:3:0:0:
366,237,102147,2,0,L|449:216,1,85.0000016212463,8|0,0:0|0:0,0:0:0:0:
339,34,102413,2,0,P|257:29|203:91,1,170.000003242493,4|8,0:3|0:0,0:0:0:0:
229,371,102813,6,0,P|262:331|271:207,1,170.000003242493,4|0,0:0|0:0,0:0:0:0:
120,70,103213,2,0,L|203:91,1,85.0000016212463,8|0,0:0|0:0,0:0:0:0:
381,138,103480,1,4,0:3:0:0:
381,138,103613,1,4,0:3:0:0:
175,192,103747,6,0,P|129:262|129:346,1,170.000003242493,4|0,0:0|1:0,0:0:0:0:
429,308,104147,1,0,1:0:0:0:
429,308,104213,1,0,1:0:0:0:
429,308,104280,2,0,L|408:225,1,85.0000016212463,0|0,1:0|1:0,0:0:0:0:
266,210,104547,2,0,L|276:251,1,42.5000008106231,4|0,1:3|1:0,0:0:0:0:
279,222,104680,2,0,L|289:263,1,42.5000008106231,0|0,1:0|1:0,0:0:0:0:
293,233,104813,2,0,L|303:274,1,42.5000008106231,0|0,1:0|1:0,0:0:0:0:
316,286,104947,6,0,L|274:122,1,170.000003242493,4|0,0:0|0:0,0:0:0:0:
139,13,105347,2,0,L|222:34,1,85.0000016212463,8|0,0:0|0:0,0:0:0:0:
448,79,105613,2,0,L|365:100,1,85.0000016212463,4|4,0:3|0:3,0:0:0:0:
110,169,105880,2,0,L|193:190,1,85.0000016212463,8|0,0:0|0:0,0:0:0:0:
461,236,106147,6,0,P|373:238|316:323,1,170.000003242493,4|8,0:3|0:0,0:0:0:0:
499,343,106547,1,0,0:0:0:0:
499,343,106680,2,0,L|416:322,1,85.0000016212463,4|4,0:3|0:3,0:0:0:0:
166,261,106947,1,8,0:0:0:0:
300,378,107080,6,0,L|342:214,1,170.000003242493,4|0,0:0|0:0,0:0:0:0:
247,60,107480,2,0,L|268:143,1,85.0000016212463,8|0,0:0|0:0,0:0:0:0:
436,185,107747,1,4,0:3:0:0:
363,120,107880,1,4,0:3:0:0:
322,295,108013,2,0,L|343:212,1,85.0000016212463,8|0,0:0|0:0,0:0:0:0:
304,0,108280,6,0,P|216:20|161:111,1,170.000003242493,4|8,0:3|0:0,0:0:0:0:
201,262,108680,1,0,0:0:0:0:
221,162,108813,2,0,L|138:183,1,85.0000016212463,4|4,0:3|0:3,0:0:0:0:
23,288,109080,1,8,0:0:0:0:
281,321,109213,6,0,L|323:157,1,170.000003242493,4|0,0:0|0:0,0:0:0:0:
427,41,109613,2,0,L|344:62,1,85.0000016212463,8|0,0:0|0:0,0:0:0:0:
169,15,109880,2,0,L|252:36,1,85.0000016212463,4|4,0:3|0:3,0:0:0:0:
413,137,110147,1,8,0:0:0:0:
115,147,110280,6,0,L|94:64,1,85.0000016212463,0|4,0:0|0:3,0:0:0:0:
323,156,110547,2,0,L|302:239,1,85.0000016212463,4|8,0:3|0:0,0:0:0:0:
66,230,110813,2,0,P|153:169|241:186,1,170.000003242493,0|4,0:0|0:3,0:0:0:0:
336,321,111213,2,0,P|263:326|209:265,1,127.500002431869,8|0,0:0|0:0,0:0:0:0:
216,279,111480,5,4,0:0:0:0:
296,245,112013,5,4,0:0:0:0:
157,184,112547,5,4,0:0:0:0:
338,104,113080,5,4,0:0:0:0:
90,22,113614,5,4,0:0:0:0:
198,77,124986,6,0,L|150:90,2,50,0|0|0,0:0|0:0|0:0,0:0:0:0:
288,53,126555,2,0,P|233:107|212:272,1,250
365,309,131261,6,0,L|412:322,2,50,0|0|0,0:0|0:0|0:0,0:0:0:0:
275,285,132829,2,0,P|287:253|288:232,1,50,0|0,0:0|0:0,0:0:0:0:
261,152,133614,1,0,0:0:0:0:
261,152,134006,2,0,P|340:190|376:183,1,125,0|0,0:0|0:0,0:0:0:0:
139,301,137535,6,0,L|125:348,2,50,0|0|0,0:0|0:0|0:0,0:0:0:0:
158,210,138712,2,0,L|139:147,1,64.9999970245362,4|0,0:3|0:0,0:0:0:0:
434,204,140280,5,0,0:0:0:0:
434,204,140672,2,0,P|471:197|502:178,1,64.9999970245362,0|0,0:0|0:0,0:0:0:0:
434,113,141457,1,4,0:3:0:0:
434,113,141849,1,4,0:3:0:0:
355,62,142241,2,0,L|333:-12,2,64.9999970245362,0|2|0,0:0|0:0|0:0,0:0:0:0:
353,151,143417,1,0,0:0:0:0:
270,103,143810,2,0,P|217:113|203:122,1,64.9999970245362,0|0,0:0|3:0,0:0:0:0:
162,192,144594,1,4,0:3:0:0:
162,192,144986,1,4,0:3:0:0:
396,319,146555,5,0,0:0:0:0:
396,319,146947,2,0,P|352:306|326:309,1,64.9999970245362,0|0,0:0|3:0,0:0:0:0:
256,348,147731,1,4,0:3:0:0:
256,348,148123,1,4,0:3:0:0:
256,348,149299,5,4,0:0:0:0:
256,35,150365,6,0,P|206:40|160:69,1,89.999997253418,4|0,0:0|0:0,0:0:0:0:
202,272,150632,2,0,L|235:141,1,134.999995880127,8|0,0:0|0:0,0:0:0:0:
240,123,150899,1,0,0:3:0:0:
143,151,151032,1,4,0:3:0:0:
303,265,151165,2,0,L|326:170,1,89.999997253418,8|4,0:0|0:3,0:0:0:0:
59,123,151432,6,0,P|57:166|95:224,1,89.999997253418,2|4,0:0|0:3,0:0:0:0:
376,98,151699,2,0,P|311:85|251:113,1,134.999995880127,8|0,0:0|0:0,0:0:0:0:
240,123,151965,1,4,0:3:0:0:
324,177,152099,1,4,0:3:0:0:
195,42,152232,2,0,P|155:82|142:139,1,89.999997253418,8|2,0:0|0:0,0:0:0:0:
144,113,152432,1,0,0:0:0:0:
144,113,152499,6,0,L|187:287,1,179.999994506836,4|8,0:0|0:0,0:0:0:0:
149,371,152899,1,0,0:0:0:0:
248,155,153032,1,4,0:3:0:0:
273,238,153165,1,4,0:3:0:0:
44,106,153299,2,0,P|70:43|122:12,1,89.999997253418,8|4,0:0|0:3,0:0:0:0:
331,116,153565,5,2,0:0:0:0:
248,155,153699,1,4,0:3:0:0:
307,29,153832,2,0,P|361:34|423:112,1,134.999995880127,8|0,0:0|0:0,0:0:0:0:
423,105,154099,1,4,0:3:0:0:
331,116,154232,1,4,0:3:0:0:
477,215,154365,1,8,0:0:0:0:
477,215,154632,6,0,L|389:193,1,89.999997253418,4|0,0:0|0:0,0:0:0:0:
152,144,154899,2,0,P|102:188|103:274,1,134.999995880127,8|0,0:0|0:0,0:0:0:0:
101,269,155165,1,0,0:3:0:0:
186,232,155299,1,4,0:3:0:0:
13,175,155432,1,8,0:0:0:0:
211,325,155565,6,0,P|266:278|247:154,1,179.999994506836,4|4,0:3|0:3,0:0:0:0:
34,382,155965,2,0,L|121:360,1,89.999997253418,8|0,0:0|0:0,0:0:0:0:
375,291,156232,1,4,0:3:0:0:
285,275,156365,1,4,0:3:0:0:
396,378,156499,1,8,0:0:0:0:
433,224,156632,1,2,0:0:0:0:
305,363,156765,6,0,L|217:385,1,89.999997253418,4|0,0:0|0:0,0:0:0:0:
142,149,157032,2,0,P|222:148|283:202,1,134.999995880127,8|0,0:0|0:0,0:0:0:0:
276,192,157299,1,4,0:3:0:0:
191,234,157432,1,4,0:3:0:0:
235,61,157565,1,8,0:0:0:0:
168,322,157699,5,2,0:0:0:0:
427,175,157832,2,0,P|427:131|405:87,1,89.999997253418,4|0,0:0|1:0,0:0:0:0:
407,90,158032,1,0,1:0:0:0:
407,90,158099,2,0,L|313:101,1,89.999997253418,0|0,1:0|1:0,0:0:0:0:
168,322,158365,5,8,0:0:0:0:
276,192,158499,1,0,1:0:0:0:
193,117,158632,1,8,0:3:0:0:
94,168,158765,1,4,0:3:0:0:
354,254,158899,6,0,P|370:165|315:98,2,179.999994506836,4|8|4,0:0|0:0|0:3,0:0:0:0:
197,354,159565,1,4,0:3:0:0:
192,171,159699,2,0,P|240:171|279:194,1,89.999997253418,8|4,0:0|0:3,0:0:0:0:
101,329,159965,6,0,L|76:209,1,89.999997253418,2|4,0:0|0:3,0:0:0:0:
131,0,160232,2,0,L|103:132,1,134.999995880127,8|0,0:0|0:0,0:0:0:0:
100,150,160499,1,4,0:3:0:0:
25,47,160632,1,4,0:3:0:0:
248,17,160765,1,8,0:0:0:0:
180,231,160899,1,2,0:0:0:0:
180,231,160965,1,0,0:0:0:0:
180,231,161032,6,0,P|246:166|360:186,1,179.999994506836,4|8,0:0|0:0,0:0:0:0:
379,250,161432,1,0,0:0:0:0:
183,325,161565,2,0,P|133:311|93:279,1,89.999997253418,4|4,0:3|0:3,0:0:0:0:
326,71,161832,2,0,P|376:85|416:117,1,89.999997253418,8|4,0:0|0:3,0:0:0:0:
304,339,162099,6,0,L|282:251,1,89.999997253418,2|2,0:0|0:0,0:0:0:0:
512,119,162365,2,0,L|476:261,1,134.999995880127,8|0,0:0|0:0,0:0:0:0:
473,264,162632,1,4,0:3:0:0:
406,106,162765,1,4,0:3:0:0:
490,364,162899,1,8,0:0:0:0:
490,364,163165,6,0,L|402:342,1,89.999997253418,4|0,0:0|0:0,0:0:0:0:
170,301,163432,2,0,P|245:294|289:220,1,134.999995880127,8|0,0:0|0:0,0:0:0:0:
285,233,163699,2,0,P|199:200|175:206,1,89.999997253418,4|4,0:3|0:3,0:0:0:0:
90,352,163965,1,8,0:0:0:0:
225,102,164099,6,0,P|152:119|101:227,1,179.999994506836,4|0,0:0|0:0,0:0:0:0:
367,314,164499,2,0,L|388:226,1,89.999997253418,8|0,0:0|0:0,0:0:0:0:
191,16,164765,1,4,0:3:0:0:
128,90,164899,1,4,0:3:0:0:
322,123,165032,2,0,P|314:63|270:18,1,89.999997253418,8|2,0:0|0:0,0:0:0:0:
23,103,165299,6,0,P|114:186|179:178,2,179.999994506836,4|8|4,0:0|0:0|0:3,0:0:0:0:
128,90,165965,1,4,0:3:0:0:
41,244,166099,1,8,0:0:0:0:
102,5,166232,6,0,P|170:15|218:78,1,134.999995880127,4|0,0:0|0:0,0:0:0:0:
219,78,166499,2,0,L|229:121,1,44.999998626709,0|0,1:0|1:0,0:0:0:0:
128,90,166632,5,2,1:3:0:0:
306,50,166765,1,2,1:3:0:0:
250,223,166899,2,0,P|220:254|218:280,1,44.999998626709,0|0,1:0|1:0,0:0:0:0:
225,227,167032,2,0,P|207:266|214:291,1,44.999998626709,0|0,1:0|1:0,0:0:0:0:
201,241,167165,2,0,P|205:283|224:302,1,44.999998626709,0|0,1:0|1:0,0:0:0:0:
177,264,167299,2,0,P|202:298|227:305,1,44.999998626709,0|0,1:0|1:0,0:0:0:0:
152,321,167432,6,0,L|316:362,1,170.000003242493,6|8,0:0|0:0,0:0:0:0:
431,214,167832,1,2,0:0:0:0:
431,214,167965,2,0,L|349:234,1,85.0000016212463,2|0,0:0|0:0,0:0:0:0:
422,383,168232,1,8,0:0:0:0:
512,171,168365,6,0,P|467:130|404:124,1,127.500002431869,2|0,0:0|0:0,0:0:0:0:
389,129,168632,2,0,L|306:150,1,85.0000016212463,2|8,0:0|0:0,0:0:0:0:
90,198,168899,2,0,P|163:181|206:125,1,127.500002431869,2|0,0:0|0:0,0:0:0:0:
203,126,169165,2,0,L|224:208,1,85.0000016212463,2|8,0:0|0:0,0:0:0:0:
389,378,169432,1,2,0:0:0:0:
389,378,169498,1,0,0:0:0:0:
389,378,169565,6,0,L|431:213,2,170.000003242493,4|8|4,0:0|0:0|0:3,0:0:0:0:
325,263,170232,1,4,0:3:0:0:
498,307,170365,1,8,0:0:0:0:
277,361,170498,6,0,P|232:289|230:205,1,170.000003242493,2|0,0:0|0:0,0:0:0:0:
395,37,170898,2,0,L|415:120,1,85.0000016212463,8|0,0:0|0:0,0:0:0:0:
325,263,171165,1,4,0:3:0:0:
325,263,171298,1,4,0:3:0:0:
235,90,171432,2,0,L|318:110,1,85.0000016212463,8|0,0:0|0:3,0:0:0:0:
318,110,171632,1,0,0:0:0:0:
318,110,171699,6,0,L|153:152,1,170.000003242493,6|8,0:0|0:0,0:0:0:0:
325,263,172098,1,2,0:0:0:0:
325,263,172232,2,0,L|242:242,1,85.0000016212463,2|0,0:0|0:0,0:0:0:0:
14,192,172498,1,8,0:0:0:0:
41,384,172632,6,0,P|77:333|75:232,1,127.500002431869,2|0,0:0|0:0,0:0:0:0:
79,253,172898,2,0,L|161:273,1,85.0000016212463,2|8,0:0|0:0,0:0:0:0:
221,96,173165,2,0,P|158:104|106:141,1,127.500002431869,2|0,0:0|0:0,0:0:0:0:
103,157,173432,2,0,L|185:178,1,85.0000016212463,2|8,0:0|0:0,0:0:0:0:
420,207,173698,1,2,0:0:0:0:
420,207,173765,1,0,0:0:0:0:
420,207,173832,6,0,L|255:249,2,170.000003242493,4|8|4,0:0|0:0|0:3,0:0:0:0:
362,128,174498,1,4,0:3:0:0:
287,344,174632,1,8,0:0:0:0:
499,159,174765,6,0,P|497:99|388:18,1,179.999994506836,4|0,0:0|0:0,0:0:0:0:
175,195,175165,2,0,B|214:217|214:217|275:201,1,89.999997253418,8|4,0:0|0:3,0:0:0:0:
293,12,175432,2,0,B|254:34|254:34|237:95,1,89.999997253418,8|4,0:0|0:3,0:0:0:0:
394,205,175699,2,0,B|393:160|393:160|349:115,1,89.999997253418,8|0,0:0|0:0,0:0:0:0:
98,154,175965,6,0,L|140:319,1,170.000003242493,6|0,0:0|0:0,0:0:0:0:
331,288,176365,1,2,0:0:0:0:
331,288,176498,2,0,L|248:267,1,85.0000016212463,2|0,0:0|0:0,0:0:0:0:
15,204,176765,1,8,0:0:0:0:
209,180,176899,6,0,P|255:138|272:77,1,127.500002431869,2|0,0:0|0:0,0:0:0:0:
269,61,177165,2,0,L|186:40,1,85.0000016212463,2|0,0:0|0:0,0:0:0:0:
130,241,177432,2,0,P|185:271|247:266,1,127.500002431869,2|0,0:0|0:0,0:0:0:0:
261,258,177698,2,0,L|344:279,1,85.0000016212463,2|0,0:0|0:0,0:0:0:0:
105,338,177965,1,2,0:0:0:0:
105,338,178032,1,0,0:0:0:0:
105,338,178098,6,0,L|63:173,2,170.000003242493,4|0|0,0:0|0:0|0:0,0:0:0:0:
176,234,178765,1,4,0:3:0:0:
16,354,178898,1,8,0:0:0:0:
7,86,179032,6,0,P|90:84|156:135,1,170.000003242493,2|0,0:0|0:0,0:0:0:0:
196,316,179432,2,0,L|175:233,1,85.0000016212463,8|0,0:0|0:0,0:0:0:0:
223,51,179698,1,4,0:3:0:0:
223,51,179832,1,4,0:3:0:0:
287,273,179965,2,0,L|266:190,1,85.0000016212463,8|0,0:0|0:0,0:0:0:0:
266,190,180165,1,0,0:0:0:0:
266,190,180232,6,0,P|354:204|426:157,1,170.000003242493,4|0,0:0|0:0,0:0:0:0:
334,110,180632,1,0,0:0:0:0:
461,323,180765,2,0,L|482:240,1,85.0000016212463,2|0,0:0|0:0,0:0:0:0:
416,69,181032,1,8,0:0:0:0:
281,285,181165,6,0,P|218:274|173:231,1,127.500002431869,2|0,0:0|0:0,0:0:0:0:
168,216,181432,2,0,L|147:133,1,85.0000016212463,2|0,0:0|0:0,0:0:0:0:
344,2,181698,2,0,P|281:12|236:55,1,127.500002431869,2|0,0:0|0:0,0:0:0:0:
232,70,181965,2,0,L|253:153,1,85.0000016212463,2|0,0:0|0:0,0:0:0:0:
452,218,182232,1,2,0:0:0:0:
416,69,182365,5,4,0:0:0:0:
401,86,183299,5,4,0:0:0:0:
135,273,184410,5,4,0:0:0:0:
256,192,184499,12,12,185565,0:0:0:0:
