osu file format v14

[General]
AudioFilename: savior.mp3
AudioLeadIn: 0
PreviewTime: 39062
Countdown: 0
SampleSet: Soft
StackLeniency: 0.4
Mode: 0
LetterboxInBreaks: 1
WidescreenStoryboard: 1

[Editor]
DistanceSpacing: 1
BeatDivisor: 4
GridSize: 4
TimelineZoom: 2.4

[Metadata]
Title:Savior
TitleUnicode:Savior
Artist:Rise Against
ArtistUnicode:Rise Against
Creator:pishifat
Version:Fiery's Insane
Source:
Tags:punk metal appeal to reason milan- smokeman fieryrage raiden
BeatmapID:1132873
BeatmapSetID:509675

[Difficulty]
HPDrainRate:6
CircleSize:3.5
OverallDifficulty:8
ApproachRate:9
SliderMultiplier:1.8
SliderTickRate:1

[Events]
//Background and Video events
0,0,"background.jpg",0,0
//Break Periods
2,82662,85195
2,120088,124386
2,129108,130661
2,135774,136935
//Storyboard Layer 0 (Background)
//Storyboard Layer 1 (Fail)
//Storyboard Layer 2 (Pass)
//Storyboard Layer 3 (Foreground)
//Storyboard Sound Samples

[TimingPoints]
321,331.491712707182,4,2,2,70,1,0
18717,-300,4,2,2,70,0,0
19878,-600,4,2,2,70,0,0
20209,-1000,4,2,2,25,0,0
20292,-1000,4,2,2,5,0,0
21536,-1000,4,2,2,5,0,0
21867,-1000,4,2,2,5,0,0
22779,-1000,4,2,2,5,0,0
22862,266.666666666667,4,2,2,70,1,1
22928,-100,4,2,2,70,0,0
39928,-125,4,2,2,70,0,0
39995,-125,4,2,2,60,0,0
48462,-111.111111111111,4,2,2,65,0,1
48528,-111.111111111111,4,2,2,65,0,0
56728,-111.111111111111,4,2,2,70,0,0
56862,-111.111111111111,4,2,2,40,0,0
56995,-500,4,2,2,40,0,0
57062,-500,4,2,2,5,0,0
57262,-100,4,2,2,70,0,1
57328,-100,4,2,2,70,0,0
61128,-100,4,2,2,30,0,0
61262,-500,4,2,2,40,0,0
61328,-500,4,2,2,5,0,0
61528,-100,4,2,2,70,0,1
61595,-100,4,2,2,70,0,0
63395,-500,4,2,2,70,0,0
63462,-500,4,2,2,45,0,0
64328,-500,4,2,2,5,0,0
64462,-50,4,2,2,70,0,0
64495,-50,4,2,2,5,0,0
64728,-100,4,2,2,70,0,0
65528,-83.3333333333333,4,2,2,70,0,1
73262,-100,4,2,2,70,0,0
74062,-83.3333333333333,4,2,2,70,0,1
80395,-83.3333333333333,4,2,2,70,0,0
80462,-83.3333333333333,4,2,2,70,0,1
80728,-125,4,2,2,55,0,0
81395,-100,4,2,2,70,0,1
81662,-100,4,2,2,5,0,1
81795,-125,4,2,2,55,0,0
82462,-100,4,2,2,60,0,1
82528,-100,4,2,2,70,0,0
85795,-100,4,2,2,25,0,0
85828,-100,4,2,2,10,0,0
86728,-125,4,2,2,60,0,1
86795,-125,4,2,2,60,0,0
88462,-83.3333333333333,4,2,2,60,0,0
88862,-125,4,2,2,60,0,0
90595,-83.3333333333333,4,2,2,60,0,0
90995,-125,4,2,2,60,0,0
92728,-83.3333333333333,4,2,2,60,0,0
93128,-125,4,2,2,60,0,0
94328,-125,4,2,2,70,0,0
96414,266.666666666667,4,2,2,70,1,1
96480,-100,4,2,2,70,0,0
96547,266.666666666667,4,2,2,70,1,0
104547,-125,4,2,2,70,0,0
104947,-100,4,2,2,70,0,1
105013,-100,4,2,2,70,0,0
112013,-125,4,2,2,70,0,0
112547,-166.666666666667,4,2,2,70,0,0
113080,-250,4,2,2,70,0,0
113614,392.156862745098,4,2,2,45,1,0
113614,-500,4,2,2,45,0,0
113810,-500,4,2,2,35,0,0
114790,-500,4,2,2,25,0,0
116751,-500,4,2,2,15,0,0
118319,-500,4,2,2,10,0,0
119496,-500,4,2,2,5,0,0
137535,-500,4,2,2,25,0,0
138319,-285.714285714286,4,2,2,45,0,0
138417,-285.714285714286,4,2,2,45,0,0
138614,-285.714285714286,4,2,2,5,0,0
138712,-200,4,2,2,45,0,0
145378,-200,4,2,2,25,0,0
146163,-200,4,2,2,5,0,0
146359,-200,4,2,2,45,0,0
148123,294.117647058824,4,2,2,45,1,0
148123,-500,4,2,2,45,0,0
148417,-500,4,2,2,25,0,0
149152,-500,4,2,2,5,0,0
149299,266.666666666667,4,2,2,60,1,0
149299,-50,4,2,2,60,0,0
149332,-100,4,2,2,5,0,0
149565,-100,4,2,2,35,0,0
150099,-200,4,2,2,35,0,0
150165,-200,4,2,2,5,0,0
150365,-83.3333333333333,4,2,2,70,0,1
157965,-83.3333333333333,4,2,2,70,0,1
158099,-100,4,2,2,70,0,0
158765,-100,4,2,2,70,0,0
158899,-83.3333333333333,4,2,2,70,0,1
166899,-100,4,2,2,70,0,0
167165,-100,4,2,2,70,0,0
167432,-83.3333333333333,4,2,2,70,0,1
175165,-83.3333333333333,4,2,2,70,0,0
175965,-83.3333333333333,4,2,2,70,0,1
182299,-83.3333333333333,4,2,2,70,0,0
182365,-83.3333333333333,4,2,2,70,0,1
182632,-125,4,2,2,55,0,0
183299,-100,4,2,2,70,0,1
183565,-100,4,2,2,5,0,1
183699,-125,4,2,2,55,0,0
184410,-200,4,2,2,70,0,1
184499,-200,4,2,2,5,0,1
185432,-125,4,2,2,55,0,1
185565,-125,4,2,2,70,0,0

[Colours]
Combo1 : 238,162,162
Combo2 : 194,185,154
Combo3 : 197,197,197
Combo4 : 174,203,255

[HitObjects]
352,316,20210,6,2,P|379:319|343:283,1,135,0|0,0:0|0:0,0:0:0:0:
267,374,22862,6,0,B|245:306|245:306|256:180,1,180,6|8,0:0|0:0,0:0:0:0:
339,57,23262,1,2,0:0:0:0:
339,57,23395,2,0,B|350:106|350:106|343:157,1,90,2|0,0:0|0:0,0:0:0:0:
158,218,23662,1,8,0:0:0:0:
110,133,23795,6,0,P|170:124|255:200,1,180,2|2,0:0|0:0,0:0:0:0:
122,322,24195,1,8,0:0:0:0:
122,322,24462,2,0,L|117:224,1,90,0|2,0:0|0:0,0:0:0:0:
259,108,24728,2,0,L|254:197,1,90,8|2,0:0|0:0,0:0:0:0:
25,151,24995,6,0,B|65:129|65:129|120:133,1,90,4|0,0:0|0:0,0:0:0:0:
214,297,25262,1,8,0:0:0:0:
214,297,25395,1,0,0:0:0:0:
117,232,25528,1,4,0:3:0:0:
253,197,25662,1,4,0:3:0:0:
112,345,25795,1,8,0:0:0:0:
274,174,25928,6,0,L|473:162,1,180,2|0,0:0|0:0,0:0:0:0:
386,323,26328,1,8,0:0:0:0:
386,323,26462,1,0,0:0:0:0:
461,254,26595,1,2,0:0:0:0:
461,254,26728,1,0,0:0:0:0:
253,197,26862,1,8,0:0:0:0:
253,197,27128,6,0,B|128:187|128:187|71:210,1,180,6|8,0:0|0:0,0:0:0:0:
29,376,27528,1,2,0:0:0:0:
29,376,27662,2,0,P|40:327|34:281,1,90,2|0,0:0|0:0,0:0:0:0:
0,102,27928,1,8,0:0:0:0:
99,92,28062,6,0,L|285:83,1,180,2|2,0:0|0:0,0:0:0:0:
465,144,28462,2,0,L|354:135,1,90,8|2,0:0|0:0,0:0:0:0:
225,214,28728,1,0,0:0:0:0:
301,175,28862,1,2,0:0:0:0:
148,155,28995,2,0,P|128:214|140:263,1,90,8|2,0:0|0:0,0:0:0:0:
287,354,29262,6,0,L|301:166,2,180,4|8|4,0:0|0:0|0:3,0:0:0:0:
198,341,29928,1,4,0:3:0:0:
108,325,30062,1,8,0:0:0:0:
80,161,30195,6,0,B|185:145|185:145|267:163,1,180,4|0,0:0|1:0,0:0:0:0:
300,174,30528,1,0,1:0:0:0:
300,174,30595,2,0,L|409:166,1,90,8|0,1:2|0:0,0:0:0:0:
492,309,30862,1,8,0:3:0:0:
492,309,30995,1,4,0:3:0:0:
363,300,31128,2,0,L|273:293,1,90,8|10,0:0|0:0,0:0:0:0:
389,167,31395,6,0,P|440:151|410:225,1,180,6|8,0:0|0:0,0:0:0:0:
257,160,31795,1,2,0:0:0:0:
257,160,31928,2,0,L|260:66,1,90,2|0,0:0|0:0,0:0:0:0:
397,30,32195,1,8,0:0:0:0:
259,70,32328,6,0,P|207:73|107:-3,1,180,2|2,0:0|0:0,0:0:0:0:
13,88,32728,1,8,0:0:0:0:
13,88,32995,2,0,L|17:183,1,90,0|2,0:0|0:0,0:0:0:0:
113,342,33262,2,0,L|116:252,1,90,8|2,0:0|0:0,0:0:0:0:
257,160,33528,5,4,0:0:0:0:
257,160,33662,1,0,0:0:0:0:
363,175,33795,1,8,0:0:0:0:
363,175,33928,1,0,0:0:0:0:
348,282,34062,5,4,0:3:0:0:
257,160,34195,1,4,0:3:0:0:
363,175,34328,1,8,0:0:0:0:
242,267,34462,2,0,B|148:290|159:238|49:268,1,180,2|0,0:0|0:0,0:0:0:0:
252,70,34862,6,0,L|257:172,1,90,8|0,0:0|0:0,0:0:0:0:
348,282,35128,1,2,0:0:0:0:
348,282,35262,1,0,0:0:0:0:
256,159,35395,2,0,B|209:148|209:148|155:159,1,90,8|0,0:0|0:0,0:0:0:0:
348,282,35662,6,0,P|383:216|356:107,1,180,4|8,0:0|0:0,0:0:0:0:
252,70,36062,1,2,0:0:0:0:
252,70,36195,2,0,L|257:165,2,90,2|0|8,0:0|0:0|0:0,0:0:0:0:
348,282,36595,6,0,L|352:192,1,90,2|0,0:0|0:0,0:0:0:0:
353,101,36862,1,2,0:0:0:0:
171,136,36995,2,0,P|231:159|273:156,1,90,8|2,0:0|0:0,0:0:0:0:
432,259,37262,2,0,P|387:262|347:281,1,90,0|2,0:0|0:0,0:0:0:0:
256,370,37528,1,8,0:0:0:0:
353,101,37795,6,0,L|346:287,2,180,4|8|4,0:0|0:0|0:3,0:0:0:0:
473,28,38462,1,4,0:3:0:0:
440,114,38595,1,8,0:0:0:0:
183,72,38728,6,0,P|241:61|353:101,1,180,4|0,0:0|1:0,0:0:0:0:
384,133,39062,1,0,1:0:0:0:
384,133,39128,2,0,L|390:234,1,90,8|0,1:2|0:0,0:0:0:0:
256,370,39395,2,0,L|261:280,1,90,8|8,0:0|0:3,0:0:0:0:
270,165,39662,1,4,0:3:0:0:
270,165,39795,1,4,0:3:0:0:
89,111,39928,6,0,B|104:181|104:181|172:226,1,144,4|8,0:0|0:0,0:0:0:0:
384,133,40462,2,0,L|300:127,1,72,8|0,0:3|0:3,0:0:0:0:
164,220,40728,1,8,0:0:0:0:
164,220,40862,6,0,L|325:213,1,144,4|0,0:3|0:0,0:0:0:0:
442,208,41262,1,8,0:0:0:0:
442,208,41528,2,0,B|462:241|462:241|460:276,1,72,4|0,0:3|0:0,0:0:0:0:
307,213,41795,2,0,B|305:178|305:178|324:145,1,72,8|0,0:0|0:0,0:0:0:0:
455,47,42062,6,0,L|303:53,1,144,4|8,0:3|0:0,0:0:0:0:
106,75,42595,1,8,0:3:0:0:
106,75,42728,1,0,0:0:0:0:
185,17,42862,1,8,0:0:0:0:
194,141,42995,6,0,L|202:288,1,144,4|0,0:3|0:0,0:0:0:0:
387,163,43395,1,8,0:0:0:0:
387,163,43662,2,0,P|343:155|308:159,1,72,4|0,0:3|0:0,0:0:0:0:
410,292,43928,2,0,P|445:293|480:286,1,72,8|0,0:0|0:0,0:0:0:0:
247,218,44195,5,4,0:3:0:0:
247,218,44462,2,0,B|184:229|184:229|72:215,1,144,8|8,0:0|0:3,0:0:0:0:
15,159,44862,1,0,0:0:0:0:
153,109,44995,1,8,0:0:0:0:
15,159,45128,6,0,P|2:203|36:304,1,144,4|0,0:3|0:0,0:0:0:0:
212,348,45528,1,8,0:0:0:0:
212,348,45795,2,0,L|216:258,1,72,4|0,0:3|0:0,0:0:0:0:
132,95,46062,2,0,L|135:166,1,72,8|0,0:0|0:0,0:0:0:0:
321,253,46328,6,0,P|383:254|460:201,1,144,4|8,0:3|0:0,0:0:0:0:
240,24,46862,2,0,L|236:95,1,72,8|0,0:3|0:0,0:0:0:0:
231,214,47128,1,8,0:0:0:0:
231,214,47262,1,4,0:3:0:0:
480,169,47528,5,0,0:0:0:0:
480,169,47662,2,0,L|399:171,1,72,8|0,0:0|0:0,0:0:0:0:
231,214,47928,2,0,L|312:216,1,72,8|0,0:3|0:3,0:0:0:0:
431,336,48195,1,8,0:0:0:0:
431,336,48462,6,0,B|451:258|451:258|440:159,1,161.999995056153,4|8,0:0|0:0,0:0:0:0:
311,211,48862,1,0,0:0:0:0:
311,211,48995,2,0,L|224:214,2,80.9999975280763,8|0|8,0:3|0:0|0:0,0:0:0:0:
442,177,49395,6,0,P|477:138|406:140,1,161.999995056153,4|0,0:3|0:0,0:0:0:0:
308,291,49795,2,0,L|311:204,1,80.9999975280763,8|0,0:0|0:0,0:0:0:0:
432,369,50062,2,0,L|429:282,1,80.9999975280763,4|0,0:3|0:0,0:0:0:0:
406,136,50328,1,8,0:0:0:0:
406,136,50462,1,0,0:0:0:0:
310,210,50595,6,0,B|217:226|217:226|149:214,1,161.999995056153,4|8,0:3|0:0,0:0:0:0:
29,266,50995,1,0,0:0:0:0:
29,266,51128,2,0,L|25:354,1,80.9999975280763,8|0,0:3|0:0,0:0:0:0:
150,214,51395,2,0,L|146:133,1,80.9999975280763,8|0,0:0|0:0,0:0:0:0:
261,301,51662,6,0,P|312:313|353:305,1,80.9999975280763,4|0,0:3|0:0,0:0:0:0:
506,231,51928,2,0,P|465:227|427:239,1,80.9999975280763,8|0,0:0|0:0,0:0:0:0:
305,174,52195,1,4,0:3:0:0:
305,174,52328,1,0,0:0:0:0:
427,238,52462,1,8,0:0:0:0:
427,238,52595,1,0,0:0:0:0:
305,174,52728,6,0,B|240:186|240:186|143:161,1,161.999995056153,4|8,0:3|0:0,0:0:0:0:
270,56,53128,1,0,0:0:0:0:
270,56,53262,2,0,L|371:52,2,80.9999975280763,8|0|8,0:3|0:0|0:0,0:0:0:0:
147,162,53662,6,0,B|132:233|132:233|142:350,1,161.999995056153,4|0,0:3|0:0,0:0:0:0:
286,371,54062,2,0,P|288:326|278:285,1,80.9999975280763,8|4,0:0|0:3,0:0:0:0:
238,192,54328,1,0,0:0:0:0:
238,192,54462,1,0,0:0:0:0:
373,218,54595,2,0,L|473:214,1,80.9999975280763,8|0,0:0|0:0,0:0:0:0:
238,192,54862,6,0,L|138:188,1,80.9999975280763,4|0,0:3|0:0,0:0:0:0:
0,117,55128,1,8,0:0:0:0:
0,117,55395,2,0,B|39:101|39:101|94:104,2,80.9999975280763,8|0|8,0:3|0:0|0:0,0:0:0:0:
43,351,55795,6,0,L|50:189,1,161.999995056153,0|0,0:0|0:0,0:0:0:0:
232,291,56195,2,0,P|181:309|146:307,1,80.9999975280763,8|0,0:0|0:0,0:0:0:0:
238,192,56462,1,4,0:3:0:0:
345,247,56595,1,0,0:0:0:0:
154,308,56728,2,0,P|115:301|74:276,1,80.9999975280763,8|0,1:2|0:0,0:0:0:0:
345,247,56995,6,0,L|343:216,1,27,2|0,0:0|0:0,0:0:0:0:
345,247,57262,6,0,B|338:141|338:141|308:68,1,180,12|4,0:0|0:3,0:0:0:0:
148,196,57662,1,0,0:0:0:0:
148,196,57795,2,0,L|246:191,1,90,8|0,0:0|0:0,0:0:0:0:
458,267,58062,6,0,L|360:262,1,90,2|0,0:0|0:0,0:0:0:0:
206,328,58328,2,0,P|125:289|27:297,1,180,8|4,0:0|0:3,0:0:0:0:
143,106,58728,1,0,0:0:0:0:
143,106,58862,2,0,L|148:201,1,90,8|0,0:0|0:0,0:0:0:0:
341,294,59128,6,0,P|396:300|340:253,1,180,4|8,0:0|0:0,0:0:0:0:
206,328,59528,1,0,0:0:0:0:
206,328,59662,2,0,L|201:226,1,90,4|0,0:3|0:0,0:0:0:0:
317,59,59928,2,0,L|312:148,1,90,8|0,0:0|0:0,0:0:0:0:
171,254,60195,6,0,P|123:261|73:244,1,90,2|0,0:0|0:0,0:0:0:0:
317,59,60462,2,0,B|334:137|334:137|327:251,1,180,8|4,0:0|0:3,0:0:0:0:
320,333,60862,1,0,0:0:0:0:
171,254,60995,2,0,P|159:200|169:159,1,90,8|0,0:0|0:0,0:0:0:0:
320,333,61262,6,0,L|352:330,1,27,2|0,0:0|0:0,0:0:0:0:
320,333,61528,6,0,B|425:319|425:319|485:271,1,180,12|4,0:0|0:3,0:0:0:0:
416,94,61928,1,0,0:0:0:0:
416,94,62062,2,0,L|411:183,1,90,8|0,0:0|0:0,0:0:0:0:
320,333,62328,6,0,P|301:288|299:239,1,90,2|0,0:0|0:0,0:0:0:0:
504,187,62595,2,0,P|500:231|482:272,1,90,8|0,0:0|0:0,0:0:0:0:
224,199,62862,1,4,0:3:0:0:
224,199,62995,1,0,0:0:0:0:
416,94,63128,1,8,0:0:0:0:
416,94,63395,6,0,B|404:196|404:196|383:167,1,135,4|0,0:0|0:0,0:0:0:0:
298,201,64462,6,0,L|303:116,1,45,4|0,0:0|0:0,0:0:0:0:
301,157,65528,6,0,B|200:173|200:173|75:133,1,215.999993408203,4|8,0:0|0:0,0:0:0:0:
32,272,65928,1,0,0:0:0:0:
32,272,66062,2,0,L|36:385,1,107.999996704102,4|4,0:3|0:3,0:0:0:0:
202,202,66328,2,0,L|205:94,1,107.999996704102,8|4,0:0|0:3,0:0:0:0:
50,119,66595,5,2,0:0:0:0:
50,119,66728,1,4,0:3:0:0:
202,202,66862,2,0,L|199:310,1,107.999996704102,8|0,0:0|0:0,0:0:0:0:
50,119,67128,2,0,B|97:89|97:89|155:86,1,107.999996704102,4|4,0:3|0:3,0:0:0:0:
301,234,67395,2,0,B|248:231|248:231|201:201,1,107.999996704102,8|2,0:0|0:0,0:0:0:0:
424,78,67662,6,0,L|433:301,1,215.999993408203,4|8,0:0|0:0,0:0:0:0:
195,237,68062,1,0,0:0:0:0:
195,237,68195,2,0,P|254:226|300:233,1,107.999996704102,4|4,0:3|0:3,0:0:0:0:
434,334,68462,1,8,0:0:0:0:
434,334,68595,1,4,0:3:0:0:
435,203,68728,6,0,L|438:95,1,107.999996704102,2|4,0:0|0:3,0:0:0:0:
250,226,68995,2,0,L|254:334,1,107.999996704102,8|0,0:0|0:0,0:0:0:0:
349,66,69262,2,0,B|300:45|300:45|242:53,1,107.999996704102,4|4,0:3|0:3,0:0:0:0:
32,144,69528,1,8,0:0:0:0:
32,144,69795,6,0,L|258:153,1,215.999993408203,4|8,0:0|0:0,0:0:0:0:
435,203,70195,1,0,0:0:0:0:
435,203,70328,2,0,B|381:209|381:209|320:193,2,107.999996704102,4|4|8,0:3|0:3|0:0,0:0:0:0:
278,86,70728,6,0,P|218:152|241:283,1,215.999993408203,4|4,0:3|0:3,0:0:0:0:
434,361,71128,1,8,0:0:0:0:
434,361,71395,2,0,L|437:240,1,107.999996704102,4|4,0:3|0:3,0:0:0:0:
278,86,71662,2,0,L|280:193,1,107.999996704102,8|2,0:0|0:0,0:0:0:0:
472,30,71928,5,4,0:0:0:0:
472,30,72195,2,0,B|417:22|417:22|363:41,1,107.999996704102,8|0,0:0|0:0,0:0:0:0:
175,185,72462,2,0,B|224:202|224:202|279:194,1,107.999996704102,4|4,0:3|0:3,0:0:0:0:
386,143,72728,1,8,0:0:0:0:
146,60,72862,6,0,L|151:179,1,107.999996704102,2|4,0:0|0:0,0:0:0:0:
269,351,73128,2,0,L|273:273,2,53.9999983520508,0|0|0,1:0|1:0|1:0,0:0:0:0:
279,193,73395,1,0,1:0:0:0:
453,246,73528,6,0,L|354:251,1,90,8|4,0:3|0:3,0:0:0:0:
463,40,73795,1,8,0:0:0:0:
497,132,73928,1,8,0:0:0:0:
279,193,74062,6,0,P|211:150|295:144,1,215.999993408203,4|8,0:0|0:0,0:0:0:0:
453,246,74462,1,0,0:0:0:0:
453,246,74595,2,0,L|338:252,1,107.999996704102,4|4,0:3|0:3,0:0:0:0:
161,345,74862,2,0,L|276:351,1,107.999996704102,8|4,0:0|0:3,0:0:0:0:
453,246,75128,6,0,B|471:195|471:195|465:133,1,107.999996704102,2|4,0:0|0:3,0:0:0:0:
256,245,75395,2,0,B|250:298|250:298|268:349,1,107.999996704102,8|0,0:0|0:0,0:0:0:0:
384,178,75662,1,4,0:3:0:0:
384,178,75795,1,4,0:3:0:0:
256,245,75928,2,0,L|148:249,1,107.999996704102,8|2,0:0|0:0,0:0:0:0:
268,349,76195,6,0,L|376:354,1,107.999996704102,4|0,0:0|0:0,0:0:0:0:
43,266,76462,1,8,0:0:0:0:
43,266,76728,2,0,P|106:246|153:250,1,107.999996704102,4|4,0:3|0:3,0:0:0:0:
384,178,76995,2,0,P|330:179|279:160,1,107.999996704102,8|4,0:0|0:3,0:0:0:0:
119,8,77262,6,0,L|127:131,1,107.999996704102,2|4,0:0|0:3,0:0:0:0:
272,268,77528,2,0,L|279:160,1,107.999996704102,8|0,0:0|0:0,0:0:0:0:
60,237,77795,1,4,0:3:0:0:
60,237,77928,1,4,0:3:0:0:
214,351,78062,1,8,0:0:0:0:
214,351,78328,6,0,B|334:382|313:321|430:350,1,215.999993408203,4|8,0:0|0:0,0:0:0:0:
458,88,78862,2,0,L|454:204,2,107.999996704102,4|4|8,0:3|0:3|0:0,0:0:0:0:
278,160,79262,6,0,P|220:141|302:123,1,215.999993408203,4|4,0:3|0:3,0:0:0:0:
369,303,79662,1,8,0:0:0:0:
369,303,79928,2,0,L|483:307,1,107.999996704102,4|4,0:3|0:3,0:0:0:0:
278,160,80195,2,0,L|164:164,1,107.999996704102,8|0,0:0|0:0,0:0:0:0:
25,338,80462,6,0,B|13:208|13:208|37:112,1,215.999993408203,4|0,0:0|0:0,0:0:0:0:
278,160,81395,6,0,P|199:184|273:114,1,270,6|0,0:0|0:0,0:0:0:0:
369,303,82062,6,0,L|375:220,2,72,8|8|4,0:0|0:3|0:3,0:0:0:0:
382,114,82462,1,4,0:0:0:0:
382,114,85795,6,2,L|420:111,24,22.5,2|0|0|0|0|0|0|0|0|0|0|0|0|0|0|0|0|0|0|0|0|0|0|0|0,0:0|0:0|0:0|0:0|0:0|0:0|0:0|0:0|0:0|0:0|0:0|0:0|0:0|0:0|0:0|0:0|0:0|0:0|0:0|0:0|0:0|0:0|0:0|0:0|0:0,0:0:0:0:
278,160,86728,6,0,B|261:262|261:262|288:377,1,216,4|4,0:0|0:3,0:0:0:0:
468,288,87395,1,8,0:0:0:0:
468,288,87662,1,4,0:3:0:0:
197,265,87928,2,0,L|342:259,1,144,8|4,0:3|0:3,0:0:0:0:
488,106,88462,5,8,0:0:0:0:
468,288,88595,1,8,0:0:0:0:
468,288,88862,6,0,B|293:298|293:298|333:269,1,216,4|4,0:0|0:3,0:0:0:0:
167,181,89528,1,8,0:0:0:0:
167,181,89795,1,4,0:3:0:0:
310,32,90062,2,0,L|319:183,1,144,8|4,0:3|0:3,0:0:0:0:
154,332,90595,5,8,0:0:0:0:
167,181,90728,1,8,0:0:0:0:
291,268,90862,1,8,0:0:0:0:
154,332,90995,6,0,B|59:319|59:319|11:281,1,144,4|0,0:0|0:0,0:0:0:0:
94,236,91395,1,4,0:0:0:0:
94,236,91662,2,0,L|87:87,1,144,8|4,0:0|0:3,0:0:0:0:
295,189,92195,2,0,L|288:332,1,144,8|4,0:3|0:3,0:0:0:0:
184,133,92728,5,8,0:0:0:0:
373,95,92862,1,8,0:0:0:0:
373,95,93128,6,0,B|410:205|341:197|384:321,1,216,4|4,0:0|0:3,0:0:0:0:
94,236,93795,2,0,B|167:216|167:216|246:226,1,144,8|4,0:0|0:3,0:0:0:0:
379,307,94195,2,0,L|323:309,1,36,4|4,0:3|0:3,0:0:0:0:
405,181,94328,6,0,L|524:187,3,108,8|12|12|12,0:0|0:0|0:0|0:0,0:0:0:0:
405,181,96414,6,0,B|312:191|312:191|227:141,1,180,4|0,0:0|0:0,0:0:0:0:
45,114,96813,2,0,L|153:110,1,90,8|0,0:0|0:0,0:0:0:0:
246,259,97080,2,0,L|138:255,1,90,4|4,0:3|0:3,0:0:0:0:
230,46,97347,1,8,0:0:0:0:
230,46,97613,6,0,L|338:42,2,90,4|4|8,0:3|0:3|0:0,0:0:0:0:
45,114,98013,1,0,0:0:0:0:
44,113,98147,2,0,L|134:117,1,90,4|4,0:3|0:3,0:0:0:0:
314,189,98413,1,8,0:0:0:0:
209,361,98547,6,0,B|199:251|199:251|221:171,1,180,4|0,0:0|0:0,0:0:0:0:
402,181,98947,2,0,P|355:192|297:183,1,90,8|0,0:0|0:0,0:0:0:0:
133,116,99213,1,4,0:3:0:0:
133,116,99347,1,4,0:3:0:0:
230,46,99480,2,0,L|338:42,1,90,8|0,0:0|0:0,0:0:0:0:
491,184,99747,6,0,L|383:180,1,90,4|4,0:3|0:3,0:0:0:0:
224,151,100013,1,8,0:0:0:0:
224,151,100280,1,4,0:3:0:0:
312,114,100413,1,4,0:3:0:0:
262,284,100547,1,8,0:0:0:0:
322,87,100680,6,0,B|394:64|394:64|500:84,1,180,4|0,0:0|0:0,0:0:0:0:
405,269,101080,2,0,B|395:225|395:225|401:173,1,90,8|0,0:0|0:0,0:0:0:0:
496,83,101347,1,4,0:3:0:0:
496,83,101480,1,4,0:3:0:0:
312,114,101613,2,0,P|265:120|211:109,1,90,8|0,0:0|0:0,0:0:0:0:
88,35,101880,5,4,0:3:0:0:
63,207,102013,1,4,0:3:0:0:
93,4,102147,1,8,0:0:0:0:
312,114,102413,5,4,0:3:0:0:
312,114,102547,1,4,0:3:0:0:
192,51,102680,1,8,0:0:0:0:
393,20,102813,6,0,B|417:97|417:97|409:215,1,180,4|0,0:0|0:0,0:0:0:0:
424,339,103213,2,0,P|467:350|511:347,1,90,8|0,0:0|0:0,0:0:0:0:
310,274,103480,2,0,P|266:271|223:283,1,90,4|4,0:3|0:3,0:0:0:0:
58,384,103747,1,4,0:0:0:0:
58,384,104013,6,0,P|37:348|32:300,1,90,0|0,1:0|1:0,0:0:0:0:
54,261,104213,1,0,1:0:0:0:
54,261,104280,2,0,B|98:247|98:247|149:253,1,90,0|0,1:0|1:0,0:0:0:0:
310,274,104547,6,0,L|257:276,5,36,4|0|0|0|0|0,1:3|1:0|1:0|1:0|1:0|1:0,0:0:0:0:
410,196,104947,6,0,P|439:199|383:228,1,180,4|0,0:0|0:0,0:0:0:0:
476,84,105347,1,8,0:0:0:0:
476,84,105613,2,0,L|366:80,1,90,4|4,0:3|0:3,0:0:0:0:
144,145,105880,2,0,L|254:141,1,90,8|0,0:0|0:0,0:0:0:0:
384,242,106147,6,0,P|399:285|401:333,1,90,4|4,0:3|0:3,0:0:0:0:
216,228,106413,2,0,P|218:183|233:140,1,90,8|0,0:0|0:0,0:0:0:0:
386,80,106680,1,4,0:3:0:0:
386,80,106813,1,4,0:3:0:0:
186,24,106947,1,8,0:0:0:0:
414,88,107080,6,0,B|447:149|447:149|459:270,1,180,4|0,0:0|0:0,0:0:0:0:
324,359,107480,2,0,P|272:331|222:324,1,90,8|0,0:0|0:0,0:0:0:0:
54,261,107747,2,0,P|97:249|135:226,1,90,4|4,0:3|0:3,0:0:0:0:
253,76,108013,1,8,0:0:0:0:
253,76,108280,6,0,L|442:71,1,180,4|8,0:3|0:0,0:0:0:0:
365,232,108680,1,0,0:0:0:0:
303,159,108813,1,4,0:3:0:0:
303,159,108947,1,4,0:3:0:0:
474,204,109080,1,8,0:0:0:0:
250,263,109213,6,0,B|154:272|154:272|63:245,1,180,4|0,0:0|0:0,0:0:0:0:
168,91,109613,1,8,0:0:0:0:
168,91,109880,2,0,P|217:86|262:98,1,90,4|4,0:3|0:3,0:0:0:0:
474,204,110147,2,0,P|430:213|385:208,1,90,8|0,0:0|0:0,0:0:0:0:
258,346,110413,5,4,0:3:0:0:
258,346,110547,1,4,0:3:0:0:
267,219,110680,1,8,0:0:0:0:
107,174,110947,5,4,0:3:0:0:
107,174,111081,1,4,0:3:0:0:
98,47,111214,1,8,0:0:0:0:
98,47,111480,6,0,L|112:231,1,180,4|0,0:0|0:0,0:0:0:0:
196,65,112013,6,0,L|210:240,1,144,4|0,0:0|0:0,0:0:0:0:
292,79,112547,6,0,L|302:199,1,107.999996704102,4|0,0:0|0:0,0:0:0:0:
388,93,113080,6,0,L|395:176,1,72,4|0,0:0|0:0,0:0:0:0:
410,345,113614,5,4,0:0:0:0:
256,192,113712,12,0,119888,0:0:0:0:
256,192,124986,12,0,128908,0:0:0:0:
256,192,131261,12,0,135574,0:0:0:0:
410,345,137535,6,0,L|415:303,1,36,0|0,0:0|0:0,0:0:0:0:
439,173,138319,6,0,L|445:226,1,47.2499985580445,0|0,0:0|0:0,0:0:0:0:
453,295,138712,5,4,0:3:0:0:
453,295,139496,6,0,P|415:301|319:266,1,135,2|0,0:0|0:0,0:0:0:0:
232,233,140280,2,0,L|138:236,2,90,0|0|0,0:0|0:0|0:0,0:0:0:0:
371,141,141457,1,4,0:3:0:0:
371,141,141849,6,0,P|377:95|357:40,1,90,4|0,0:3|0:0,0:0:0:0:
237,145,142633,2,0,P|225:188|231:232,1,90,2|0,0:0|0:0,0:0:0:0:
165,293,143221,1,0,3:0:0:0:
165,293,143417,6,0,L|112:295,1,45,0|0,0:0|3:0,0:0:0:0:
252,324,143810,2,0,L|305:326,1,45,0|0,0:0|0:0,0:0:0:0:
408,329,144202,5,0,3:0:0:0:
371,141,144594,1,4,0:3:0:0:
371,141,144986,6,0,B|202:177|222:97|56:134,1,315,4|0,0:3|3:0,0:0:0:0:
66,257,146555,6,0,P|71:233|68:199,1,45,0|0,0:0|3:0,0:0:0:0:
200,294,146947,2,0,L|196:394,1,90,0|0,0:0|3:0,0:0:0:0:
344,237,147731,1,4,0:3:0:0:
344,237,148123,6,0,P|366:260|306:265,1,135,4|0,0:3|0:0,0:0:0:0:
202,199,149299,6,0,L|282:196,1,45,4|0,0:0|0:0,0:0:0:0:
323,80,149565,5,0,0:0:0:0:
323,80,149832,1,0,0:0:0:0:
204,86,150099,6,0,L|132:89,1,67.5,0|0,0:0|0:0,0:0:0:0:
108,90,150365,6,0,L|328:80,1,215.999993408203,4|8,0:0|0:0,0:0:0:0:
480,112,150765,1,0,0:0:0:0:
480,112,150899,2,0,P|496:68|491:4,1,107.999996704102,0|4,0:3|0:3,0:0:0:0:
310,182,151165,2,0,P|305:235|322:286,1,107.999996704102,8|4,0:0|0:3,0:0:0:0:
462,265,151432,5,2,0:0:0:0:
462,265,151565,1,4,0:3:0:0:
310,182,151699,2,0,L|313:74,1,107.999996704102,8|0,0:0|0:0,0:0:0:0:
462,265,151965,2,0,B|415:295|415:295|357:298,1,107.999996704102,4|4,0:3|0:3,0:0:0:0:
211,150,152232,2,0,B|264:153|264:153|311:183,1,107.999996704102,8|2,0:0|0:0,0:0:0:0:
88,306,152499,6,0,L|79:83,1,215.999993408203,4|8,0:0|0:0,0:0:0:0:
317,147,152899,1,0,0:0:0:0:
317,147,153032,2,0,P|258:158|212:151,1,107.999996704102,4|4,0:3|0:3,0:0:0:0:
78,50,153299,1,8,0:0:0:0:
78,50,153432,1,4,0:3:0:0:
77,181,153565,6,0,L|74:289,1,107.999996704102,2|4,0:0|0:3,0:0:0:0:
262,158,153832,2,0,L|258:50,1,107.999996704102,8|0,0:0|0:0,0:0:0:0:
163,318,154099,2,0,B|212:339|212:339|270:331,1,107.999996704102,4|4,0:3|0:3,0:0:0:0:
480,240,154365,1,8,0:0:0:0:
480,240,154632,6,0,L|254:231,1,215.999993408203,4|8,0:0|0:0,0:0:0:0:
77,181,155032,1,0,0:0:0:0:
77,181,155165,2,0,B|131:175|131:175|192:191,2,107.999996704102,0|4|8,0:3|0:3|0:0,0:0:0:0:
234,298,155565,6,0,P|294:232|271:101,1,215.999993408203,4|4,0:3|0:3,0:0:0:0:
78,23,155965,1,8,0:0:0:0:
78,23,156232,2,0,L|75:144,1,107.999996704102,4|4,0:3|0:3,0:0:0:0:
234,298,156499,2,0,L|232:191,1,107.999996704102,8|2,0:0|0:0,0:0:0:0:
40,354,156765,5,4,0:0:0:0:
40,354,157032,2,0,B|95:362|95:362|149:343,1,107.999996704102,8|0,0:0|0:0,0:0:0:0:
337,199,157299,2,0,B|288:182|288:182|233:190,1,107.999996704102,4|4,0:3|0:3,0:0:0:0:
126,241,157565,1,8,0:0:0:0:
366,324,157699,6,0,L|361:205,1,107.999996704102,2|4,0:0|0:0,0:0:0:0:
243,33,157965,2,0,L|239:111,2,53.9999983520508,0|0|0,1:0|1:0|1:0,0:0:0:0:
233,191,158232,1,0,1:0:0:0:
59,138,158365,6,0,L|158:133,1,90,8|0,0:0|1:0,0:0:0:0:
49,344,158632,1,8,0:3:0:0:
15,252,158765,1,4,0:3:0:0:
233,191,158899,6,0,P|301:234|217:240,1,215.999993408203,4|8,0:0|0:0,0:0:0:0:
59,138,159299,1,0,0:0:0:0:
59,138,159432,2,0,L|174:132,1,107.999996704102,4|4,0:3|0:3,0:0:0:0:
351,39,159699,2,0,L|236:33,1,107.999996704102,8|4,0:0|0:3,0:0:0:0:
59,138,159965,6,0,B|41:189|41:189|47:251,1,107.999996704102,2|4,0:0|0:3,0:0:0:0:
256,139,160232,2,0,B|262:86|262:86|244:35,1,107.999996704102,8|0,0:0|0:0,0:0:0:0:
128,206,160499,1,4,0:3:0:0:
128,206,160632,1,4,0:3:0:0:
256,139,160765,2,0,L|364:135,1,107.999996704102,8|2,0:0|0:0,0:0:0:0:
244,35,161032,6,0,L|136:30,1,107.999996704102,4|0,0:0|0:0,0:0:0:0:
469,118,161299,1,8,0:0:0:0:
469,118,161565,2,0,P|406:138|359:134,1,107.999996704102,4|4,0:3|0:3,0:0:0:0:
128,206,161832,2,0,P|182:205|233:224,1,107.999996704102,8|4,0:0|0:3,0:0:0:0:
393,376,162099,6,0,L|385:253,1,107.999996704102,2|2,0:0|0:0,0:0:0:0:
240,116,162365,2,0,L|233:224,1,107.999996704102,8|0,0:0|0:0,0:0:0:0:
452,147,162632,1,4,0:3:0:0:
452,147,162765,1,4,0:3:0:0:
298,33,162899,1,8,0:0:0:0:
298,33,163165,6,0,B|178:2|199:63|82:34,1,215.999993408203,4|8,0:0|0:0,0:0:0:0:
54,296,163699,2,0,L|58:180,2,107.999996704102,4|4|8,0:3|0:3|0:0,0:0:0:0:
234,224,164099,6,0,P|292:243|210:261,1,215.999993408203,4|0,0:0|0:0,0:0:0:0:
143,81,164499,1,8,0:0:0:0:
143,81,164765,2,0,L|29:77,1,107.999996704102,4|4,0:3|0:3,0:0:0:0:
234,224,165032,2,0,L|348:220,1,107.999996704102,8|2,0:0|0:0,0:0:0:0:
487,46,165299,6,0,P|474:107|511:256,1,215.999993408203,4|8,0:0|0:0,0:0:0:0:
363,341,165699,1,0,0:0:0:0:
363,341,165832,2,0,L|249:335,1,107.999996704102,4|4,0:3|0:3,0:0:0:0:
54,296,166099,1,8,0:0:0:0:
248,174,166232,6,0,P|299:173|232:218,1,215.999993408203,4|0,0:0|1:0,0:0:0:0:
156,176,166565,1,0,1:0:0:0:
156,176,166632,2,0,L|159:67,1,107.999996704102,2|2,1:3|1:3,0:0:0:0:
342,10,166899,6,0,L|344:55,3,45,0|0|0|0,1:0|1:0|1:0|0:0,0:0:0:0:
248,174,167165,2,0,L|250:126,3,45,0|0|0|0,1:0|1:0|1:0|1:0,0:0:0:0:
411,145,167432,6,0,B|447:221|447:221|437:357,1,215.999993408203,6|8,0:0|0:0,0:0:0:0:
175,288,167832,1,2,0:0:0:0:
175,288,167965,2,0,P|232:268|283:273,1,107.999996704102,2|0,0:0|0:0,0:0:0:0:
384,295,168232,1,8,0:0:0:0:
455,219,168365,6,0,P|378:195|277:275,1,215.999993408203,2|2,0:0|0:0,0:0:0:0:
158,68,168765,1,8,0:0:0:0:
158,68,169032,2,0,B|97:74|97:74|46:100,1,107.999996704102,0|2,0:0|0:0,0:0:0:0:
308,173,169299,2,0,B|369:167|369:167|410:145,1,107.999996704102,8|2,0:0|0:0,0:0:0:0:
174,345,169565,6,0,L|178:224,1,107.999996704102,4|0,0:0|0:0,0:0:0:0:
253,91,169832,1,8,0:0:0:0:
253,91,169965,1,0,0:0:0:0:
121,151,170099,1,4,0:3:0:0:
300,201,170232,1,4,0:3:0:0:
95,145,170365,1,8,0:0:0:0:
360,82,170499,6,0,B|401:163|401:163|412:296,1,215.999993408203,2|0,0:0|0:0,0:0:0:0:
200,233,170899,2,0,P|251:205|310:202,1,107.999996704102,8|0,0:0|0:0,0:0:0:0:
174,345,171165,2,0,P|120:339|74:312,1,107.999996704102,4|4,0:3|0:3,0:0:0:0:
149,65,171432,1,8,0:0:0:0:
149,65,171699,6,0,B|279:52|279:52|380:89,1,215.999993408203,6|8,0:0|0:0,0:0:0:0:
278,260,172099,1,2,0:0:0:0:
278,260,172232,2,0,L|272:139,1,107.999996704102,2|0,0:0|0:0,0:0:0:0:
494,217,172499,1,8,0:0:0:0:
282,371,172632,6,0,P|223:358|173:220,1,215.999993408203,2|2,0:0|0:0,0:0:0:0:
359,81,173032,1,8,0:0:0:0:
359,81,173299,2,0,L|481:77,1,107.999996704102,0|2,0:0|0:0,0:0:0:0:
278,228,173565,2,0,L|156:224,1,107.999996704102,8|2,0:0|0:0,0:0:0:0:
72,44,173832,6,0,P|112:48|45:78,1,215.999993408203,4|8,0:0|0:0,0:0:0:0:
281,120,174232,1,0,0:0:0:0:
281,120,174365,2,0,L|277:253,2,107.999996704102,4|4|8,0:3|0:3|0:0,0:0:0:0:
97,261,174765,6,0,P|57:265|124:295,1,215.999993408203,4|0,0:0|0:0,0:0:0:0:
277,227,175165,1,8,0:0:0:0:
277,227,175299,1,4,0:3:0:0:
128,149,175432,1,8,0:0:0:0:
128,149,175565,1,4,0:3:0:0:
365,52,175699,1,8,0:0:0:0:
365,52,175965,6,0,B|402:126|402:126|412:280,1,215.999993408203,6|8,0:0|0:0,0:0:0:0:
169,231,176365,1,2,0:0:0:0:
169,231,176499,2,0,L|285:226,2,107.999996704102,2|0|8,0:0|0:0|0:0,0:0:0:0:
33,75,176899,6,0,P|83:46|44:122,1,215.999993408203,2|2,0:0|0:0,0:0:0:0:
237,41,177299,2,0,B|246:98|246:98|234:157,1,107.999996704102,8|2,0:0|0:0,0:0:0:0:
84,324,177565,2,0,B|73:274|73:274|82:217,1,107.999996704102,0|2,0:0|0:0,0:0:0:0:
289,293,177832,1,8,0:0:0:0:
267,379,177965,1,2,0:0:0:0:
191,217,178099,6,0,B|287:195|287:195|416:213,1,215.999993408203,4|8,0:0|0:0,0:0:0:0:
493,372,178499,1,0,0:0:0:0:
493,372,178632,2,0,P|475:317|477:259,1,107.999996704102,4|4,0:3|0:3,0:0:0:0:
512,110,178899,1,8,0:0:0:0:
405,101,179032,6,0,L|169:86,1,215.999993408203,2|0,0:0|0:0,0:0:0:0:
102,280,179432,2,0,B|84:224|84:224|89:162,1,107.999996704102,8|0,0:0|0:0,0:0:0:0:
250,383,179699,2,0,B|268:327|268:327|263:265,1,107.999996704102,4|4,0:3|0:3,0:0:0:0:
183,55,179965,1,8,0:0:0:0:
183,55,180232,6,0,P|137:102|221:81,1,215.999993408203,4|8,0:0|0:0,0:0:0:0:
390,193,180632,1,0,0:0:0:0:
390,193,180765,2,0,B|341:211|341:211|279:204,2,107.999996704102,2|4|8,0:0|0:3|0:0,0:0:0:0:
480,332,181165,6,0,B|494:198|494:198|473:105,1,215.999993408203,2|2,0:0|0:0,0:0:0:0:
224,91,181565,2,0,L|340:87,1,107.999996704102,8|2,0:0|0:0,0:0:0:0:
179,255,181832,2,0,L|63:251,1,107.999996704102,0|2,0:0|0:0,0:0:0:0:
383,384,182099,1,8,0:0:0:0:
383,384,182365,6,0,B|388:329|388:329|382:309|382:309|391:288|391:288|375:251|372:214|394:173,1,215.999993408203,4|0,0:0|0:0,0:0:0:0:
131,155,183299,6,0,B|175:147|175:147|214:160|214:160|252:152|252:152|289:165|289:165|347:153|405:180,1,270,4|0,0:0|0:0,0:0:0:0:
87,257,184410,6,0,P|4:305|126:313,1,300,4|0,0:0|0:0,0:0:0:0:
179,136,185432,6,0,L|182:204,2,36,4|4|12,0:3|0:3|0:0,0:0:0:0:
