osu file format v14

[General]
AudioFilename: savior.mp3
AudioLeadIn: 0
PreviewTime: 39062
Countdown: 0
SampleSet: Soft
StackLeniency: 0.8
Mode: 0
LetterboxInBreaks: 1
WidescreenStoryboard: 1

[Editor]
Bookmarks: 48262
DistanceSpacing: 0.8
BeatDivisor: 4
GridSize: 4
TimelineZoom: 1.6

[Metadata]
Title:Savior
TitleUnicode:Savior
Artist:Rise Against
ArtistUnicode:Rise Against
Creator:pishifat
Version:Hard
Source:
Tags:punk metal appeal to reason milan- smokeman fieryrage raiden
BeatmapID:1104872
BeatmapSetID:509675

[Difficulty]
HPDrainRate:5
CircleSize:3.8
OverallDifficulty:7
ApproachRate:8
SliderMultiplier:1.4
SliderTickRate:1

[Events]
//Background and Video events
0,0,"background.jpg",0,0
//Break Periods
2,82662,85978
2,113813,137569
//Storyboard Layer 0 (Background)
//Storyboard Layer 1 (Fail)
//Storyboard Layer 2 (Pass)
//Storyboard Layer 3 (Foreground)
//Storyboard Sound Samples

[TimingPoints]
321,331.491712707182,4,2,2,70,1,0
20209,-25,4,2,2,70,0,0
21536,-25,4,2,2,80,0,0
21867,-25,4,2,2,90,0,0
22530,-25,4,2,2,33,0,0
22779,-25,4,2,2,5,0,0
22862,266.666666666667,4,2,2,70,1,0
22862,-100,4,2,2,70,0,0
30195,-100,4,2,2,70,0,0
30995,-100,4,2,2,70,0,0
31262,-100,4,2,2,70,0,0
31395,-100,4,2,2,70,0,0
39928,-111.111111111111,4,2,2,70,0,0
39995,-111.111111111111,4,2,2,60,0,0
48462,-108.695652173913,4,2,2,65,0,0
56728,-100,4,2,2,70,0,0
57262,-100,4,2,2,70,0,0
60995,-100,4,2,2,70,0,0
61528,-100,4,2,2,70,0,0
63395,-100,4,2,2,70,0,0
65528,-100,4,2,2,70,0,1
72862,-100,4,2,2,70,0,0
74062,-100,4,2,2,70,0,1
80462,-100,4,2,2,70,0,0
86728,-133.333333333333,4,2,2,60,0,0
88462,-100,4,2,2,60,0,0
88862,-133.333333333333,4,2,2,60,0,0
90595,-100,4,2,2,60,0,0
90995,-133.333333333333,4,2,2,60,0,0
92728,-100,4,2,2,60,0,0
93128,-133.333333333333,4,2,2,60,0,0
94328,-133.333333333333,4,2,2,70,0,0
96414,266.666666666667,4,2,2,70,1,0
96414,-100,4,2,2,70,0,0
96547,266.666666666667,4,2,2,70,1,0
96813,-100,4,2,2,70,0,0
113614,392.156862745098,4,2,2,45,1,0
138319,-100,4,2,2,45,0,0
138614,-100,4,2,2,5,0,0
138712,-100,4,2,2,45,0,0
148123,294.117647058824,4,2,2,45,1,0
148123,-100,4,2,2,45,0,0
149299,266.666666666667,4,2,2,45,1,0
150365,-100,4,2,2,70,0,1
157699,-100,4,2,2,70,0,0
158899,-100,4,2,2,70,0,1
166232,-100,4,2,2,70,0,0
167432,-100,4,2,2,70,0,1
174765,-100,4,2,2,70,0,0
175965,-100,4,2,2,70,0,1
182365,-100,4,2,2,70,0,0
184365,-100,4,2,2,70,0,0
185432,-100,4,2,2,70,0,0

[Colours]
Combo1 : 238,162,162
Combo2 : 194,185,154
Combo3 : 197,197,197
Combo4 : 174,203,255

[HitObjects]
256,192,20210,12,0,22530,0:0:0:0:
193,299,22862,6,0,P|129:298|55:281,1,140,6|8,0:0|0:0,0:0:0:0:
0,207,23262,1,2,0:0:0:0:
89,194,23395,2,0,L|99:108,1,70,2|0,0:0|0:0,0:0:0:0:
107,33,23662,1,8,0:0:0:0:
181,86,23795,6,0,P|268:83|335:55,1,140,2|2,0:0|0:0,0:0:0:0:
376,0,24195,1,8,0:0:0:0:
450,43,24328,2,0,P|447:130|419:197,1,140,2|2,0:0|0:0,0:0:0:0:
356,234,24728,1,8,0:0:0:0:
280,182,24862,1,2,0:0:0:0:
202,228,24995,6,0,P|180:294|181:364,1,140,4|8,0:0|0:0,0:0:0:0:
181,364,25528,2,0,L|100:353,1,70,4|4,0:3|0:3,0:0:0:0:
20,343,25795,1,8,0:0:0:0:
74,270,25928,6,0,P|78:236|56:109,1,140,2|0,0:0|0:0,0:0:0:0:
40,43,26328,2,0,L|124:54,1,70,8|0,0:0|0:0,0:0:0:0:
192,14,26595,2,0,L|261:4,1,70,2|0,0:0|0:0,0:0:0:0:
349,42,26862,1,8,0:0:0:0:
349,42,27128,6,0,P|326:141|330:200,1,140,6|8,0:0|0:0,0:0:0:0:
352,273,27528,1,2,0:0:0:0:
418,207,27662,2,0,P|428:173|431:117,2,70,2|0|8,0:0|0:0|0:0,0:0:0:0:
352,273,28062,6,0,P|280:267|194:244,1,140,2|2,0:0|0:0,0:0:0:0:
149,186,28462,1,8,0:0:0:0:
58,193,28595,2,0,P|36:292|39:359,1,140,2|2,0:0|0:0,0:0:0:0:
115,375,28995,1,8,0:0:0:0:
196,338,29128,1,2,0:0:0:0:
285,376,29262,6,0,P|349:365|432:325,1,140,4|8,0:0|0:0,0:0:0:0:
417,334,29795,2,0,L|423:246,1,70,4|4,0:3|0:3,0:0:0:0:
429,173,30062,1,8,0:0:0:0:
346,210,30195,6,0,P|268:198|196:159,1,140,4|0,0:0|1:0,0:0:0:0:
186,84,30595,1,8,1:2:0:0:
186,84,30728,1,0,0:0:0:0:
118,145,30862,2,0,L|109:234,1,70,8|4,0:3|0:3,0:0:0:0:
109,305,31128,1,8,0:0:0:0:
109,305,31262,1,10,0:0:0:0:
190,264,31395,6,0,P|270:276|339:305,1,140,6|8,0:0|0:0,0:0:0:0:
392,359,31795,1,2,0:0:0:0:
476,326,31928,2,0,P|486:295|488:237,1,70,2|0,0:0|0:0,0:0:0:0:
448,176,32195,1,8,0:0:0:0:
360,201,32328,6,0,P|279:182|205:142,1,140,2|2,0:0|0:0,0:0:0:0:
174,83,32728,1,8,0:0:0:0:
212,0,32862,2,0,P|269:19|296:40,1,70,2|0,0:0|0:0,0:0:0:0:
336,92,33128,2,0,P|393:80|422:67,1,70,2|8,0:0|0:0,0:0:0:0:
476,20,33395,1,2,0:0:0:0:
493,109,33528,6,0,P|453:238|437:260,1,140,4|8,0:0|0:0,0:0:0:0:
451,240,34062,2,0,L|370:232,1,70,4|4,0:3|0:3,0:0:0:0:
291,220,34328,1,8,0:0:0:0:
269,308,34462,6,0,P|199:323|119:323,1,140,2|0,0:0|0:0,0:0:0:0:
45,289,34862,2,0,P|31:216|33:199,1,70,8|0,0:0|0:0,0:0:0:0:
109,175,35128,2,0,P|123:106|123:86,1,70,2|0,0:0|0:0,0:0:0:0:
90,21,35395,1,8,0:0:0:0:
90,21,35662,6,0,P|189:0|251:7,1,140,4|8,0:0|0:0,0:0:0:0:
308,43,36062,1,2,0:0:0:0:
269,125,36195,2,0,L|260:215,1,70,2|0,0:0|0:0,0:0:0:0:
300,277,36462,1,8,0:0:0:0:
383,241,36595,6,0,P|388:145|369:77,1,140,2|2,0:0|0:0,0:0:0:0:
308,43,36995,1,8,0:0:0:0:
269,125,37128,2,0,P|153:149|104:146,1,140,2|2,0:0|0:0,0:0:0:0:
48,112,37528,1,8,0:0:0:0:
57,202,37662,1,2,0:0:0:0:
63,292,37795,6,0,P|138:316|213:319,1,140,4|8,0:0|0:0,0:0:0:0:
198,319,38328,2,0,L|280:310,1,70,4|4,0:3|0:3,0:0:0:0:
358,300,38595,1,8,0:0:0:0:
303,227,38728,6,0,P|309:136|329:84,1,140,4|0,0:0|1:0,0:0:0:0:
399,36,39128,1,8,1:2:0:0:
399,36,39262,1,0,0:0:0:0:
467,95,39395,2,0,P|476:178|473:194,1,70,8|8,0:0|0:3,0:0:0:0:
432,243,39662,1,4,0:3:0:0:
432,243,39795,1,4,0:3:0:0:
487,317,39928,6,0,B|433:293|433:293|347:303,1,125.999996154785,4|8,0:0|0:0,0:0:0:0:
366,300,40462,2,0,L|374:362,2,62.9999980773926,8|0|8,0:3|0:3|0:0,0:0:0:0:
293,248,40862,6,0,B|285:181|285:181|327:108,1,125.999996154785,4|0,0:3|0:0,0:0:0:0:
358,53,41262,1,8,0:0:0:0:
358,53,41528,2,0,L|270:43,1,62.9999980773926,4|0,0:3|0:0,0:0:0:0:
213,12,41795,2,0,L|147:18,1,62.9999980773926,8|0,0:0|0:0,0:0:0:0:
77,68,42062,6,0,B|118:114|118:114|111:204,1,125.999996154785,4|8,0:3|0:0,0:0:0:0:
113,178,42595,2,0,L|202:169,1,62.9999980773926,8|0,0:3|0:0,0:0:0:0:
263,162,42862,1,8,0:0:0:0:
229,243,42995,6,0,B|222:308|222:308|269:364,1,125.999996154785,4|0,0:3|0:0,0:0:0:0:
314,282,43395,1,8,0:0:0:0:
314,282,43662,2,0,L|389:290,1,62.9999980773926,4|0,0:3|0:0,0:0:0:0:
452,233,43928,2,0,L|461:149,1,62.9999980773926,8|0,0:0|0:0,0:0:0:0:
428,80,44195,6,0,B|378:116|378:116|302:110,1,125.999996154785,4|8,0:3|0:0,0:0:0:0:
313,110,44728,2,0,L|304:31,2,62.9999980773926,8|0|8,0:3|0:0|0:0,0:0:0:0:
252,183,45128,6,0,B|202:144|202:144|118:153,1,125.999996154785,4|0,0:3|0:0,0:0:0:0:
59,202,45528,1,8,0:0:0:0:
59,202,45795,2,0,L|69:281,1,62.9999980773926,4|0,0:3|0:0,0:0:0:0:
144,318,46062,2,0,L|220:309,1,62.9999980773926,8|0,0:0|0:0,0:0:0:0:
290,352,46328,6,0,B|352:358|352:358|412:303,1,125.999996154785,4|8,0:3|0:0,0:0:0:0:
398,314,46862,2,0,L|390:234,1,62.9999980773926,8|0,0:3|0:0,0:0:0:0:
381,157,47128,1,8,0:0:0:0:
304,213,47262,6,0,B|240:216|240:216|188:171,1,125.999996154785,4|0,0:3|0:0,0:0:0:0:
100,156,47662,2,0,L|106:218,1,62.9999980773926,8|0,0:0|0:0,0:0:0:0:
86,310,47928,2,0,P|52:297|20:269,1,62.9999980773926,8|8,0:3|0:3,0:0:0:0:
4,189,48195,2,0,L|13:106,1,62.9999980773926,8|4,0:0|0:3,0:0:0:0:
70,49,48462,6,0,P|145:27|219:46,1,128.79999567627,4|8,0:0|0:0,0:0:0:0:
193,34,48995,1,8,0:3:0:0:
241,113,49128,2,0,L|329:101,1,64.3999978381348,0|8,0:0|0:0,0:0:0:0:
394,91,49395,6,0,P|335:169|330:213,1,128.79999567627,4|0,0:3|0:0,0:0:0:0:
348,291,49795,1,8,0:0:0:0:
348,291,50062,2,0,L|256:276,1,64.3999978381348,4|0,0:3|0:0,0:0:0:0:
195,269,50328,2,0,P|145:287|122:307,1,64.3999978381348,8|0,0:0|0:0,0:0:0:0:
56,337,50595,6,0,P|93:270|92:201,1,128.79999567627,4|8,0:3|0:0,0:0:0:0:
95,219,51128,2,0,L|83:134,1,64.3999978381348,8|0,0:3|0:0,0:0:0:0:
75,65,51395,2,0,P|120:45|155:46,1,64.3999978381348,8|0,0:0|0:0,0:0:0:0:
181,121,51662,6,0,P|253:144|324:133,1,128.79999567627,4|8,0:3|0:0,0:0:0:0:
374,80,52062,1,0,0:0:0:0:
374,80,52195,2,0,L|384:3,1,64.3999978381348,8|4,0:3|0:3,0:0:0:0:
471,31,52462,1,8,0:0:0:0:
483,118,52595,1,0,0:0:0:0:
492,207,52728,6,0,P|469:288|433:345,1,128.79999567627,4|8,0:3|0:0,0:0:0:0:
447,326,53262,1,8,0:3:0:0:
366,286,53395,2,0,L|273:279,1,64.3999978381348,0|8,0:0|0:0,0:0:0:0:
251,356,53662,6,0,P|176:384|165:383,1,64.3999978381348,4|0,0:3|0:0,0:0:0:0:
181,293,53928,2,0,P|111:253|105:244,1,64.3999978381348,0|8,0:0|0:0,0:0:0:0:
187,202,54195,2,0,P|164:122|183:59,1,128.79999567627,4|0,0:3|0:0,0:0:0:0:
239,17,54595,1,8,0:0:0:0:
301,81,54728,1,0,0:0:0:0:
368,20,54862,6,0,P|445:23|506:55,1,128.79999567627,4|8,0:3|0:0,0:0:0:0:
491,44,55395,1,8,0:3:0:0:
459,128,55528,2,0,L|455:209,1,64.3999978381348,0|8,0:0|0:0,0:0:0:0:
505,267,55795,6,0,P|442:279|387:313,1,128.79999567627,0|0,0:0|0:0,0:0:0:0:
322,376,56195,2,0,L|249:365,1,64.3999978381348,8|0,0:0|0:0,0:0:0:0:
199,297,56462,1,4,0:3:0:0:
268,239,56595,1,0,0:0:0:0:
228,162,56728,1,8,1:2:0:0:
228,162,57262,6,0,P|160:156|113:141,1,105,12|0,0:0|0:0,0:0:0:0:
122,131,57528,2,0,L|114:55,1,70,4|0,0:3|0:0,0:0:0:0:
30,107,57795,2,0,L|38:176,1,70,8|0,0:0|0:0,0:0:0:0:
84,255,58062,6,0,P|154:276|180:275,1,70,2|0,0:0|0:0,0:0:0:0:
236,249,58328,2,0,P|313:250|371:274,1,140,8|4,0:0|0:3,0:0:0:0:
421,349,58728,1,0,0:0:0:0:
464,268,58862,2,0,L|475:177,1,70,8|0,0:0|0:0,0:0:0:0:
485,108,59128,5,4,0:0:0:0:
485,108,59395,2,0,P|427:99|396:83,1,70,8|0,0:0|0:0,0:0:0:0:
345,37,59662,2,0,P|272:50|211:86,1,140,4|8,0:3|0:0,0:0:0:0:
173,163,60062,1,0,0:0:0:0:
226,235,60195,6,0,P|266:234|305:218,1,70,2|0,0:0|0:0,0:0:0:0:
369,173,60462,2,0,P|336:257|335:318,1,140,8|4,0:0|0:3,0:0:0:0:
391,377,60862,1,0,0:0:0:0:
475,344,60995,1,8,0:0:0:0:
475,344,61528,6,0,P|451:298|447:233,1,105,12|0,0:0|0:0,0:0:0:0:
448,228,61795,2,0,L|456:148,1,70,4|0,0:3|0:0,0:0:0:0:
465,70,62062,2,0,P|424:74|389:102,1,70,8|0,0:0|0:0,0:0:0:0:
347,158,62328,6,0,P|291:146|265:128,1,70,2|0,0:0|0:0,0:0:0:0:
206,84,62595,2,0,P|228:155|218:246,1,140,8|4,0:0|0:3,0:0:0:0:
171,293,62995,1,0,0:0:0:0:
113,223,63128,2,0,L|15:214,1,70,8|0,0:0|0:0,0:0:0:0:
85,312,63395,5,4,0:0:0:0:
441,77,64462,5,4,0:0:0:0:
56,167,65528,6,0,L|72:324,2,140,4|8|4,0:0|0:0|0:3,0:0:0:0:
77,78,66195,1,4,0:3:0:0:
141,141,66328,2,0,P|206:150|238:144,1,70,8|4,0:0|0:3,0:0:0:0:
266,77,66595,6,0,P|299:68|334:68,1,70,2|4,0:0|0:3,0:0:0:0:
419,103,66862,2,0,P|410:183|377:245,1,140,8|4,0:0|0:3,0:0:0:0:
298,267,67262,1,4,0:3:0:0:
366,326,67395,1,8,0:0:0:0:
366,326,67662,6,0,P|267:313|195:320,1,140,4|8,0:0|0:0,0:0:0:0:
143,339,68062,1,0,0:0:0:0:
66,290,68195,2,0,P|52:227|53:196,1,70,4|4,0:3|0:3,0:0:0:0:
115,155,68462,2,0,P|176:164|199:174,1,70,8|4,0:0|0:3,0:0:0:0:
257,219,68728,6,0,P|313:207|347:187,1,70,2|4,0:0|0:3,0:0:0:0:
391,139,68995,2,0,P|380:71|338:9,1,140,8|4,0:0|0:3,0:0:0:0:
250,3,69395,1,4,0:3:0:0:
188,69,69528,1,8,0:0:0:0:
188,69,69795,6,0,P|140:61|100:39,1,70,4|0,0:0|0:0,0:0:0:0:
32,28,70062,2,0,P|79:77|108:161,1,140,8|4,0:0|0:3,0:0:0:0:
113,234,70462,1,4,0:3:0:0:
191,187,70595,1,8,0:0:0:0:
194,277,70728,6,0,P|265:301|351:302,1,140,4|4,0:3|0:3,0:0:0:0:
407,256,71128,2,0,P|417:172|415:163,1,70,8|0,0:0|0:0,0:0:0:0:
378,105,71395,1,4,0:3:0:0:
289,139,71528,1,4,0:3:0:0:
211,96,71662,1,8,0:0:0:0:
211,96,71928,6,0,P|189:168|183:239,2,140,4|8|4,0:0|0:0|0:3,0:0:0:0:
288,48,72595,1,4,0:3:0:0:
293,137,72728,2,0,P|351:157|391:159,1,70,8|2,0:0|0:0,0:0:0:0:
450,169,72995,6,0,P|379:207|331:264,1,140,4|0,0:0|1:0,0:0:0:0:
314,338,73395,1,0,1:0:0:0:
248,275,73528,2,0,L|174:270,1,70,8|4,0:3|0:3,0:0:0:0:
91,300,73795,1,8,0:0:0:0:
91,300,73928,1,8,0:0:0:0:
27,233,74062,6,0,P|33:132|59:73,2,140,4|8|4,0:0|0:0|0:3,0:0:0:0:
91,300,74728,1,4,0:3:0:0:
178,270,74862,2,0,P|205:268|248:275,1,70,8|4,0:0|0:3,0:0:0:0:
314,338,75128,6,0,P|340:340|383:333,1,70,2|4,0:0|0:3,0:0:0:0:
452,273,75395,2,0,P|449:189|420:123,1,140,8|4,0:0|0:3,0:0:0:0:
342,108,75795,1,4,0:3:0:0:
279,173,75928,1,8,0:0:0:0:
279,173,76195,6,0,P|207:161|187:151,1,70,4|0,0:0|0:0,0:0:0:0:
133,113,76462,2,0,P|64:121|6:160,1,140,8|4,0:0|0:3,0:0:0:0:
23,249,76862,1,4,0:3:0:0:
51,335,76995,2,0,P|91:329|131:310,1,70,8|4,0:0|0:3,0:0:0:0:
188,259,77262,6,0,P|235:271|269:292,1,70,2|4,0:0|0:3,0:0:0:0:
322,340,77528,2,0,P|294:255|300:175,1,140,8|4,0:0|0:3,0:0:0:0:
324,118,77928,1,4,0:3:0:0:
383,187,78062,1,8,0:0:0:0:
383,187,78328,6,0,P|468:173|480:167,1,70,4|0,0:0|0:0,0:0:0:0:
511,109,78595,2,0,P|445:67|369:52,1,140,8|4,0:0|0:3,0:0:0:0:
324,118,78995,1,4,0:3:0:0:
236,92,79128,1,8,0:0:0:0:
160,143,79262,6,0,P|146:216|147:301,1,140,4|4,0:3|0:3,0:0:0:0:
202,352,79662,2,0,P|266:336|287:324,1,70,8|0,0:0|0:0,0:0:0:0:
338,275,79928,1,4,0:3:0:0:
399,342,80062,1,4,0:3:0:0:
485,315,80195,1,8,0:0:0:0:
485,315,80462,5,4,0:0:0:0:
334,54,81395,5,2,0:0:0:0:
109,191,82062,5,8,0:0:0:0:
190,200,82195,1,8,0:3:0:0:
271,210,82328,1,4,0:3:0:0:
338,275,82462,5,4,0:0:0:0:
123,154,86728,6,0,P|105:199|114:324,1,157.500006008148,4|4,0:0|0:3,0:0:0:0:
107,306,87395,1,8,0:0:0:0:
264,187,87662,6,0,L|212:194,1,52.5000020027161,4|0,0:3|0:0,0:0:0:0:
200,286,87928,2,0,L|317:268,1,105.000004005432,8|4,0:3|0:3,0:0:0:0:
303,270,88462,5,8,0:0:0:0:
266,365,88595,1,8,0:0:0:0:
266,365,88862,6,0,P|194:326|102:323,1,157.500006008148,4|4,0:0|0:3,0:0:0:0:
119,320,89528,1,8,0:0:0:0:
35,144,89795,6,0,L|98:151,1,52.5000020027161,4|0,0:3|0:0,0:0:0:0:
155,209,90062,2,0,L|276:196,1,105.000004005432,8|4,0:3|0:3,0:0:0:0:
259,197,90595,1,8,0:0:0:0:
336,251,90728,1,8,0:0:0:0:
416,214,90862,1,8,0:0:0:0:
342,161,90995,6,0,P|350:55|384:3,1,157.500006008148,4|4,0:0|0:0,0:0:0:0:
375,12,91662,1,8,0:0:0:0:
226,121,91928,6,0,L|150:116,1,52.5000020027161,4|0,0:3|0:0,0:0:0:0:
149,29,92195,2,0,L|257:37,1,105.000004005432,8|4,0:3|0:3,0:0:0:0:
253,36,92728,5,8,0:0:0:0:
318,108,92862,1,8,0:0:0:0:
318,108,93128,6,0,P|289:191|296:272,1,157.500006008148,4|4,0:0|0:3,0:0:0:0:
292,259,93795,1,8,0:0:0:0:
475,310,94062,6,0,L|471:363,1,52.5000020027161,4|4,0:3|0:3,0:0:0:0:
376,363,94328,2,0,L|384:285,3,78.7500030040742,8|12|12|12,0:0|0:0|0:0|0:0,0:0:0:0:
380,109,96414,6,0,L|227:97,1,140,4|0,0:0|0:0,0:0:0:0:
157,134,96813,2,0,P|140:165|148:221,1,70,8|0,0:0|0:0,0:0:0:0:
220,241,97080,2,0,P|236:272|229:328,1,70,4|4,0:3|0:3,0:0:0:0:
177,375,97347,2,0,L|90:380,1,70,8|0,0:0|0:0,0:0:0:0:
19,355,97613,6,0,P|11:296|56:229,1,140,4|8,0:3|0:0,0:0:0:0:
139,199,98013,1,0,0:0:0:0:
220,241,98147,2,0,L|307:234,1,70,4|4,0:3|0:3,0:0:0:0:
359,177,98413,1,8,0:0:0:0:
273,143,98547,6,0,P|234:72|253:14,1,140,4|0,0:0|0:0,0:0:0:0:
325,69,98947,2,0,L|402:76,1,70,8|0,0:0|0:0,0:0:0:0:
483,56,99213,2,0,P|501:96|497:135,1,70,4|4,0:3|0:3,0:0:0:0:
418,161,99480,2,0,P|400:201|404:240,1,70,8|0,0:0|0:0,0:0:0:0:
442,307,99747,6,0,P|364:257|305:277,1,140,4|8,0:3|0:0,0:0:0:0:
258,332,100147,1,0,0:0:0:0:
193,268,100280,2,0,L|187:172,1,70,4|4,0:3|0:3,0:0:0:0:
247,128,100547,1,8,0:0:0:0:
175,72,100680,6,0,L|22:56,1,140,4|0,0:0|0:0,0:0:0:0:
29,155,101080,2,0,L|117:164,1,70,8|0,0:0|0:0,0:0:0:0:
184,193,101347,2,0,P|211:243|210:279,1,70,4|4,0:3|0:3,0:0:0:0:
201,345,101613,2,0,P|251:372|287:371,1,70,8|0,0:0|0:0,0:0:0:0:
348,339,101880,6,0,L|362:190,1,140,4|8,0:3|0:0,0:0:0:0:
319,118,102280,1,0,0:0:0:0:
367,40,102413,2,0,P|407:26|456:27,2,70,4|4|8,0:3|0:3|0:0,0:0:0:0:
319,118,102813,6,0,P|238:112|193:48,1,140,4|0,0:0|0:0,0:0:0:0:
135,6,103213,2,0,P|108:64|117:98,1,70,8|0,0:0|0:0,0:0:0:0:
145,151,103480,2,0,P|126:210|108:225,1,70,4|4,0:3|0:3,0:0:0:0:
45,264,103747,6,0,P|133:270|171:333,1,140,4|0,0:0|1:0,0:0:0:0:
226,372,104147,1,0,1:0:0:0:
289,306,104280,1,0,1:0:0:0:
377,327,104413,1,0,1:0:0:0:
445,266,104547,2,0,L|449:228,5,35,4|0|0|0|0|0,1:3|1:0|1:0|1:0|1:0|1:0,0:0:0:0:
449,215,104947,6,0,P|420:151|338:134,1,140,4|0,0:0|0:0,0:0:0:0:
276,172,105347,2,0,L|187:183,1,70,8|0,0:0|0:0,0:0:0:0:
124,140,105613,2,0,P|119:110|134:66,1,70,4|4,0:3|0:3,0:0:0:0:
220,59,105880,2,0,L|303:69,1,70,8|0,0:0|0:0,0:0:0:0:
358,8,106147,6,0,P|329:57|360:132,1,140,4|8,0:3|0:0,0:0:0:0:
445,152,106547,1,0,0:0:0:0:
385,220,106680,2,0,L|289:234,1,70,4|4,0:3|0:3,0:0:0:0:
234,188,106947,1,8,0:0:0:0:
159,239,107080,6,0,L|147:390,1,140,4|0,0:0|0:0,0:0:0:0:
58,337,107480,2,0,L|65:257,1,70,8|0,0:0|0:0,0:0:0:0:
16,189,107747,2,0,P|-1:135|8:101,1,70,4|4,0:3|0:3,0:0:0:0:
67,61,108013,2,0,P|126:80|144:101,1,70,8|0,0:0|0:0,0:0:0:0:
191,152,108280,6,0,P|255:143|296:63,1,140,4|8,0:3|0:0,0:0:0:0:
350,11,108680,1,0,0:0:0:0:
434,45,108813,2,0,L|442:130,1,70,4|4,0:3|0:3,0:0:0:0:
395,194,109080,1,8,0:0:0:0:
442,271,109213,6,0,P|402:236|301:247,1,140,4|0,0:0|0:0,0:0:0:0:
255,301,109613,2,0,P|221:300|175:275,1,70,8|0,0:0|0:0,0:0:0:0:
145,205,109880,2,0,L|150:126,1,70,4|4,0:3|0:3,0:0:0:0:
156,43,110147,1,8,0:0:0:0:
66,26,110280,6,0,P|29:62|45:170,2,140,0|4|0,0:0|0:3|0:0,0:0:0:0:
156,43,110947,2,0,L|242:51,1,70,4|4,0:3|0:3,0:0:0:0:
319,65,111213,1,8,0:0:0:0:
319,65,111480,5,4,0:0:0:0:
222,265,112013,1,4,0:0:0:0:
320,45,112547,5,4,0:0:0:0:
215,275,113080,1,4,0:0:0:0:
326,32,113613,5,4,0:0:0:0:
133,104,138319,5,0,0:0:0:0:
133,104,138712,2,0,L|278:90,2,140,4|0|2,0:3|0:0|0:0,0:0:0:0:
365,284,140084,5,0,0:0:0:0:
365,284,140280,2,0,L|217:272,2,140,0|0|0,0:0|0:0|0:0,0:0:0:0:
365,284,141457,1,4,0:3:0:0:
274,110,141849,6,0,L|134:121,2,140,4|0|2,0:3|0:0|0:0,0:0:0:0:
483,316,143221,5,0,3:0:0:0:
483,316,143417,2,0,L|400:310,1,70,0|0,0:0|3:0,0:0:0:0:
314,303,143810,2,0,L|231:297,1,70,0|0,0:0|0:0,0:0:0:0:
146,296,144202,1,0,3:0:0:0:
146,296,144594,1,4,0:3:0:0:
254,132,144986,6,0,L|405:122,2,140,4|0|2,0:3|0:0|0:0,0:0:0:0:
213,379,146359,5,0,3:0:0:0:
213,379,146555,2,0,L|121:371,1,70,0|0,0:0|3:0,0:0:0:0:
156,276,146947,2,0,L|225:282,1,70,0|0,0:0|0:0,0:0:0:0:
320,292,147339,1,0,3:0:0:0:
320,292,147731,1,4,0:3:0:0:
256,44,148123,5,4,0:3:0:0:
256,192,149299,5,4,0:0:0:0:
456,217,150365,6,0,L|440:60,2,140,4|8|0,0:0|0:0|0:3,0:0:0:0:
435,306,151032,1,4,0:3:0:0:
371,243,151165,2,0,P|306:234|274:240,1,70,8|4,0:0|0:3,0:0:0:0:
246,307,151432,6,0,P|213:316|178:316,1,70,2|4,0:0|0:3,0:0:0:0:
93,281,151699,2,0,P|102:201|135:139,1,140,8|4,0:0|0:3,0:0:0:0:
214,117,152099,1,4,0:3:0:0:
146,58,152232,1,8,0:0:0:0:
146,58,152499,6,0,P|245:71|317:64,1,140,4|8,0:0|0:0,0:0:0:0:
369,45,152899,1,0,0:0:0:0:
446,94,153032,2,0,P|460:157|459:188,1,70,4|4,0:3|0:3,0:0:0:0:
397,229,153299,2,0,P|336:220|313:210,1,70,8|4,0:0|0:3,0:0:0:0:
255,165,153565,6,0,P|199:177|165:197,1,70,2|4,0:0|0:3,0:0:0:0:
121,245,153832,2,0,P|132:313|174:375,1,140,8|4,0:0|0:3,0:0:0:0:
262,381,154232,1,4,0:3:0:0:
324,315,154365,1,8,0:0:0:0:
324,315,154632,6,0,P|372:323|412:345,1,70,4|0,0:0|0:0,0:0:0:0:
480,356,154899,2,0,P|433:307|404:223,1,140,8|0,0:0|0:3,0:0:0:0:
399,150,155299,1,4,0:3:0:0:
321,197,155432,1,8,0:0:0:0:
318,107,155565,6,0,P|247:83|161:82,1,140,4|4,0:3|0:3,0:0:0:0:
105,128,155965,2,0,P|95:212|97:221,1,70,8|0,0:0|0:0,0:0:0:0:
134,279,156232,1,4,0:3:0:0:
219,247,156365,1,4,0:3:0:0:
301,288,156499,1,8,0:0:0:0:
301,288,156765,6,0,P|323:216|329:145,2,140,4|8|4,0:0|0:0|0:3,0:0:0:0:
224,336,157432,1,4,0:3:0:0:
219,247,157565,2,0,P|161:227|121:225,1,70,8|2,0:0|0:0,0:0:0:0:
62,215,157832,6,0,P|133:177|181:120,1,140,4|0,0:0|1:0,0:0:0:0:
198,46,158232,1,0,1:0:0:0:
264,109,158365,2,0,L|338:114,1,70,8|0,0:0|1:0,0:0:0:0:
421,84,158632,1,8,0:3:0:0:
421,84,158765,1,4,0:3:0:0:
485,151,158899,6,0,P|479:252|453:311,2,140,4|8|4,0:0|0:0|0:3,0:0:0:0:
421,84,159565,1,4,0:3:0:0:
334,114,159699,2,0,P|307:116|264:109,1,70,8|4,0:0|0:3,0:0:0:0:
198,46,159965,6,0,P|172:44|129:51,1,70,2|4,0:0|0:3,0:0:0:0:
60,111,160232,2,0,P|63:195|92:261,1,140,8|4,0:0|0:3,0:0:0:0:
170,276,160632,1,4,0:3:0:0:
233,211,160765,1,8,0:0:0:0:
233,211,161032,6,0,P|305:223|325:233,1,70,4|0,0:0|0:0,0:0:0:0:
379,271,161299,2,0,P|448:263|506:224,1,140,8|4,0:0|0:3,0:0:0:0:
489,135,161699,1,4,0:3:0:0:
461,49,161832,2,0,P|421:55|381:74,1,70,8|4,0:0|0:3,0:0:0:0:
324,125,162099,6,0,P|277:113|243:92,1,70,2|2,0:0|0:0,0:0:0:0:
190,44,162365,2,0,P|218:129|212:209,1,140,8|4,0:0|0:3,0:0:0:0:
188,266,162765,1,4,0:3:0:0:
129,197,162899,1,8,0:0:0:0:
129,197,163165,6,0,P|44:211|32:217,1,70,4|0,0:0|0:0,0:0:0:0:
1,275,163432,2,0,P|67:317|143:332,1,140,8|4,0:0|0:3,0:0:0:0:
188,266,163832,1,4,0:3:0:0:
276,292,163965,1,8,0:0:0:0:
352,241,164099,6,0,P|366:168|365:83,1,140,4|0,0:0|0:0,0:0:0:0:
310,32,164499,2,0,P|246:48|225:60,1,70,8|0,0:0|0:0,0:0:0:0:
174,109,164765,1,4,0:3:0:0:
113,42,164899,1,4,0:3:0:0:
27,69,165032,1,8,0:0:0:0:
27,69,165299,6,0,P|3:150|14:219,2,140,4|8|4,0:0|0:0|0:3,0:0:0:0:
113,42,165965,1,4,0:3:0:0:
174,109,166099,1,8,0:0:0:0:
242,49,166232,6,0,P|271:35|386:29,1,140,4|0,0:0|1:0,0:0:0:0:
464,74,166632,1,2,1:3:0:0:
464,74,166765,1,2,1:3:0:0:
400,139,166899,2,0,L|395:181,7,35,0|0|0|0|0|0|0|0,1:0|1:0|1:0|0:0|1:0|1:0|0:0|1:0,0:0:0:0:
394,190,167432,6,0,P|444:286|447:334,1,140,6|8,0:0|0:0,0:0:0:0:
382,381,167832,1,2,0:0:0:0:
314,320,167965,2,0,L|309:247,1,70,2|0,0:0|0:0,0:0:0:0:
305,158,168232,1,8,0:0:0:0:
226,203,168365,6,0,P|164:243|120:313,1,140,2|2,0:0|0:0,0:0:0:0:
97,383,168765,1,8,0:0:0:0:
32,319,168898,2,0,P|50:233|89:172,1,140,2|2,0:0|0:0,0:0:0:0:
155,143,169298,1,8,0:0:0:0:
226,203,169432,1,2,0:0:0:0:
310,156,169565,6,0,P|332:90|331:20,1,140,4|8,0:0|0:0,0:0:0:0:
331,20,170098,2,0,L|412:31,1,70,4|4,0:3|0:3,0:0:0:0:
492,41,170365,1,8,0:0:0:0:
438,114,170498,6,0,P|434:148|456:275,1,140,2|0,0:0|0:0,0:0:0:0:
472,341,170898,2,0,L|388:330,1,70,8|0,0:0|0:0,0:0:0:0:
320,370,171165,2,0,L|251:380,1,70,4|4,0:3|0:3,0:0:0:0:
163,342,171432,1,8,0:0:0:0:
163,342,171698,6,0,P|186:243|182:184,1,140,6|8,0:0|0:0,0:0:0:0:
160,111,172098,1,2,0:0:0:0:
94,177,172232,2,0,P|84:211|81:267,2,70,2|0|8,0:0|0:0|0:0,0:0:0:0:
160,111,172632,6,0,P|232:117|318:140,1,140,2|2,0:0|0:0,0:0:0:0:
363,198,173032,1,8,0:0:0:0:
454,191,173165,2,0,P|476:92|473:25,1,140,2|2,0:0|0:0,0:0:0:0:
397,9,173565,1,8,0:0:0:0:
316,46,173698,1,2,0:0:0:0:
227,8,173832,6,0,P|163:19|80:59,1,140,4|8,0:0|0:0,0:0:0:0:
95,50,174365,2,0,L|89:138,1,70,4|4,0:3|0:3,0:0:0:0:
83,211,174632,1,8,0:0:0:0:
166,174,174765,6,0,P|244:186|316:225,1,140,4|0,0:0|0:0,0:0:0:0:
359,280,175165,2,0,L|442:290,1,70,8|4,0:0|0:3,0:0:0:0:
389,189,175432,2,0,L|472:199,1,70,8|4,0:0|0:3,0:0:0:0:
415,106,175699,2,0,L|498:116,1,70,8|0,0:0|0:0,0:0:0:0:
322,120,175965,6,0,P|242:108|173:79,1,140,6|8,0:0|0:0,0:0:0:0:
120,25,176365,1,2,0:0:0:0:
36,58,176498,2,0,P|26:89|24:147,1,70,2|0,0:0|0:0,0:0:0:0:
64,208,176765,1,8,0:0:0:0:
152,183,176898,6,0,P|233:202|307:242,1,140,2|2,0:0|0:0,0:0:0:0:
338,301,177298,1,8,0:0:0:0:
300,384,177432,2,0,P|243:365|216:344,1,70,2|0,0:0|0:0,0:0:0:0:
176,292,177698,2,0,P|119:304|90:317,1,70,2|8,0:0|0:0,0:0:0:0:
36,364,177965,1,2,0:0:0:0:
19,275,178098,6,0,P|59:146|75:124,1,140,4|8,0:0|0:0,0:0:0:0:
61,144,178632,2,0,L|142:152,1,70,4|4,0:3|0:3,0:0:0:0:
221,164,178898,1,8,0:0:0:0:
243,76,179032,6,0,P|313:61|393:61,1,140,2|0,0:0|0:0,0:0:0:0:
467,95,179432,2,0,P|481:168|479:185,1,70,8|0,0:0|0:0,0:0:0:0:
403,209,179698,2,0,P|389:278|389:298,1,70,4|4,0:3|0:3,0:0:0:0:
422,363,179965,1,8,0:0:0:0:
422,363,180232,6,0,P|323:384|261:377,1,140,4|8,0:0|0:0,0:0:0:0:
204,341,180632,1,0,0:0:0:0:
243,259,180765,2,0,L|252:169,1,70,2|4,0:0|0:3,0:0:0:0:
212,107,181032,1,8,0:0:0:0:
129,143,181165,6,0,P|124:239|143:307,1,140,2|2,0:0|0:0,0:0:0:0:
204,341,181565,1,8,0:0:0:0:
243,259,181698,2,0,P|359:235|408:238,1,140,2|2,0:0|0:0,0:0:0:0:
464,272,182098,1,8,0:0:0:0:
455,182,182232,1,2,0:0:0:0:
446,91,182365,5,4,0:0:0:0:
356,324,183299,5,4,0:0:0:0:
191,129,184410,5,4,0:0:0:0:
256,192,184499,12,12,185565,0:0:0:0:
