osu file format v14

[General]
AudioFilename: savior.mp3
AudioLeadIn: 0
PreviewTime: 39062
Countdown: 0
SampleSet: Soft
StackLeniency: 0.4
Mode: 0
LetterboxInBreaks: 1
WidescreenStoryboard: 1

[Editor]
DistanceSpacing: 1
BeatDivisor: 4
GridSize: 4
TimelineZoom: 1.6

[Metadata]
Title:Savior
TitleUnicode:Savior
Artist:Rise Against
ArtistUnicode:Rise Against
Creator:pishifat
Version:Extreme
Source:
Tags:punk metal appeal to reason milan- smokeman fieryrage raiden
BeatmapID:1083816
BeatmapSetID:509675

[Difficulty]
HPDrainRate:6
CircleSize:3.8
OverallDifficulty:9
ApproachRate:9.4
SliderMultiplier:2
SliderTickRate:1

[Events]
//Background and Video events
0,0,"background.jpg",0,0
//Break Periods
2,82662,86188
2,113813,137779
//Storyboard Layer 0 (Background)
//Storyboard Layer 1 (Fail)
//Storyboard Layer 2 (Pass)
//Storyboard Layer 3 (Foreground)
//Storyboard Sound Samples

[TimingPoints]
321,331.491712707182,4,2,2,70,1,0
20209,-25,4,2,2,70,0,0
21536,-25,4,2,2,80,0,0
21867,-25,4,2,2,90,0,0
22779,-25,4,2,2,5,0,0
22862,266.666666666667,4,2,2,70,1,0
22862,-90.9090909090909,4,2,2,70,0,0
30195,-111.111111111111,4,2,2,70,0,0
30995,-142.857142857143,4,2,2,70,0,0
31262,-111.111111111111,4,2,2,70,0,0
31395,-90.9090909090909,4,2,2,70,0,0
39928,-125,4,2,2,70,0,0
39995,-125,4,2,2,60,0,0
48462,-111.111111111111,4,2,2,65,0,0
56728,-400,4,2,2,70,0,0
57262,-100,4,2,2,70,0,0
60995,-400,4,2,2,70,0,0
61528,-100,4,2,2,70,0,0
63395,-800,4,2,2,70,0,0
65528,-90.9090909090909,4,2,2,70,0,1
72862,-90.9090909090909,4,2,2,70,0,0
74062,-90.9090909090909,4,2,2,70,0,1
80462,-90.9090909090909,4,2,2,70,0,0
86728,-200,4,2,2,60,0,0
88462,-100,4,2,2,60,0,0
88862,-200,4,2,2,60,0,0
90595,-100,4,2,2,60,0,0
90995,-200,4,2,2,60,0,0
92728,-100,4,2,2,60,0,0
93128,-200,4,2,2,60,0,0
94328,-100,4,2,2,70,0,0
96414,266.666666666667,4,2,2,70,1,0
96414,-90.9090909090909,4,2,2,70,0,0
96547,266.666666666667,4,2,2,70,1,0
96813,-90.9090909090909,4,2,2,70,0,0
113614,392.156862745098,4,2,2,45,1,0
138319,-200,4,2,2,45,0,0
138614,-200,4,2,2,5,0,0
138712,-200,4,2,2,45,0,0
148123,294.117647058824,4,2,2,45,1,0
148123,-769.230769230769,4,2,2,45,0,0
149299,266.666666666667,4,2,2,45,1,0
150365,-90.9090909090909,4,2,2,70,0,1
157699,-90.9090909090909,4,2,2,70,0,0
158899,-90.9090909090909,4,2,2,70,0,1
166232,-90.9090909090909,4,2,2,70,0,0
167432,-90.9090909090909,4,2,2,70,0,1
174765,-90.9090909090909,4,2,2,70,0,0
175965,-90.9090909090909,4,2,2,70,0,1
182365,-90.9090909090909,4,2,2,70,0,0
184365,-303.030303030303,4,2,2,70,0,0
185432,-120.481927710843,4,2,2,70,0,0

[Colours]
Combo1 : 238,162,162
Combo2 : 194,185,154
Combo3 : 197,197,197
Combo4 : 174,203,255

[HitObjects]
256,192,20210,12,0,22779,0:0:0:0:
163,181,22862,6,0,P|243:185|290:122,1,165.000005035401,6|0,0:0|0:0,0:0:0:0:
207,109,23128,1,8,0:0:0:0:
359,176,23262,1,2,0:0:0:0:
390,96,23395,2,0,P|336:92|290:121,1,110.000003356934,2|0,0:0|0:0,0:0:0:0:
182,284,23662,1,8,0:0:0:0:
448,181,23795,6,0,P|432:129|285:127,1,220.000006713867,2|2,0:0|0:0,0:0:0:0:
491,258,24195,1,8,0:0:0:0:
290,122,24328,2,0,P|270:172|285:224,1,110.000003356934,2|0,0:0|0:0,0:0:0:0:
491,258,24595,2,0,P|526:217|530:163,1,110.000003356934,2|8,0:0|0:0,0:0:0:0:
268,40,24862,2,0,P|217:74|209:94,1,55.0000016784668,2|0,0:0|0:0,0:0:0:0:
375,131,24995,6,0,P|344:56|267:40,1,165.000005035401,4|0,0:0|0:0,0:0:0:0:
290,122,25262,1,8,0:0:0:0:
290,122,25528,1,4,0:3:0:0:
160,260,25662,1,4,0:3:0:0:
100,79,25795,1,8,0:0:0:0:
246,251,25928,6,0,P|193:339|95:316,1,220.000006713867,2|0,0:0|0:0,0:0:0:0:
182,155,26328,1,8,0:0:0:0:
94,315,26462,1,0,0:0:0:0:
0,102,26595,1,2,0:0:0:0:
160,260,26728,1,0,0:0:0:0:
207,44,26862,1,8,0:0:0:0:
160,260,26995,2,0,P|187:314|206:325,1,55.0000016784668
389,155,27128,6,0,P|331:98|254:113,1,165.000005035401,6|0,0:0|0:0,0:0:0:0:
308,179,27395,1,8,0:0:0:0:
450,80,27528,1,2,0:0:0:0:
255,112,27662,2,0,P|224:170|234:221,1,110.000003356934,2|0,0:0|0:0,0:0:0:0:
450,80,27928,1,8,0:0:0:0:
95,69,28062,6,0,P|158:149|252:115,1,220.000006713867,2|2,0:0|0:0,0:0:0:0:
22,20,28462,1,8,0:0:0:0:
254,111,28595,2,0,P|268:58|250:8,1,110.000003356934,2|0,0:0|0:0,0:0:0:0:
17,109,28862,1,2,0:0:0:0:
250,8,28995,1,8,0:0:0:0:
8,192,29128,2,0,P|32:248|48:257,1,55.0000016784668,2|0,0:0|0:0,0:0:0:0:
148,173,29262,6,0,P|69:175|25:241,1,165.000005035401,4|0,0:0|0:0,0:0:0:0:
111,251,29528,1,8,0:0:0:0:
111,251,29795,1,4,0:3:0:0:
167,54,29928,1,4,0:3:0:0:
309,199,30062,1,8,0:0:0:0:
75,91,30195,6,0,B|168:76|168:76|281:133,1,179.999994506836,4|0,0:0|1:0,0:0:0:0:
333,101,30528,1,0,1:0:0:0:
333,101,30595,2,0,L|235:115,1,89.9999972534181,8|0,1:2|0:0,0:0:0:0:
53,174,30862,5,8,0:3:0:0:
244,114,30995,1,4,0:3:0:0:
75,91,31128,1,8,0:0:0:0:
297,19,31262,2,0,L|235:28,1,44.999998626709,10|0,0:0|0:0,0:0:0:0:
38,258,31395,6,0,P|95:312|173:297,1,165.000005035401,6|0,0:0|0:0,0:0:0:0:
119,228,31662,1,8,0:0:0:0:
0,351,31795,1,2,0:0:0:0:
173,297,31928,2,0,P|204:245|195:192,1,110.000003356934,2|0,0:0|0:0,0:0:0:0:
0,351,32195,1,8,0:0:0:0:
197,198,32328,6,0,P|144:146|34:253,1,220.000006713867,2|2,0:0|0:0,0:0:0:0:
239,106,32728,1,8,0:0:0:0:
119,228,32862,2,0,P|114:281|143:327,1,110.000003356934,2|0,0:0|0:0,0:0:0:0:
390,156,33128,1,2,0:0:0:0:
239,106,33262,1,8,0:0:0:0:
386,239,33395,2,0,P|445:224|468:202,1,55.0000016784668,2|0,0:0|0:0,0:0:0:0:
247,21,33528,6,0,P|173:52|165:147,1,165.000005035401,4|0,0:0|0:0,0:0:0:0:
239,106,33795,1,8,0:0:0:0:
239,106,34062,1,4,0:3:0:0:
176,299,34195,1,4,0:3:0:0:
0,195,34328,1,8,0:0:0:0:
218,189,34462,6,0,P|184:267|54:228,1,220.000006713867,2|0,0:0|0:0,0:0:0:0:
82,48,34862,1,8,0:0:0:0:
133,197,34995,1,0,0:0:0:0:
239,106,35128,1,2,0:0:0:0:
0,195,35262,1,0,0:0:0:0:
82,48,35395,1,8,0:0:0:0:
176,299,35528,2,0,P|232:315|266:308,1,55.0000016784668
322,127,35662,6,0,P|241:157|244:263,1,165.000005035401,4|0,0:0|0:0,0:0:0:0:
307,210,35928,1,8,0:0:0:0:
207,26,36062,1,2,0:0:0:0:
139,78,36195,2,0,P|208:111|265:89,1,110.000003356934,2|0,0:0|0:0,0:0:0:0:
431,19,36462,1,8,0:0:0:0:
225,227,36595,6,0,P|279:291|390:231,1,220.000006713867,2|2,0:0|0:0,0:0:0:0:
145,188,36995,1,8,0:0:0:0:
387,240,37128,2,0,P|380:168|343:131,1,110.000003356934,2|0,0:0|0:0,0:0:0:0:
94,252,37395,1,2,0:0:0:0:
307,210,37528,1,8,0:0:0:0:
29,199,37662,2,0,P|10:239|16:274,1,55.0000016784668,2|0,0:0|0:0,0:0:0:0:
220,144,37795,6,0,P|154:100|79:129,1,165.000005035401,4|0,0:0|0:0,0:0:0:0:
145,188,38062,1,8,0:0:0:0:
145,188,38328,1,4,0:3:0:0:
366,142,38462,1,4,0:3:0:0:
288,303,38595,1,8,0:0:0:0:
261,5,38728,6,0,B|277:54|277:54|257:169|257:169|271:222,1,220.000006713867,4|0,0:0|1:0,0:0:0:0:
365,260,39062,1,0,1:0:0:0:
365,260,39128,2,0,B|324:222|324:222|247:216,1,110.000003356934,8|0,1:2|0:0,0:0:0:0:
48,254,39395,5,8,0:0:0:0:
270,218,39528,1,8,0:3:0:0:
108,184,39662,1,4,0:3:0:0:
288,303,39795,1,4,0:3:0:0:
219,23,39928,6,0,P|154:24|88:83,1,120,4|0,0:0|0:0,0:0:0:0:
108,52,40195,2,0,P|190:53|235:94,1,120,8|0,0:0|0:0,0:0:0:0:
218,73,40462,2,0,P|153:83|131:106,1,80,8|0,0:3|0:3,0:0:0:0:
283,131,40728,1,8,0:0:0:0:
143,90,40862,6,0,P|116:151|166:231,1,160,4|0,0:3|0:0,0:0:0:0:
201,152,41262,1,8,0:0:0:0:
201,152,41528,1,4,0:3:0:0:
158,227,41662,1,0,0:0:0:0:
282,130,41795,1,8,0:0:0:0:
282,130,42062,6,0,P|327:168|386:168,1,120,4|0,0:3|0:0,0:0:0:0:
385,168,42328,2,0,P|310:217|309:276,1,120,8|0,0:0|0:0,0:0:0:0:
304,240,42595,2,0,L|312:331,1,80,8|0,0:3|0:0,0:0:0:0:
392,250,42862,1,8,0:0:0:0:
216,214,42995,6,0,L|231:400,1,160,4|0,0:3|0:0,0:0:0:0:
140,329,43395,1,8,0:0:0:0:
140,329,43662,1,4,0:3:0:0:
223,292,43795,1,0,0:0:0:0:
87,257,43928,1,8,0:0:0:0:
87,257,44195,6,0,P|51:210|62:135,1,120,4|0,0:3|0:0,0:0:0:0:
53,151,44462,2,0,P|95:212|153:220,1,120,8|0,0:0|0:0,0:0:0:0:
137,222,44728,2,0,P|190:203|223:210,1,80,8|0,0:3|0:0,0:0:0:0:
328,292,44995,1,8,0:0:0:0:
212,206,45128,6,0,L|309:216,1,80,4|0,0:3|0:0,0:0:0:0:
381,226,45395,1,0,0:0:0:0:
259,121,45528,1,8,0:0:0:0:
259,121,45795,1,4,0:3:0:0:
344,128,45928,1,0,0:0:0:0:
174,116,46062,1,8,0:0:0:0:
174,116,46328,6,0,P|145:53|165:-12,1,120,4|0,0:3|0:0,0:0:0:0:
154,5,46595,2,0,P|107:73|50:77,1,120,8|0,0:0|0:0,0:0:0:0:
74,80,46862,2,0,L|-14:73,1,80,8|0,0:3|0:0,0:0:0:0:
89,222,47128,1,8,0:0:0:0:
30,161,47262,6,0,P|4:218|17:266,1,80,4|0,0:3|0:0,0:0:0:0:
59,300,47528,1,0,0:0:0:0:
170,203,47662,1,8,0:0:0:0:
89,222,47795,1,0,0:0:0:0:
324,235,47928,5,8,0:3:0:0:
263,137,48062,1,8,0:3:0:0:
233,295,48195,1,8,0:0:0:0:
263,137,48328,1,4,0:3:0:0:
394,328,48462,6,0,P|464:326|519:272,1,134.999995880127,4|0,0:0|0:0,0:0:0:0:
511,285,48728,2,0,B|484:249|484:249|478:191,1,89.9999972534181,8|0,0:0|0:0,0:0:0:0:
369,56,48995,1,8,0:3:0:0:
385,232,49128,2,0,L|376:136,1,89.9999972534181,0|8,0:0|0:0,0:0:0:0:
159,131,49395,6,0,P|209:200|294:191,1,179.999994506836,4|0,0:3|0:0,0:0:0:0:
252,31,49795,2,0,L|244:139,1,89.9999972534181,8|0,0:0|0:0,0:0:0:0:
307,275,50062,1,4,0:3:0:0:
295,190,50195,1,0,0:0:0:0:
127,338,50328,2,0,P|165:361|225:357,1,89.9999972534181,8|0,0:0|0:0,0:0:0:0:
210,363,50528,1,0,0:0:0:0:
210,363,50595,6,0,P|170:302|195:217,1,134.999995880127,4|0,0:3|0:0,0:0:0:0:
177,243,50862,2,0,B|202:207|202:207|197:137,1,89.9999972534181,8|0,0:0|0:0,0:0:0:0:
67,110,51128,1,8,0:3:0:0:
113,180,51262,1,0,0:0:0:0:
238,75,51395,2,0,L|136:80,1,89.9999972534181,8|0,0:0|0:0,0:0:0:0:
80,267,51662,6,0,L|291:284,1,179.999994506836,4|8,0:3|0:0,0:0:0:0:
393,369,52062,2,0,B|347:378|347:378|298:351,2,89.9999972534181,0|4|0,0:0|0:3|0:0,0:0:0:0:
431,226,52462,2,0,L|420:124,1,89.9999972534181,8|0,0:0|0:0,0:0:0:0:
430,145,52662,1,0,0:0:0:0:
430,145,52728,6,0,P|352:153|313:218,1,134.999995880127,4|0,0:3|0:0,0:0:0:0:
318,193,52995,2,0,B|272:198|272:198|227:176,1,89.9999972534181,8|0,0:0|0:0,0:0:0:0:
157,42,53262,1,8,0:3:0:0:
144,217,53395,2,0,L|151:113,1,89.9999972534181,0|8,0:0|0:0,0:0:0:0:
343,26,53662,6,0,P|425:64|406:175,1,179.999994506836,4|0,0:3|0:0,0:0:0:0:
354,109,54062,1,8,0:0:0:0:
496,200,54195,2,0,P|455:228|402:226,1,89.9999972534181,4|0,0:3|0:0,0:0:0:0:
276,75,54462,1,0,0:0:0:0:
296,252,54595,2,0,L|286:152,1,89.9999972534181,8|0,0:0|0:0,0:0:0:0:
287,162,54795,1,0,0:0:0:0:
287,162,54862,6,0,P|213:166|160:224,1,134.999995880127,4|0,0:3|0:0,0:0:0:0:
169,204,55128,2,0,B|197:241|197:241|190:314,1,89.9999972534181,8|0,0:0|0:0,0:0:0:0:
1,350,55395,1,8,0:3:0:0:
162,364,55528,2,0,P|134:382|58:375,1,89.9999972534181,0|8,0:0|0:0,0:0:0:0:
38,152,55795,1,0,0:0:0:0:
38,152,55862,1,0,0:0:0:0:
38,152,55928,6,0,P|66:134|180:146,1,134.999995880127,4|0,0:3|0:0,0:0:0:0:
164,136,56195,2,0,B|210:143|210:143|270:114,1,89.9999972534181,8|0,0:0|0:0,0:0:0:0:
380,1,56462,1,4,0:3:0:0:
197,52,56595,1,0,0:0:0:0:
371,184,56728,6,0,L|314:177,1,50,8|0,1:2|0:0,0:0:0:0:
321,177,57262,6,0,P|396:237|376:320,1,150,12|0,0:0|0:0,0:0:0:0:
336,343,57528,2,0,P|287:343|247:315,1,100,4|0,0:3|0:0,0:0:0:0:
223,146,57795,1,8,0:0:0:0:
236,228,57928,1,0,0:0:0:0:
155,94,58062,6,0,P|199:64|254:67,1,100,2|0,0:0|0:0,0:0:0:0:
426,179,58328,2,0,P|353:181|306:127,1,150,8|0,0:0|0:0,0:0:0:0:
306,127,58595,1,4,0:3:0:0:
388,103,58728,1,0,0:0:0:0:
235,295,58862,2,0,L|222:134,1,150,8|0,0:0|0:0,0:0:0:0:
222,145,59128,6,0,P|170:112|108:125,1,100,4|0,0:0|0:0,0:0:0:0:
112,340,59395,2,0,P|200:339|238:272,1,150,8|0,0:0|0:0,0:0:0:0:
234,294,59662,1,4,0:3:0:0:
153,264,59795,1,0,0:0:0:0:
316,328,59928,2,0,P|311:251|270:217,1,100,8|0,0:0|0:0,0:0:0:0:
67,186,60195,6,0,L|200:174,1,100,2|0,0:0|0:0,0:0:0:0:
409,57,60462,2,0,P|339:39|282:83,1,150,8|0,0:0|0:0,0:0:0:0:
252,163,60728,1,4,0:3:0:0:
357,122,60862,1,0,0:0:0:0:
198,44,60995,6,0,L|193:103,1,50,8|0,0:0|0:0,0:0:0:0:
193,93,61528,6,0,P|146:151|56:135,1,150,12|0,0:0|0:0,0:0:0:0:
17,86,61795,2,0,P|62:65|111:72,1,100,4|0,0:3|0:0,0:0:0:0:
246,185,62062,1,8,0:0:0:0:
161,173,62195,1,0,0:0:0:0:
278,107,62328,6,0,P|326:155|323:217,1,100,2|0,0:0|0:0,0:0:0:0:
142,261,62595,2,0,P|175:197|246:185,1,150,8|0,0:0|0:0,0:0:0:0:
246,185,62862,1,4,0:3:0:0:
227,266,62995,1,0,0:0:0:0:
61,163,63128,2,0,L|174:174,1,100,8|0,0:0|0:0,0:0:0:0:
437,201,63395,6,0,L|324:190,1,100,4|4,0:0|0:0,0:0:0:0:
337,191,65528,6,0,P|382:158|366:44,1,165.000005035401,4|0,0:0|0:0,0:0:0:0:
300,24,65795,2,0,L|181:40,1,110.000003356934,8|0,0:0|0:0,0:0:0:0:
270,247,66062,1,4,0:3:0:0:
312,110,66195,1,4,0:3:0:0:
111,131,66328,1,8,0:0:0:0:
251,164,66462,1,4,0:3:0:0:
78,53,66595,5,2,0:0:0:0:
45,185,66728,1,4,0:3:0:0:
260,36,66862,2,0,P|193:6|132:29,1,110.000003356934,8|0,0:0|0:0,0:0:0:0:
86,260,67128,1,4,0:3:0:0:
251,164,67262,1,4,0:3:0:0:
9,104,67395,1,8,0:0:0:0:
149,321,67528,2,0,P|165:297|169:255,1,55.0000016784668,2|0,0:0|0:0,0:0:0:0:
158,108,67662,6,0,L|172:290,1,165.000005035401,4|0,0:0|0:0,0:0:0:0:
86,260,67928,2,0,L|75:140,1,110.000003356934,8|0,0:0|0:0,0:0:0:0:
153,25,68195,1,4,0:3:0:0:
248,133,68328,1,4,0:3:0:0:
75,150,68462,1,8,0:0:0:0:
153,25,68595,1,4,0:3:0:0:
167,218,68728,5,2,0:0:0:0:
53,68,68862,1,4,0:3:0:0:
256,48,68995,2,0,P|328:98|322:177,1,165.000005035401,8|0,0:0|0:0,0:0:0:0:
248,133,69262,1,4,0:3:0:0:
398,52,69395,1,4,0:3:0:0:
336,277,69528,1,8,0:0:0:0:
336,277,69795,6,0,P|399:332|494:286,1,165.000005035401,4|0,0:0|0:0,0:0:0:0:
476,226,70062,2,0,P|415:195|358:208,1,110.000003356934,8|0,0:0|0:0,0:0:0:0:
217,346,70328,1,4,0:3:0:0:
336,277,70462,1,4,0:3:0:0:
171,113,70595,1,8,0:0:0:0:
31,282,70728,6,0,L|265:260,1,220.000006713867,4|4,0:3|0:3,0:0:0:0:
335,73,71128,2,0,P|300:32|240:19,1,110.000003356934,8|0,0:0|0:0,0:0:0:0:
88,132,71395,1,4,0:3:0:0:
256,105,71528,1,4,0:3:0:0:
61,2,71662,1,8,0:0:0:0:
86,218,71795,2,0,P|110:216|138:204,1,55.0000016784668,2|0,0:0|0:0,0:0:0:0:
199,38,71928,6,0,P|277:21|341:92,1,165.000005035401,4|0,0:0|0:0,0:0:0:0:
327,157,72195,2,0,L|316:279,1,110.000003356934,8|0,0:0|0:0,0:0:0:0:
256,105,72462,1,4,0:3:0:0:
409,124,72595,1,4,0:3:0:0:
306,350,72728,1,8,0:0:0:0:
327,157,72862,2,0,L|320:229,1,55.0000016784668,2|0,0:0|0:0,0:0:0:0:
306,350,72995,5,4,0:0:0:0:
181,207,73128,1,0,1:0:0:0:
181,207,73195,1,0,1:0:0:0:
181,207,73262,1,0,1:0:0:0:
472,242,73395,1,0,1:0:0:0:
341,40,73528,5,8,0:3:0:0:
315,262,73662,1,4,0:3:0:0:
512,166,73795,1,8,0:0:0:0:
149,123,73928,1,8,0:0:0:0:
334,345,74062,6,0,P|396:289|348:184,1,165.000005035401,4|0,0:0|0:0,0:0:0:0:
310,176,74328,2,0,P|245:209|228:263,1,110.000003356934,8|0,0:0|0:0,0:0:0:0:
466,347,74595,1,4,0:3:0:0:
434,143,74728,1,4,0:3:0:0:
230,240,74862,1,8,0:0:0:0:
385,214,74995,1,4,0:3:0:0:
160,99,75128,5,2,0:0:0:0:
230,240,75262,1,4,0:3:0:0:
316,66,75395,2,0,P|271:36|217:36,1,110.000003356934,8|0,0:0|0:0,0:0:0:0:
87,159,75662,1,4,0:3:0:0:
245,119,75795,1,4,0:3:0:0:
39,61,75928,1,8,0:0:0:0:
85,274,76062,2,0,P|147:286|165:281,1,55.0000016784668,2|0,0:0|0:0,0:0:0:0:
245,119,76195,6,0,P|326:107|381:186,1,165.000005035401,4|0,0:0|0:0,0:0:0:0:
362,249,76462,2,0,L|237:260,1,110.000003356934,8|0,0:0|0:0,0:0:0:0:
226,34,76728,1,4,0:3:0:0:
377,163,76862,1,4,0:3:0:0:
164,90,76995,1,8,0:0:0:0:
358,82,77128,1,4,0:3:0:0:
101,147,77262,6,0,P|79:89|101:32,1,110.000003356934,2|4,0:0|0:3,0:0:0:0:
460,180,77528,2,0,P|406:244|316:222,1,165.000005035401,8|0,0:0|0:0,0:0:0:0:
293,161,77795,1,4,0:3:0:0:
439,104,77928,1,4,0:3:0:0:
244,230,78062,1,8,0:0:0:0:
244,230,78328,6,0,P|183:173|101:195,1,165.000005035401,4|0,0:0|0:0,0:0:0:0:
79,267,78595,2,0,P|111:323|151:338,1,110.000003356934,8|0,0:0|0:0,0:0:0:0:
326,207,78862,1,4,0:3:0:0:
163,255,78995,1,4,0:3:0:0:
297,377,79128,1,8,0:0:0:0:
191,175,79262,6,0,P|101:194|134:333,1,220.000006713867,4|4,0:3|0:3,0:0:0:0:
407,268,79662,2,0,L|414:158,1,110.000003356934,8|0,0:0|0:0,0:0:0:0:
218,41,79928,1,4,0:3:0:0:
326,207,80062,1,4,0:3:0:0:
476,99,80195,2,0,P|401:73|337:120,1,165.000005035401,8|0,0:0|0:0,0:0:0:0:
326,207,80462,5,4,0:0:0:0:
248,247,81395,5,2,0:0:0:0:
248,247,82062,5,8,0:0:0:0:
326,207,82195,1,8,0:3:0:0:
336,120,82328,1,4,0:3:0:0:
248,247,82462,5,4,0:0:0:0:
144,63,86728,6,0,P|124:133|125:166,1,100,4|0,0:0|0:0,0:0:0:0:
144,243,87128,1,4,0:3:0:0:
144,243,87395,1,8,0:0:0:0:
344,54,87662,5,4,0:3:0:0:
281,107,87795,1,0,0:0:0:0:
360,137,87928,2,0,P|414:131|438:120,1,75,8|0,0:3|0:0,0:0:0:0:
432,122,88195,1,4,0:3:0:0:
266,246,88462,6,0,P|314:269|383:277,1,100,8|8,0:0|0:0,0:0:0:0:
359,277,88862,6,0,P|284:298|254:317,1,100,4|0,0:0|0:0,0:0:0:0:
208,373,89262,1,4,0:3:0:0:
208,373,89528,1,8,0:0:0:0:
67,80,89795,5,4,0:3:0:0:
87,159,89928,1,0,0:0:0:0:
147,100,90062,2,0,P|159:34|159:3,1,75,8|0,0:3|0:0,0:0:0:0:
159,26,90328,1,4,0:3:0:0:
237,296,90595,6,8,P|265:258|286:201,2,100
122,354,90995,6,0,P|76:354|16:338,1,100,4|0,0:0|0:0,0:0:0:0:
165,252,91395,2,0,P|145:262|105:271,1,50,4|0,0:0|0:0,0:0:0:0:
109,183,91662,1,8,0:0:0:0:
365,161,91928,5,4,0:3:0:0:
312,230,92062,1,0,0:0:0:0:
280,148,92195,2,0,P|286:82|294:55,1,75,8|0,0:3|0:0,0:0:0:0:
288,73,92462,1,4,0:3:0:0:
437,346,92728,6,8,P|413:277|409:238,1,100
409,250,93128,6,0,P|362:271|299:273,1,100,4|0,0:0|0:0,0:0:0:0:
230,253,93528,1,4,0:3:0:0:
230,253,93795,1,8,0:0:0:0:
198,12,94062,5,4,0:3:0:0:
274,67,94195,1,4,0:3:0:0:
274,67,94262,1,4,0:3:0:0:
274,67,94328,6,12,P|362:47|420:-1,3,150,8|12|12|12,0:0|0:0|0:0|0:0,0:0:0:0:
408,11,96414,6,0,P|339:37|360:168,1,220.000006713867,4|0,0:0|0:0,0:0:0:0:
485,286,96813,2,0,P|414:239|358:255,1,110.000003356934,8|0,0:0|0:0,0:0:0:0:
237,309,97080,1,4,0:3:0:0:
410,327,97213,1,4,0:3:0:0:
156,220,97347,2,0,L|144:409,1,165.000005035401,8|0,0:0|0:0,0:0:0:0:
145,384,97613,5,4,0:3:0:0:
323,321,97747,1,4,0:3:0:0:
67,244,97880,2,0,L|59:363,1,110.000003356934,8|0,0:0|0:0,0:0:0:0:
410,327,98147,1,4,0:3:0:0:
294,144,98280,1,4,0:3:0:0:
150,302,98413,1,8,0:0:0:0:
377,129,98547,6,0,P|311:61|209:127,1,220.000006713867,4|0,0:0|0:0,0:0:0:0:
225,343,98947,2,0,P|294:367|337:352,1,110.000003356934,8|0,0:0|0:0,0:0:0:0:
294,144,99213,1,4,0:3:0:0:
287,281,99347,1,4,0:3:0:0:
503,228,99480,2,0,L|337:215,1,165.000005035401,8|0,0:0|0:0,0:0:0:0:
338,215,99747,5,4,0:3:0:0:
490,313,99880,1,4,0:3:0:0:
498,143,100013,2,0,P|416:106|373:121,1,110.000003356934,8|0,0:0|0:0,0:0:0:0:
256,249,100280,1,4,0:3:0:0:
426,192,100413,1,4,0:3:0:0:
205,69,100547,1,8,0:0:0:0:
287,340,100680,6,0,L|298:87,1,220.000006713867,4|0,0:0|0:0,0:0:0:0:
492,248,101080,2,0,P|425:278|364:253,1,110.000003356934,8|0,0:0|0:0,0:0:0:0:
296,120,101347,1,4,0:3:0:0:
426,192,101480,1,4,0:3:0:0:
200,233,101613,2,0,L|205:51,1,165.000005035401,8|0,0:0|0:0,0:0:0:0:
204,68,101880,5,4,0:3:0:0:
385,114,102013,1,4,0:3:0:0:
192,320,102147,2,0,P|136:294|114:232,1,110.000003356934,8|0,0:0|0:0,0:0:0:0:
137,2,102413,1,4,0:3:0:0:
296,120,102547,1,4,0:3:0:0:
137,2,102680,1,8,0:0:0:0:
200,233,102813,6,0,L|427:217,1,220.000006713867,4|0,0:0|0:0,0:0:0:0:
155,157,103213,2,0,P|119:198|114:251,1,110.000003356934,8|0,0:0|0:0,0:0:0:0:
344,261,103480,1,4,0:3:0:0:
296,120,103613,1,4,0:3:0:0:
114,251,103747,2,0,P|170:315|270:286,1,165.000005035401,4|0,0:0|0:0,0:0:0:0:
200,233,104013,5,0,1:0:0:0:
46,315,104147,1,0,1:0:0:0:
46,315,104213,1,0,1:0:0:0:
46,315,104280,1,0,1:0:0:0:
276,205,104413,1,0,1:0:0:0:
64,43,104547,5,4,1:3:0:0:
53,42,104613,1,0,1:0:0:0:
42,43,104680,1,0,1:0:0:0:
32,48,104747,1,0,1:0:0:0:
24,55,104813,1,0,1:0:0:0:
18,65,104880,1,0,1:0:0:0:
15,75,104947,6,0,L|251:52,1,220.000006713867,4|0,0:0|0:0,0:0:0:0:
114,251,105347,2,0,P|78:194|100:131,1,110.000003356934,8|0,0:0|0:0,0:0:0:0:
310,96,105613,1,4,0:3:0:0:
163,184,105747,1,4,0:3:0:0:
313,11,105880,2,0,P|381:46|388:135,1,165.000005035401,8|0,0:0|0:0,0:0:0:0:
391,127,106147,5,4,0:3:0:0:
233,53,106280,1,4,0:3:0:0:
480,140,106413,2,0,P|448:198|391:217,1,110.000003356934,8|0,0:0|0:0,0:0:0:0:
84,154,106680,1,4,0:3:0:0:
310,96,106813,1,4,0:3:0:0:
84,154,106947,1,8,0:0:0:0:
330,214,107080,6,0,P|291:115|183:135,1,220.000006713867,4|0,0:0|0:0,0:0:0:0:
268,272,107480,2,0,P|306:296|368:290,1,110.000003356934,8|0,0:0|0:0,0:0:0:0:
405,87,107747,1,4,0:3:0:0:
249,189,107880,1,4,0:3:0:0:
455,276,108013,2,0,P|409:212|329:212,1,165.000005035401,8|0,0:0|0:0,0:0:0:0:
329,212,108280,5,4,0:3:0:0:
462,154,108413,1,4,0:3:0:0:
189,125,108547,2,0,P|162:209|190:255,1,110.000003356934,8|0,0:0|0:0,0:0:0:0:
375,139,108813,1,4,0:3:0:0:
138,58,108947,1,4,0:3:0:0:
375,139,109080,1,8,0:0:0:0:
191,305,109213,6,0,P|108:287|115:159,1,220.000006713867,4|0,0:0|0:0,0:0:0:0:
368,225,109613,2,0,L|357:363,1,110.000003356934,8|0,0:0|0:0,0:0:0:0:
167,225,109880,1,4,0:3:0:0:
287,128,110013,1,4,0:3:0:0:
191,305,110147,2,0,P|100:278|83:219,1,165.000005035401,8|0,0:0|0:0,0:0:0:0:
167,225,110413,5,4,0:3:0:0:
103,379,110547,1,4,0:3:0:0:
27,156,110680,2,0,P|100:133|141:155,1,110.000003356934,8|0,0:0|0:0,0:0:0:0:
273,335,110947,1,4,0:3:0:0:
83,218,111080,1,4,0:3:0:0:
361,135,111213,2,0,L|351:315,1,165.000005035401,8|0,0:0|0:0,0:0:0:0:
347,384,111480,5,4,0:0:0:0:
351,299,112013,5,4,0:0:0:0:
354,216,112547,5,4,0:0:0:0:
361,134,113080,5,4,0:0:0:0:
347,384,113613,5,4,0:0:0:0:
67,51,138319,6,0,P|105:48|154:35,1,75
140,39,138712,6,0,P|118:117|120:145,1,100,4|0,0:3|0:0,0:0:0:0:
304,0,139496,2,0,P|232:53|206:119,1,150,2|0,0:0|0:0,0:0:0:0:
234,190,140280,2,0,P|281:208|345:209,2,100
234,190,141457,1,4,0:3:0:0:
234,190,141849,6,0,P|185:191|117:212,1,100,4|0,0:3|0:0,0:0:0:0:
344,318,142633,2,0,P|281:289|200:278,1,150,2|0,0:0|3:0,0:0:0:0:
123,315,143417,2,0,P|95:325|59:329,2,50,0|0|0,0:0|3:0|0:0,0:0:0:0:
76,241,144006,1,0,0:0:0:0:
150,198,144202,1,0,3:0:0:0:
150,198,144594,1,4,0:3:0:0:
150,198,144986,6,0,P|240:182|262:170,1,100,4|0,0:3|0:0,0:0:0:0:
29,84,145770,2,0,P|137:109|192:112,1,150,2|0,0:0|3:0,0:0:0:0:
248,65,146555,2,0,P|271:55|305:50,1,50,0|0,0:0|3:0,0:0:0:0:
300,137,146947,2,0,P|361:147|401:168,1,100,0|0,0:0|3:0,0:0:0:0:
394,163,147731,1,4,0:3:0:0:
394,163,148123,6,0,L|385:271,1,103.999999365234,4|4,0:3|0:0,0:0:0:0:
276,63,150365,6,0,P|197:55|146:116,1,165.000005035401,4|0,0:0|0:0,0:0:0:0:
171,197,150632,2,0,P|209:216|279:201,1,110.000003356934,8|0,0:0|0:0,0:0:0:0:
364,60,150899,1,0,0:3:0:0:
230,135,151032,1,4,0:3:0:0:
362,210,151165,1,8,0:0:0:0:
364,60,151299,1,4,0:3:0:0:
239,299,151432,5,2,0:0:0:0:
461,183,151565,1,4,0:3:0:0:
228,49,151699,2,0,P|182:60|143:115,1,110.000003356934,8|0,0:0|0:0,0:0:0:0:
340,290,151965,1,4,0:3:0:0:
315,132,152099,1,4,0:3:0:0:
153,190,152232,1,8,0:0:0:0:
422,318,152365,2,0,P|425:290|414:249,1,55.0000016784668,2|0,0:0|0:0,0:0:0:0:
230,135,152499,6,0,L|240:313,1,165.000005035401,4|0,0:0|0:0,0:0:0:0:
176,360,152765,2,0,P|131:360|82:320,1,110.000003356934,8|0,0:0|0:0,0:0:0:0:
230,135,153032,1,4,0:3:0:0:
344,313,153165,1,4,0:3:0:0:
154,277,153299,1,8,0:0:0:0:
316,151,153432,1,4,0:3:0:0:
176,360,153565,5,2,0:0:0:0:
286,71,153699,1,4,0:3:0:0:
248,269,153832,2,0,P|186:268|134:166,1,165.000005035401,8|0,0:0|0:0,0:0:0:0:
217,189,154099,1,4,0:3:0:0:
296,380,154232,1,4,0:3:0:0:
11,212,154365,1,8,0:0:0:0:
11,212,154632,6,0,L|-4:385,1,165.000005035401,4|0,0:0|0:0,0:0:0:0:
86,375,154899,2,0,L|97:249,1,110.000003356934,8|0,0:0|0:0,0:0:0:0:
109,73,155165,1,0,0:3:0:0:
11,212,155299,1,4,0:3:0:0:
254,159,155432,1,8,0:0:0:0:
28,46,155565,6,0,P|55:140|182:117,1,220.000006713867,4|4,0:3|0:3,0:0:0:0:
296,39,155965,2,0,P|245:32|173:85,1,110.000003356934,8|0,0:0|0:0,0:0:0:0:
83,266,156232,1,4,0:3:0:0:
257,116,156365,1,4,0:3:0:0:
28,46,156499,1,8,0:0:0:0:
83,266,156632,2,0,P|107:264|135:252,1,55.0000016784668,2|0,0:0|0:0,0:0:0:0:
193,56,156765,6,0,P|275:30|340:101,1,165.000005035401,4|0,0:0|0:0,0:0:0:0:
364,154,157032,2,0,L|353:276,1,110.000003356934,8|0,0:0|0:0,0:0:0:0:
85,178,157299,1,4,0:3:0:0:
257,116,157432,1,4,0:3:0:0:
228,292,157565,1,8,0:0:0:0:
80,93,157699,2,0,P|111:97|151:122,1,55.0000016784668,2|0,0:0|0:0,0:0:0:0:
269,215,157832,5,4,0:0:0:0:
14,284,157965,1,0,1:0:0:0:
14,284,158032,1,0,1:0:0:0:
14,284,158099,1,0,1:0:0:0:
294,343,158232,1,0,1:0:0:0:
85,178,158365,5,8,0:0:0:0:
138,383,158499,1,0,1:0:0:0:
204,83,158632,1,8,0:3:0:0:
172,231,158765,1,4,0:3:0:0:
439,156,158899,6,0,P|398:82|285:106,1,165.000005035401,4|0,0:0|0:0,0:0:0:0:
269,144,159165,2,0,L|280:266,1,110.000003356934,8|0,0:0|0:0,0:0:0:0:
512,217,159432,1,4,0:3:0:0:
446,14,159565,1,4,0:3:0:0:
354,155,159699,1,8,0:0:0:0:
512,99,159832,1,4,0:3:0:0:
239,63,159965,5,2,0:0:0:0:
300,277,160099,1,4,0:3:0:0:
422,104,160232,2,0,P|378:74|323:76,1,110.000003356934,8|0,0:0|0:0,0:0:0:0:
134,210,160499,1,4,0:3:0:0:
354,155,160632,1,4,0:3:0:0:
190,0,160765,1,8,0:0:0:0:
134,210,160899,2,0,P|162:220|214:217,1,55.0000016784668,2|0,0:0|0:0,0:0:0:0:
275,30,161032,6,0,L|96:43,1,165.000005035401,4|0,0:0|0:0,0:0:0:0:
49,132,161299,2,0,L|158:122,1,110.000003356934,8|0,0:0|0:0,0:0:0:0:
414,91,161565,1,4,0:3:0:0:
215,188,161699,1,4,0:3:0:0:
275,30,161832,1,8,0:0:0:0:
360,248,161965,1,4,0:3:0:0:
158,122,162099,6,0,P|216:103|272:124,1,110.000003356934,2|2,0:0|0:0,0:0:0:0:
443,265,162365,2,0,P|389:329|299:307,1,165.000005035401,8|0,0:0|0:0,0:0:0:0:
276,246,162632,1,4,0:3:0:0:
494,366,162765,1,4,0:3:0:0:
227,315,162899,1,8,0:0:0:0:
227,315,163165,6,0,L|240:121,1,165.000005035401,4|0,0:0|0:0,0:0:0:0:
225,67,163432,2,0,P|169:99|154:139,1,110.000003356934,8|0,0:0|0:0,0:0:0:0:
348,296,163699,1,4,0:3:0:0:
303,96,163832,1,4,0:3:0:0:
150,231,163965,1,8,0:0:0:0:
387,77,164099,6,0,P|310:10|224:66,1,220.000006713867,4|0,0:0|0:0,0:0:0:0:
348,296,164499,2,8,P|432:289|465:254,1,110.000003356934,8|0,0:0|0:0,0:0:0:0:
303,96,164765,1,4,0:3:0:0:
261,314,164899,1,4,0:3:0:0:
385,214,165032,1,8,0:0:0:0:
224,66,165165,2,0,P|185:76|156:101,1,55.0000016784668,2|0,0:0|0:0,0:0:0:0:
160,248,165299,6,0,L|174:68,1,165.000005035401,4|0,0:0|0:0,0:0:0:0:
88,56,165565,2,0,L|77:179,1,110.000003356934,8|0,0:0|0:0,0:0:0:0:
155,331,165832,1,4,0:3:0:0:
251,178,165965,1,4,0:3:0:0:
78,165,166099,1,8,0:0:0:0:
308,255,166232,6,0,B|417:270|417:270|522:206,1,220.000006713867,4|0,0:0|1:0,0:0:0:0:
400,178,166565,1,0,1:0:0:0:
400,178,166632,1,2,1:3:0:0:
434,357,166765,1,2,1:3:0:0:
457,113,166899,5,0,1:0:0:0:
448,105,166965,1,0,1:0:0:0:
439,99,167032,1,0,1:0:0:0:
430,94,167098,1,0,1:0:0:0:
419,90,167165,1,0,1:0:0:0:
409,88,167232,1,0,1:0:0:0:
398,87,167298,1,0,1:0:0:0:
387,87,167365,1,0,1:0:0:0:
376,89,167432,6,0,P|301:94|250:2,1,165.000005035401,6|0,0:0|0:0,0:0:0:0:
335,16,167699,1,8,0:0:0:0:
256,200,167832,1,2,0:0:0:0:
193,142,167965,2,0,P|261:115|316:140,1,110.000003356934,2|0,0:0|0:0,0:0:0:0:
389,305,168232,1,8,0:0:0:0:
182,245,168365,6,0,P|192:142|293:123,1,220.000006713867,2|2,0:0|0:0,0:0:0:0:
250,345,168765,1,8,0:0:0:0:
293,123,168899,2,0,P|342:189|334:232,1,110.000003356934,2|0,0:0|0:0,0:0:0:0:
165,326,169165,1,2,0:0:0:0:
193,142,169299,1,8,0:0:0:0:
406,276,169432,2,0,P|348:299|323:295,1,55.0000016784668,2|0,0:0|0:0,0:0:0:0:
108,138,169565,6,0,P|148:69|231:67,1,165.000005035401,4|0,0:0|0:0,0:0:0:0:
193,142,169832,1,8,0:0:0:0:
193,142,170099,1,4,0:3:0:0:
317,0,170232,1,4,0:3:0:0:
123,37,170365,1,8,0:0:0:0:
298,296,170499,6,0,P|385:237|336:133,1,220.000006713867,2|0,0:0|0:0,0:0:0:0:
217,322,170899,2,0,P|257:372|316:378,1,110.000003356934,8|0,0:0|0:0,0:0:0:0:
353,142,171165,1,4,0:3:0:0:
233,238,171299,1,4,0:3:0:0:
432,179,171432,1,8,0:0:0:0:
158,196,171565,2,0,P|150:266|163:293,1,55.0000016784668,0|0,0:3|0:0,0:0:0:0:
425,99,171699,6,0,P|394:69|281:100,1,165.000005035401,6|0,0:0|0:0,0:0:0:0:
353,142,171965,1,8,0:0:0:0:
476,25,172099,1,2,0:0:0:0:
285,92,172232,2,0,P|268:146|300:209,1,110.000003356934,2|0,0:0|0:0,0:0:0:0:
476,25,172499,1,8,0:0:0:0:
285,194,172632,6,0,P|376:222|434:111,1,220.000006713867,2|2,0:0|0:0,0:0:0:0:
196,69,173032,1,8,0:0:0:0:
438,131,173165,2,0,P|410:77|356:58,1,110.000003356934,2|0,0:0|0:0,0:0:0:0:
111,76,173432,1,2,0:0:0:0:
353,142,173565,1,8,0:0:0:0:
304,0,173699,2,0,P|244:4|218:19,1,55.0000016784668,2|0,0:0|0:0,0:0:0:0:
115,210,173832,6,0,P|210:200|235:129,1,165.000005035401,4|0,0:0|0:0,0:0:0:0:
196,69,174099,1,8,0:0:0:0:
196,69,174365,1,4,0:3:0:0:
203,228,174499,1,4,0:3:0:0:
48,156,174632,1,8,0:0:0:0:
353,142,174765,6,0,B|434:212|434:212|420:335,1,220.000006713867,4|0,0:0|0:0,0:0:0:0:
76,294,175165,1,8,0:0:0:0:
343,247,175299,1,4,0:3:0:0:
76,294,175432,1,8,0:0:0:0:
343,247,175565,1,4,0:3:0:0:
76,294,175699,1,8,0:0:0:0:
343,247,175832,2,0,P|282:225|253:234,1,55.0000016784668
54,210,175965,6,0,P|0:253|27:364,1,165.000005035401,6|0,0:0|0:0,0:0:0:0:
83,382,176232,1,8,0:0:0:0:
119,156,176365,1,2,0:0:0:0:
54,210,176499,2,0,P|123:241|179:215,1,110.000003356934,2|0,0:0|0:0,0:0:0:0:
310,58,176765,1,8,0:0:0:0:
45,106,176899,6,0,P|52:209|153:233,1,220.000006713867,2|2,0:0|0:0,0:0:0:0:
160,5,177299,1,8,0:0:0:0:
151,233,177432,2,0,P|201:167|185:113,1,110.000003356934,2|0,0:0|0:0,0:0:0:0:
8,7,177699,1,2,0:0:0:0:
119,156,177832,1,8,0:0:0:0:
310,58,177965,2,0,P|245:84|231:110,1,55.0000016784668,2|0,0:0|0:0,0:0:0:0:
242,267,178099,6,0,P|318:189|284:112,1,165.000005035401,4|0,0:0|0:0,0:0:0:0:
233,181,178365,1,8,0:0:0:0:
233,181,178632,1,4,0:3:0:0:
409,132,178765,1,4,0:3:0:0:
367,303,178899,1,8,0:0:0:0:
344,77,179032,6,0,P|431:49|473:189,1,220.000006713867,2|0,0:0|0:0,0:0:0:0:
177,242,179432,2,0,P|146:177|167:123,1,110.000003356934,8|0,0:0|0:0,0:0:0:0:
409,132,179699,1,4,0:3:0:0:
310,230,179832,1,4,0:3:0:0:
224,43,179965,1,8,0:0:0:0:
433,215,180099,2,0,P|385:255|366:259,1,55.0000016784668
233,181,180232,6,0,L|43:169,1,165.000005035401,4|0,0:0|0:0,0:0:0:0:
0,221,180499,2,0,P|-25:287|-2:342,1,110.000003356934,8|0,0:0|0:0,0:0:0:0:
205,263,180765,1,2,0:0:0:0:
108,90,180899,1,4,0:3:0:0:
63,281,181032,1,8,0:0:0:0:
292,254,181165,6,0,P|215:179|121:244,1,220.000006713867,2|2,0:0|0:0,0:0:0:0:
356,313,181565,1,8,0:0:0:0:
128,225,181699,2,0,P|123:290|159:338,1,110.000003356934,2|0,0:0|0:0,0:0:0:0:
375,230,181965,1,2,0:0:0:0:
205,263,182099,1,8,0:0:0:0:
432,347,182232,2,0,P|438:320|437:293,1,55.0000016784668,2|0,0:0|0:0,0:0:0:0:
267,147,182365,5,4,0:0:0:0:
348,131,183299,5,4,0:0:0:0:
436,116,184410,6,0,P|352:200|328:302,1,219.999999328613,4|0,0:0|0:0,0:0:0:0:
438,223,185432,6,4,P|423:245|420:291,1,41.5000006015778,4|4,0:3|0:3,0:3:0:0:
505,278,185565,1,12,0:0:0:0:
