osu file format v14

[General]
AudioFilename: savior.mp3
AudioLeadIn: 0
PreviewTime: 39062
Countdown: 0
SampleSet: Soft
StackLeniency: 0.8
Mode: 0
LetterboxInBreaks: 1
WidescreenStoryboard: 1

[Editor]
Bookmarks: 48262
DistanceSpacing: 1
BeatDivisor: 4
GridSize: 4
TimelineZoom: 1.6

[Metadata]
Title:Savior
TitleUnicode:Savior
Artist:Rise Against
ArtistUnicode:Rise Against
Creator:pishifat
Version:Easy
Source:
Tags:punk metal appeal to reason milan- smokeman fieryrage raiden
BeatmapID:1115064
BeatmapSetID:509675

[Difficulty]
HPDrainRate:3
CircleSize:3.2
OverallDifficulty:2
ApproachRate:3
SliderMultiplier:0.8
SliderTickRate:1

[Events]
//Background and Video events
0,0,"background.jpg",0,0
//Break Periods
2,40128,47022
2,82662,85288
2,113813,124723
//Storyboard Layer 0 (Background)
//Storyboard Layer 1 (Fail)
//Storyboard Layer 2 (Pass)
//Storyboard Layer 3 (Foreground)
//Storyboard Sound Samples

[TimingPoints]
321,331.491712707182,4,2,2,70,1,0
20209,-25,4,2,2,70,0,0
22779,-25,4,2,2,5,0,0
22862,266.666666666667,4,2,2,70,1,0
22862,-100,4,2,2,70,0,0
30195,-100,4,2,2,70,0,0
30995,-100,4,2,2,70,0,0
31262,-100,4,2,2,70,0,0
31395,-100,4,2,2,70,0,0
39928,-100,4,2,2,70,0,0
39995,-100,4,2,2,60,0,0
48462,-100,4,2,2,65,0,0
56728,-100,4,2,2,70,0,0
57262,-100,4,2,2,70,0,0
60995,-100,4,2,2,70,0,0
61528,-100,4,2,2,70,0,0
63395,-100,4,2,2,70,0,0
65528,-100,4,2,2,70,0,1
72862,-100,4,2,2,70,0,0
74062,-100,4,2,2,70,0,1
80462,-100,4,2,2,70,0,0
86728,-100,4,2,2,60,0,0
88462,-100,4,2,2,60,0,0
88862,-100,4,2,2,60,0,0
90595,-100,4,2,2,60,0,0
90995,-100,4,2,2,60,0,0
92728,-100,4,2,2,60,0,0
93128,-100,4,2,2,60,0,0
94328,-100,4,2,2,70,0,0
96414,266.666666666667,4,2,2,70,1,0
96414,-100,4,2,2,70,0,0
96547,266.666666666667,4,2,2,70,1,0
96813,-100,4,2,2,70,0,0
113614,392.156862745098,4,2,2,45,1,0
126163,-133.333333333333,4,2,2,45,0,0
138319,-100,4,2,2,45,0,0
138614,-100,4,2,2,5,0,0
138712,-100,4,2,2,45,0,0
148123,294.117647058824,4,2,2,45,1,0
148123,-100,4,2,2,45,0,0
149299,266.666666666667,4,2,2,45,1,0
150365,-100,4,2,2,70,0,1
157699,-100,4,2,2,70,0,0
158899,-100,4,2,2,70,0,1
166232,-100,4,2,2,70,0,0
167432,-100,4,2,2,70,0,1
174765,-100,4,2,2,70,0,0
175965,-100,4,2,2,70,0,1
182365,-100,4,2,2,70,0,0
184365,-100,4,2,2,70,0,0
185432,-100,4,2,2,70,0,0

[Colours]
Combo1 : 238,162,162
Combo2 : 194,185,154
Combo3 : 197,197,197
Combo4 : 174,203,255

[HitObjects]
155,195,22862,6,0,P|197:198|246:185,1,80,6|8,0:0|0:0,0:0:0:0:
292,135,23395,2,0,L|300:10,2,120,2|2|8,0:0|0:0|0:0,0:0:0:0:
311,214,24462,2,0,P|346:247|390:266,1,80,0|8,0:0|0:0,0:0:0:0:
452,283,24995,6,0,P|366:297|296:335,1,160,4|4,0:0|0:3,0:0:0:0:
190,374,25928,2,0,P|124:363|68:330,1,120,2|8,0:0|0:0,0:0:0:0:
28,274,26595,2,0,L|23:190,1,80,2|8,0:0|0:0,0:0:0:0:
46,117,27128,6,0,P|90:103|136:105,1,80,6|8,0:0|0:0,0:0:0:0:
192,144,27662,2,0,L|320:156,2,120,2|2|8,0:0|0:0|0:0,0:0:0:0:
123,184,28728,2,0,P|100:236|98:271,1,80,0|8,0:0|0:0,0:0:0:0:
150,318,29262,6,0,P|232:318|319:294,1,160,4|4,0:0|0:3,0:0:0:0:
410,238,30195,2,0,L|419:113,1,120,4|8,0:0|1:2,0:0:0:0:
460,49,30862,1,8,0:3:0:0:
385,19,31128,1,8,0:0:0:0:
344,88,31395,6,0,P|310:101|265:102,1,80,6|8,0:0|0:0,0:0:0:0:
191,74,31928,2,0,P|150:52|74:35,2,120,2|2|8,0:0|0:0|0:0,0:0:0:0:
203,153,32995,2,0,L|195:245,1,80,0|8,0:0|0:0,0:0:0:0:
225,307,33528,6,0,P|302:331|392:334,1,160,4|4,0:0|0:3,0:0:0:0:
470,254,34462,2,0,P|429:158|409:136,1,120,2|8,0:0|0:0,0:0:0:0:
340,132,35128,2,0,L|251:142,1,80,2|8,0:0|0:0,0:0:0:0:
187,107,35662,5,4,0:0:0:0:
33,124,36195,2,0,L|20:-1,2,120,2|2|8,0:0|0:0|0:0,0:0:0:0:
4,198,37262,2,0,L|-3:281,1,80,0|8,0:0|0:0,0:0:0:0:
42,343,37795,6,0,P|113:335|207:294,1,160,4|4,0:0|0:3,0:0:0:0:
275,213,38728,2,0,P|338:215|395:234,1,120,4|8,0:0|1:2,0:0:0:0:
457,279,39395,1,8,0:0:0:0:
401,337,39662,1,4,0:3:0:0:
469,378,39928,5,4,0:0:0:0:
80,54,48462,6,0,L|247:34,1,160,4|8,0:0|0:3,0:0:0:0:
265,192,49528,2,0,L|106:211,1,160,0|4,0:0|0:3,0:0:0:0:
51,269,50328,1,8,0:0:0:0:
92,337,50595,6,0,L|265:354,1,160,4|8,0:3|0:3,0:0:0:0:
265,192,51662,2,0,L|105:176,1,160,4|4,0:3|0:3,0:0:0:0:
39,130,52462,1,8,0:0:0:0:
73,58,52728,6,0,P|153:24|232:22,1,160,4|8,0:3|0:3,0:0:0:0:
379,63,53795,2,0,P|445:140|471:201,1,160
459,272,54595,1,8,0:0:0:0:
385,303,54862,6,0,P|295:297|213:270,1,160,4|8,0:3|0:3,0:0:0:0:
181,124,55928,2,0,P|101:131|29:166,1,160,4|4,0:3|0:3,0:0:0:0:
2,240,56728,1,8,1:2:0:0:
150,300,57262,6,0,L|162:384,2,80,12|4|8,0:0|0:3|0:0,0:0:0:0:
161,220,58062,1,2,0:0:0:0:
224,267,58328,2,0,P|327:263|369:221,1,160,8|8,0:0|0:0,0:0:0:0:
392,151,59128,6,0,L|386:66,1,80,4|8,0:0|0:0,0:0:0:0:
328,15,59662,2,0,P|285:26|255:59,1,80,4|8,0:3|0:0,0:0:0:0:
232,125,60195,1,2,0:0:0:0:
174,180,60462,2,0,L|2:167,1,160,8|8,0:0|0:0,0:0:0:0:
130,278,61528,6,0,L|219:284,2,80,12|4|8,0:0|0:3|0:0,0:0:0:0:
64,324,62328,1,2,0:0:0:0:
126,374,62595,2,0,L|293:383,1,160,8|8,0:0|0:0,0:0:0:0:
360,353,63395,6,0,B|413:301|392:203|392:203|322:161|322:161|310:70,1,320,4|4,0:0|0:0,0:0:0:0:
55,129,65528,6,0,P|135:146|141:150,1,80,4|8,0:0|0:0,0:0:0:0:
190,199,66062,2,0,P|252:187|274:178,1,80,4|8,0:3|0:0,0:0:0:0:
328,129,66595,2,0,P|408:129|461:186,1,160,2|4,0:0|0:3,0:0:0:0:
458,263,67395,1,8,0:0:0:0:
417,332,67662,6,0,L|247:314,1,160,4|4,0:0|0:3,0:0:0:0:
182,288,68462,1,8,0:0:0:0:
109,253,68728,2,0,L|16:242,2,80,2|8|4,0:0|0:0|0:3,0:0:0:0:
176,209,69528,1,8,0:0:0:0:
237,158,69795,6,0,P|236:118|221:81,1,80,4|8,0:0|0:0,0:0:0:0:
160,30,70328,2,0,L|35:37,2,120,4|4|8,0:3|0:3|0:0,0:0:0:0:
233,0,71395,2,0,P|295:14|315:27,1,80,4|8,0:3|0:0,0:0:0:0:
358,84,71928,6,0,L|366:169,2,80,4|8|4,0:0|0:0|0:3,0:0:0:0:
474,52,72862,2,0,L|487:176,1,120,2|0,0:0|1:0,0:0:0:0:
455,245,73528,1,8,0:3:0:0:
410,311,73795,1,8,0:0:0:0:
366,378,74062,6,0,P|287:359|273:351,1,80,4|8,0:0|0:0,0:0:0:0:
241,297,74595,2,0,P|183:284|153:287,1,80,4|8,0:3|0:0,0:0:0:0:
86,307,75128,2,0,L|70:146,1,160,2|4,0:0|0:3,0:0:0:0:
83,68,75928,1,8,0:0:0:0:
156,99,76195,6,0,B|247:116|210:67|324:92,1,160,4|4,0:0|0:3,0:0:0:0:
380,131,76995,1,8,0:0:0:0:
440,183,77262,2,0,P|504:170|529:154,2,80,2|8|4,0:0|0:0|0:3,0:0:0:0:
281,165,78328,6,0,P|232:192|209:222,1,80,4|8,0:0|0:0,0:0:0:0:
177,279,78862,2,0,L|52:291,2,120,4|4|8,0:3|0:3|0:0,0:0:0:0:
248,314,79928,2,0,L|331:320,1,80,4|8,0:3|0:0,0:0:0:0:
407,328,80462,5,4,0:0:0:0:
383,49,81395,1,2,0:0:0:0:
250,198,82062,2,0,L|113:207,1,120,8|4,0:0|0:0,0:0:0:0:
78,38,86728,6,0,P|14:102|12:219,1,200,4|8,0:0|0:0,0:0:0:0:
134,304,87928,2,0,L|298:291,1,160,8|8,0:3|0:0,0:0:0:0:
296,171,88862,6,0,L|81:187,1,200,4|8,0:0|0:0,0:0:0:0:
78,26,90062,2,0,P|147:5|169:10,1,80,8|4,0:3|0:3,0:0:0:0:
233,27,90595,1,8,0:0:0:0:
331,95,90995,6,0,L|462:84,1,120,4|4,0:0|0:0,0:0:0:0:
506,143,91662,1,8,0:0:0:0:
417,276,92195,2,0,L|243:289,1,160,8|8,0:3|0:0,0:0:0:0:
145,245,93128,6,0,P|138:163|230:77,1,200,4|8,0:0|0:0,0:0:0:0:
345,172,94328,2,0,B|406:166|406:166|452:129|452:129|526:123,1,180,8|12,0:0|0:0,0:0:0:0:
70,371,96414,6,0,P|46:311|55:244,1,120,4|0,0:0|0:0,0:0:0:0:
82,183,97080,2,0,L|172:172,1,80,4|8,0:3|0:0,0:0:0:0:
219,228,97613,2,0,P|290:269|371:250,1,160,4|4,0:3|0:3,0:0:0:0:
441,163,98547,6,0,L|431:33,1,120,4|8,0:0|0:0,0:0:0:0:
355,19,99213,2,0,P|289:43|278:59,1,80,4|8,0:3|0:0,0:0:0:0:
259,124,99747,2,0,P|199:128|116:71,1,160,4|4,0:3|0:3,0:0:0:0:
2,43,100680,6,0,L|15:178,1,120,4|8,0:0|0:0,0:0:0:0:
53,231,101347,1,4,0:3:0:0:
30,307,101613,1,8,0:0:0:0:
84,365,101880,2,0,P|132:361|251:352,1,160,4|4,0:3|0:3,0:0:0:0:
360,325,102813,6,0,P|355:247|329:198,1,120,4|8,0:0|0:0,0:0:0:0:
275,155,103480,1,4,0:3:0:0:
245,229,103747,2,0,P|194:263|95:241,1,160,4|0,0:0|1:0,0:0:0:0:
53,181,104547,1,4,1:3:0:0:
88,66,104947,6,0,L|220:53,1,120,4|8,0:0|0:0,0:0:0:0:
282,79,105613,2,0,P|336:94|366:96,1,80,4|8,0:3|0:0,0:0:0:0:
436,72,106147,2,0,P|483:98|503:209,1,160,4|4,0:3|0:3,0:0:0:0:
453,302,107080,6,0,P|370:272|326:281,1,120,4|8,0:0|0:0,0:0:0:0:
272,319,107747,2,0,L|183:325,1,80,4|8,0:3|0:0,0:0:0:0:
124,280,108280,2,0,P|86:202|107:125,1,160,4|4,0:3|0:3,0:0:0:0:
208,78,109213,6,0,L|338:91,1,120,4|8,0:0|0:0,0:0:0:0:
405,71,109880,1,4,0:3:0:0:
472,114,110147,1,8,0:0:0:0:
474,193,110413,2,0,P|404:224|320:211,1,160,4|4,0:3|0:3,0:0:0:0:
249,181,111213,1,8,0:0:0:0:
205,248,111480,5,4,0:0:0:0:
56,306,112013,1,4,0:0:0:0:
7,153,112547,1,4,0:0:0:0:
158,102,113080,1,4,0:0:0:0:
205,248,113613,5,4,0:0:0:0:
376,43,126163,6,0,P|443:121|418:260,1,240.000009155274,0|0,0:0|0:0,0:0:0:0:
192,300,129300,2,0,P|125:222|150:83,1,240.000009155274,0|0,0:0|0:0,0:0:0:0:
320,255,132437,6,0,L|301:383,2,120.000004577637,0|0|0,0:0|0:0|0:0,0:0:0:0:
89,193,135574,2,0,L|108:321,2,120.000004577637,0|0|0,0:0|0:0|0:0,0:0:0:0:
257,21,138319,1,0,0:0:0:0:
282,97,138712,6,0,L|442:88,1,160,4|2,0:3|0:0,0:0:0:0:
376,233,140280,2,0,L|289:237,2,80,0|0|0,0:0|0:0|0:0,0:0:0:0:
449,266,141457,1,4,0:3:0:0:
404,331,141849,6,0,L|231:340,1,160,4|2,0:3|0:0,0:0:0:0:
110,253,143417,2,0,L|105:174,2,80,0|0|0,0:0|0:0|3:0,0:0:0:0:
78,326,144594,1,4,0:3:0:0:
11,283,144986,6,0,L|-3:120,1,160,4|2,0:3|0:0,0:0:0:0:
142,54,146555,2,0,L|222:48,2,80,0|0|0,0:0|0:0|3:0,0:0:0:0:
70,87,147731,1,4,0:3:0:0:
98,161,148123,5,4,0:3:0:0:
419,15,149299,1,4,0:0:0:0:
457,255,150365,6,0,P|377:238|371:234,1,80,4|8,0:0|0:0,0:0:0:0:
322,185,150899,2,0,P|260:197|238:206,1,80,0|8,0:3|0:0,0:0:0:0:
184,255,151432,2,0,P|104:255|51:198,1,160,2|4,0:0|0:3,0:0:0:0:
54,121,152232,1,8,0:0:0:0:
95,52,152499,6,0,L|265:70,1,160,4|4,0:0|0:3,0:0:0:0:
330,96,153299,1,8,0:0:0:0:
403,131,153565,2,0,L|496:142,2,80,2|8|4,0:0|0:0|0:3,0:0:0:0:
336,175,154365,1,8,0:0:0:0:
275,226,154632,6,0,P|275:265|290:302,1,80,4|8,0:0|0:0,0:0:0:0:
352,354,155165,2,0,L|477:347,2,120,4|4|8,0:3|0:3|0:0,0:0:0:0:
279,384,156232,2,0,P|217:370|197:357,1,80,4|8,0:3|0:0,0:0:0:0:
154,300,156765,6,0,L|146:215,2,80,4|8|4,0:0|0:0|0:3,0:0:0:0:
38,332,157699,2,0,L|25:208,1,120,2|0,0:0|1:0,0:0:0:0:
55,139,158365,1,8,0:3:0:0:
99,72,158632,1,8,0:0:0:0:
144,7,158899,6,0,P|223:26|237:34,1,80,4|8,0:0|0:0,0:0:0:0:
271,87,159432,2,0,P|329:100|359:97,1,80,4|8,0:3|0:0,0:0:0:0:
426,77,159965,2,0,L|442:238,1,160,2|4,0:0|0:3,0:0:0:0:
429,316,160765,1,8,0:0:0:0:
356,285,161032,6,0,B|265:268|302:317|188:292,1,160,4|4,0:0|0:3,0:0:0:0:
132,253,161832,1,8,0:0:0:0:
72,201,162099,2,0,P|8:214|-17:230,2,80,2|8|4,0:0|0:0|0:3,0:0:0:0:
231,219,163165,6,0,P|280:192|303:162,1,80,4|8,0:0|0:0,0:0:0:0:
290,94,163699,2,0,L|154:76,2,120,4|4|8,0:3|0:0|0:0,0:0:0:0:
350,41,164765,2,0,L|436:28,1,80,4|8,0:3|0:0,0:0:0:0:
504,56,165299,6,0,P|532:156|522:218,1,160,4|4,0:0|0:3,0:0:0:0:
463,314,166232,2,0,L|339:329,1,120,4|2,0:0|1:3,0:0:0:0:
281,278,166899,1,0,1:0:0:0:
321,209,167165,1,0,1:0:0:0:
286,136,167432,6,0,P|244:133|195:146,1,80,6|8,0:0|0:0,0:0:0:0:
165,209,167965,2,0,L|178:333,2,120,2|2|8,0:0|0:0|0:0,0:0:0:0:
93,172,169032,2,0,P|68:144|47:106,1,80,0|8,0:0|0:0,0:0:0:0:
75,31,169565,6,0,B|167:9|136:52|243:22,1,160,4|4,0:0|0:3,0:0:0:0:
351,7,170499,2,0,P|417:18|473:51,1,120,2|8,0:0|0:0,0:0:0:0:
484,120,171165,2,0,L|489:204,1,80,4|8,0:3|0:0,0:0:0:0:
460,274,171698,6,0,P|416:288|370:286,1,80,6|8,0:0|0:0,0:0:0:0:
320,240,172232,2,0,L|192:228,2,120,2|2|8,0:0|0:0|0:0,0:0:0:0:
389,200,173298,2,0,P|412:148|414:113,1,80,0|8,0:0|0:0,0:0:0:0:
362,66,173832,6,0,P|280:66|193:90,1,160,4|4,0:0|0:3,0:0:0:0:
102,146,174765,2,0,L|93:271,1,120,4|8,0:0|0:0,0:0:0:0:
52,335,175432,1,8,0:0:0:0:
127,365,175698,1,8,0:0:0:0:
168,296,175965,6,0,P|202:283|247:282,1,80,6|8,0:0|0:0,0:0:0:0:
321,310,176498,2,0,P|362:332|438:349,2,120,2|2|8,0:0|0:0|0:0,0:0:0:0:
309,231,177565,2,0,L|317:139,1,80,0|8,0:0|0:0,0:0:0:0:
287,77,178098,6,0,P|210:53|120:50,1,160,4|4,0:0|0:3,0:0:0:0:
42,130,179032,2,0,P|83:226|103:248,1,120,2|8,0:0|0:0,0:0:0:0:
172,252,179698,2,0,L|261:242,1,80,4|8,0:3|0:0,0:0:0:0:
325,277,180232,5,4,0:0:0:0:
479,260,180765,2,0,L|492:385,2,120,2|2|8,0:0|0:0|0:0,0:0:0:0:
508,186,181832,2,0,L|515:103,1,80,0|8,0:0|0:0,0:0:0:0:
470,41,182365,5,4,0:0:0:0:
386,308,183299,1,4,0:0:0:0:
157,84,184410,2,0,P|78:83|183:171,1,346.666666666667,4|12,0:0|0:0,0:0:0:0:
