osu file format v14

[General]
AudioFilename: audio.mp3
AudioLeadIn: 0
PreviewTime: 63604
Countdown: 1
SampleSet: Normal
StackLeniency: 0.5
Mode: 0
LetterboxInBreaks: 0
WidescreenStoryboard: 1

[Editor]
Bookmarks: 19779,19986,20111,20276,20401
DistanceSpacing: 1.5
BeatDivisor: 8
GridSize: 4
TimelineZoom: 2.799999

[Metadata]
Title:Savior
TitleUnicode:Savior
Artist:Rise Against
ArtistUnicode:Rise Against
Creator:Lumario
Version:Testmap
Source:
Tags:Punk Rock Appeal to Reason Hiicantpk HPK
BeatmapID:1222540
BeatmapSetID:566003

[Difficulty]
HPDrainRate:6
CircleSize:4
OverallDifficulty:8.2
ApproachRate:9.6
SliderMultiplier:2
SliderTickRate:1

[Events]
//Background and Video events
0,0,"f2cb215479916706481a16be2e25f225-d5nsrca.jpg",0,0
//Break Periods
2,165154,175621
2,179859,181896
2,186428,188170
//Storyboard Layer 0 (Background)
//Storyboard Layer 1 (Fail)
//Storyboard Layer 2 (Pass)
//Storyboard Layer 3 (Foreground)
//Storyboard Sound Samples

[TimingPoints]
263,331.491712707182,4,1,0,50,1,0
22804,266.666666666667,4,1,0,50,1,0
22804,-100,4,1,0,50,0,1
40004,-100,4,1,0,50,0,0
65470,-100,4,1,0,50,0,1
80537,-100,4,1,0,50,0,0
82537,-100,4,1,0,50,0,1
91204,-100,4,1,0,50,0,0
114537,-111.111111111111,4,1,0,50,0,0
115870,-100,4,1,0,50,0,0
116670,-100,4,1,0,50,0,1
131737,-100,4,1,0,50,0,0
147558,266.666666666667,4,1,0,50,1,1
164758,392.156862745098,4,1,0,50,1,0
177692,-200,4,1,0,50,0,0
182405,-100,4,1,0,50,0,0
184758,-200,4,1,0,50,0,0
189856,-100,4,1,0,50,0,0
199267,294.117647058824,4,1,0,50,1,0
200443,266.666666666667,4,1,0,50,1,1
218443,-100,4,1,0,50,0,0
218576,-100,4,1,0,50,0,1
233643,-100,4,1,0,50,0,0
235709,-200,4,1,0,50,0,0

[Colours]
Combo1 : 225,73,0
Combo2 : 0,0,174
Combo3 : 60,60,60

[HitObjects]
111,123,262,6,0,B|135:91|135:91|195:74,1,100,0|0,0:0|0:0,0:0:0:0:
312,57,594,1,0,0:0:0:0:
387,150,760,1,0,0:0:0:0:
293,224,925,6,0,B|254:227|254:227|202:192,1,100
111,123,1257,1,0,0:0:0:0:
24,206,1423,2,0,B|60:240|60:240|111:240,1,100
224,286,1754,2,0,B|271:268|271:268|293:223,1,100
207,96,2086,2,0,L|94:127,1,100
125,266,2417,2,0,L|227:286,1,100
105,190,2749,2,0,L|285:337,1,200
332,184,3246,6,0,B|325:135|325:135|287:103,1,100
138,103,3577,2,0,B|104:138|104:138|104:189,1,100
250,229,3909,2,0,B|299:222|299:222|331:184,2,100
223,132,4406,5,0,0:0:0:0:
199,34,4572,1,0,0:0:0:0:
129,105,4738,1,0,0:0:0:0:
158,199,4903,1,0,0:0:0:0:
60,177,5069,1,0,0:0:0:0:
44,78,5235,1,0,0:0:0:0:
112,5,5401,1,0,0:0:0:0:
129,105,5566,6,0,B|184:124|184:124|227:119,1,100
320,44,5898,1,0,0:0:0:0:
206,3,6064,1,0,0:0:0:0:
86,6,6229,2,0,L|28:109,1,100
44,213,6561,1,0,0:0:0:0:
140,257,6727,6,0,B|177:274|177:274|238:258,1,100
243,109,7058,2,0,B|205:91|205:91|148:106,1,100
140,257,7390,2,0,L|169:352,1,100
284,176,7721,2,0,L|313:271,1,100
375,167,8053,6,0,L|274:340,1,200
210,262,8550,1,0,0:0:0:0:
148,340,8716,1,0,0:0:0:0:
121,243,8881,1,0,0:0:0:0:
189,170,9047,1,0,0:0:0:0:
285,195,9213,2,0,L|352:282,1,100
384,160,9544,2,0,L|318:352,1,200
247,278,10042,5,0,0:0:0:0:
218,373,10207,1,0,0:0:0:0:
153,296,10373,1,0,0:0:0:0:
188,202,10539,1,0,0:0:0:0:
286,187,10704,1,0,0:0:0:0:
341,268,10870,6,0,L|444:277,1,100
484,164,11202,1,0,0:0:0:0:
379,105,11367,1,0,0:0:0:0:
285,186,11533,2,0,L|342:270,1,100
254,352,11865,1,0,0:0:0:0:
159,278,12030,2,0,L|215:195,1,100
330,193,12362,2,0,L|428:210,1,100
184,196,12693,6,0,L|85:213,1,100
90,92,13025,2,0,L|-3:154,1,100
13,26,13356,2,0,L|88:221,1,200
136,321,13854,6,0,B|176:349|176:349|231:343,1,100
298,273,14185,1,0,0:0:0:0:
203,256,14351,1,0,0:0:0:0:
264,177,14517,1,0,0:0:0:0:
166,168,14682,2,0,B|117:174|117:174|81:216,2,100
231,91,15180,5,0,0:0:0:0:
330,92,15345,1,0,0:0:0:0:
366,185,15511,1,0,0:0:0:0:
264,177,15677,1,0,0:0:0:0:
307,267,15843,1,0,0:0:0:0:
203,256,16008,1,0,0:0:0:0:
153,157,16174,6,0,B|88:233|88:233|124:336,1,200
252,325,16671,1,0,0:0:0:0:
247,189,16837,2,0,L|144:153,1,100
324,94,17169,1,0,0:0:0:0:
390,197,17334,2,0,L|298:268,1,100
193,212,17666,2,0,L|272:150,1,100
250,32,17997,2,0,L|158:103,1,100
193,212,18329,2,0,L|314:228,1,100
194,295,18660,6,0,L|367:175,1,200
266,138,19158,1,0,0:0:0:0:
354,92,19323,1,0,0:0:0:0:
270,36,19489,1,0,0:0:0:0:
364,2,19655,1,0,0:0:0:0:
450,52,19821,2,0,L|450:165,1,100
358,181,20152,2,0,L|317:283,1,100,0|0,0:0|0:0,3:0:0:0:
256,192,20483,12,0,22638,0:0:0:0:
318,67,22804,6,0,L|329:197,1,100
172,236,23070,2,0,L|88:172,1,100
163,17,23337,1,0,0:0:0:0:
242,180,23470,1,0,0:0:0:0:
94,93,23604,1,0,0:0:0:0:
242,1,23737,6,0,L|332:78,1,100
209,120,24004,1,0,0:0:0:0:
242,1,24137,2,0,P|310:-8|371:27,1,100
273,159,24404,1,0,0:0:0:0:
169,47,24537,1,0,0:0:0:0:
317,66,24670,6,0,L|379:158,1,100
232,247,24937,2,0,P|192:217|169:173,1,100
325,242,25204,2,0,P|319:291|292:332,1,100
136,263,25470,1,0,0:0:0:0:
273,159,25604,1,0,0:0:0:0:
291,332,25737,1,0,0:0:0:0:
188,197,25870,2,0,P|184:147|203:101,1,100
355,177,26137,1,0,0:0:0:0:
188,197,26270,2,0,P|148:167|125:123,1,100
275,42,26537,1,0,0:0:0:0:
274,210,26670,1,0,0:0:0:0:
125,123,26804,2,0,P|117:74|132:26,1,100,0|0,0:0|0:0,0:0:0:0:
274,110,27070,6,0,L|273:219,1,100,0|0,0:0|0:0,0:0:0:0:
133,308,27337,2,0,P|162:348|206:371,1,100,0|0,0:0|0:0,0:0:0:0:
188,197,27604,1,0,0:0:0:0:
52,299,27737,1,0,0:0:0:0:
206,371,27870,1,0,0:0:0:0:
108,211,28004,6,0,L|134:312,1,100,0|0,0:0|0:0,0:0:0:0:
273,209,28270,1,0,0:0:0:0:
150,125,28404,2,0,P|109:184|115:249,1,100,0|0,0:0|0:0,0:0:0:0:
244,309,28670,1,0,0:0:0:0:
256,138,28804,1,0,0:0:0:0:
108,211,28937,6,0,P|129:277|188:313,1,100,0|0,0:0|0:0,0:0:0:0:
315,270,29204,2,0,L|326:171,1,100,0|0,0:0|0:0,0:0:0:0:
483,139,29470,2,0,P|496:189|459:261,1,100,0|0,0:0|0:0,0:0:0:0:
326,170,29737,1,0,0:0:0:0:
462,66,29870,1,0,0:0:0:0:
404,225,30004,1,0,0:0:0:0:
298,75,30137,6,0,L|193:73,1,100,0|0,0:0|0:0,0:0:0:0:
244,238,30404,1,0,0:0:0:0:
244,238,30470,1,0,0:0:0:0:
244,238,30537,1,0,0:0:0:0:
298,75,30670,1,0,0:0:0:0:
170,170,30804,1,0,0:0:0:0:
326,170,30937,1,0,0:0:0:0:
218,37,31070,2,0,P|221:102|265:152,1,100,0|0,0:0|0:0,0:0:0:0:
362,235,31337,6,0,L|444:178,1,100
298,75,31604,2,0,P|320:31|360:1,1,100,0|0,0:0|0:0,0:0:0:0:
497,133,31870,1,0,0:0:0:0:
326,170,32004,1,0,0:0:0:0:
427,33,32137,1,0,0:0:0:0:
350,260,32270,6,0,L|244:225,1,100
325,72,32537,1,0,0:0:0:0:
421,195,32670,2,0,P|393:237|350:261,1,100,0|0,0:0|0:0,0:0:0:0:
248,123,32937,1,0,0:0:0:0:
412,82,33070,1,0,0:0:0:0:
350,260,33204,2,0,P|300:268|254:251,1,100,0|0,0:0|0:0,0:0:0:0:
356,118,33470,2,0,L|437:214,1,100,0|0,0:0|0:0,0:0:0:0:
435,343,33737,6,0,P|368:364|303:339,1,100,0|0,0:0|0:0,0:0:0:0:
208,254,34004,1,0,0:0:0:0:
375,286,34137,1,0,0:0:0:0:
216,345,34270,1,0,0:0:0:0:
327,214,34404,2,0,P|394:203|455:238,1,100,0|0,0:0|0:0,0:0:0:0:
339,359,34670,1,0,0:0:0:0:
230,227,34804,2,0,P|280:211|341:218,1,100,0|0,0:0|0:0,0:0:0:0:
451,329,35070,1,0,0:0:0:0:
293,285,35204,1,0,0:0:0:0:
375,130,35337,2,0,P|405:157|421:233,1,100,0|0,0:0|0:0,0:0:0:0:
317,311,35604,6,0,L|244:221,1,100
167,379,35870,2,0,P|212:375|268:343,1,100,0|0,0:0|0:0,0:0:0:0:
152,218,36137,1,0,0:0:0:0:
167,379,36270,1,0,0:0:0:0:
254,233,36404,1,0,0:0:0:0:
101,307,36537,6,0,L|222:295,1,100,0|0,0:0|0:0,0:0:0:0:
352,219,36804,1,0,0:0:0:0:
180,201,36937,2,0,P|183:254|215:318,1,100,0|0,0:0|0:0,0:0:0:0:
312,157,37204,1,0,0:0:0:0:
181,32,37337,1,0,0:0:0:0:
180,201,37470,2,0,P|208:241|250:269,1,100,0|0,0:0|0:0,0:0:0:0:
257,97,37737,6,0,L|166:19,1,100
88,166,38004,2,0,P|136:174|179:200,1,100,0|0,0:0|0:0,0:0:0:0:
80,338,38270,1,0,0:0:0:0:
88,166,38404,1,0,0:0:0:0:
177,310,38537,1,0,0:0:0:0:
6,224,38670,6,0,L|92:162,1,100,0|0,0:0|0:0,0:0:0:0:
207,44,38937,1,0,0:0:0:0:
207,44,39004,1,0,0:0:0:0:
207,44,39070,1,0,0:0:0:0:
40,80,39204,1,0,0:0:0:0:
177,126,39337,1,0,0:0:0:0:
68,10,39470,1,0,0:0:0:0:
87,165,39604,2,0,P|136:153|178:126,1,100
68,10,39870,2,0,L|183:57,1,100
290,138,40137,6,0,P|267:181|224:212,1,100
85,134,40404,2,0,P|182:129|226:216,1,200
106,224,40804,1,0,0:0:0:0:
171,123,40937,6,0,L|256:52,1,100
363,92,41204,2,0,L|286:156,1,100
190,267,41470,2,0,P|215:293|280:303,1,100
399,256,41737,1,0,0:0:0:0:
286,155,41870,1,0,0:0:0:0:
276,305,42004,2,0,P|341:377|433:346,1,200
479,208,42404,1,0,0:0:0:0:
365,104,42537,6,0,P|304:127|280:166,1,100
201,280,42804,1,0,0:0:0:0:
340,237,42937,1,0,0:0:0:0:
197,191,43070,2,0,L|140:106,1,100
270,30,43337,2,0,L|325:113,1,100
255,247,43604,2,0,P|187:272|155:260,1,100,0|0,0:0|0:0,3:0:0:0:
170,115,43870,2,0,P|242:126|264:152,1,100
163,264,44137,2,0,B|59:260|108:171|-13:154,1,200
16,307,44537,1,0,0:0:0:0:
163,264,44670,2,0,P|203:204|202:170,1,100
140,42,44937,1,0,0:0:0:0:
103,183,45070,6,0,L|162:263,1,100
283,173,45337,2,0,L|223:92,1,100
72,97,45604,1,0,0:0:0:0:
138,230,45737,2,0,P|202:199|217:169,1,100
140,42,46004,1,0,0:0:0:0:
75,176,46137,1,0,0:0:0:0:
214,175,46270,2,0,P|288:139|272:26,1,200
142,133,46670,1,0,0:0:0:0:
292,133,46804,2,0,P|347:107|376:63,1,100
221,92,47070,1,0,0:0:0:0:
303,218,47204,2,0,L|370:318,1,100
229,376,47470,2,0,L|173:292,1,100
303,218,47737,1,0,0:0:0:0:
423,306,47870,6,0,B|368:309|368:309|292:289,1,100
428,225,48137,1,0,0:0:0:0:
428,225,48204,1,0,0:0:0:0:
428,225,48270,1,0,0:0:0:0:
418,375,48404,2,0,B|363:378|363:378|287:358,1,100,0|0,0:0|0:0,0:0:0:0:
333,201,48670,2,0,P|389:204|443:238,1,100,0|0,0:0|0:0,0:0:0:0:
280,289,48937,1,0,0:0:0:0:
263,133,49070,2,0,P|309:163|339:220,1,100,0|0,0:0|0:0,0:0:0:0:
346,360,49337,2,0,P|293:380|230:372,1,100,0|0,0:0|0:0,0:0:0:0:
126,275,49604,1,0,0:0:0:0:
257,191,49737,6,0,L|284:308,1,100
176,219,50004,2,0,L|150:108,1,100
44,4,50270,2,0,P|10:48|1:112,1,100,0|0,0:0|0:0,0:0:0:0:
76,229,50537,2,0,L|178:218,1,100,0|0,0:0|0:0,0:0:0:0:
99,359,50804,2,0,P|52:341|15:307,1,100,0|0,0:0|0:0,0:0:0:0:
15,148,51070,2,0,P|52:116|101:104,1,100,0|0,0:0|0:0,0:0:0:0:
175,218,51337,1,0,0:0:0:0:
15,229,51470,1,0,0:0:0:0:
101,104,51604,6,0,L|215:121,1,100,0|0,0:0|0:0,0:0:0:0:
96,240,51870,1,0,0:0:0:0:
252,275,52004,2,0,L|271:171,1,100,0|0,0:0|0:0,0:0:0:0:
110,171,52270,1,0,0:0:0:0:
181,315,52404,1,0,0:0:0:0:
269,176,52537,1,0,0:0:0:0:
211,19,52670,6,0,L|198:134,1,100,0|0,0:0|0:0,0:0:0:0:
109,267,52937,2,0,P|57:245|18:194,1,100,0|0,0:0|0:0,0:0:0:0:
127,87,53204,1,0,0:0:0:0:
269,176,53337,2,0,P|247:227|196:266,1,100,0|0,0:0|0:0,0:0:0:0:
73,167,53604,2,0,P|94:115|145:76,1,100,0|0,0:0|0:0,0:0:0:0:
284,60,53870,2,0,P|335:81|374:132,1,100,0|0,0:0|0:0,0:0:0:0:
364,274,54137,2,0,P|342:325|291:364,1,100,0|0,0:0|0:0,0:0:0:0:
214,256,54404,1,0,0:0:0:0:
364,274,54537,1,0,0:0:0:0:
230,360,54670,1,0,0:0:0:0:
305,217,54804,6,0,L|237:139,1,100,0|0,0:0|0:0,0:0:0:0:
109,234,55070,2,0,P|130:285|181:324,1,100,0|0,0:0|0:0,0:0:0:0:
322,327,55337,2,0,P|373:305|412:254,1,100,0|0,0:0|0:0,0:0:0:0:
322,119,55604,1,0,0:0:0:0:
245,285,55737,1,0,0:0:0:0:
402,273,55870,6,0,L|404:157,1,100,0|0,0:0|0:0,0:0:0:0:
430,24,56137,2,0,P|482:46|521:97,1,100,0|0,0:0|0:0,0:0:0:0:
403,173,56404,2,0,P|356:155|321:119,1,100
473,144,56670,2,0,P|478:191|446:240,1,100
274,232,56937,2,0,P|211:155|186:59,2,200
392,302,57604,1,0,0:0:0:0:
392,167,57737,1,0,0:0:0:0:
274,232,57870,1,0,0:0:0:0:
392,302,58004,2,0,P|443:280|482:229,1,100,0|0,0:0|0:0,0:0:0:0:
452,122,58270,2,0,B|396:56|344:127|283:89,1,150,0|0,0:0|0:0,0:0:0:0:
238,95,58537,1,0,0:0:0:0:
348,171,58670,1,0,0:0:0:0:
338,31,58804,6,0,P|282:35|238:94,1,100,0|0,0:0|0:0,0:0:0:0:
232,168,59070,2,0,P|238:223|277:273,1,100,0|0,0:0|0:0,0:0:0:0:
377,311,59337,2,0,P|426:284|460:231,1,100,0|0,0:0|0:0,0:0:0:0:
348,171,59604,2,0,P|327:222|335:285,1,100,0|0,0:0|0:0,0:0:0:0:
401,373,59870,2,0,P|452:351|494:303,1,100,0|0,0:0|0:0,0:0:0:0:
477,192,60137,2,0,P|455:140|404:101,1,100,0|0,0:0|0:0,0:0:0:0:
296,116,60404,2,0,P|244:137|205:188,1,100,0|0,0:0|0:0,0:0:0:0:
328,266,60670,1,0,0:0:0:0:
362,139,60804,1,0,0:0:0:0:
259,224,60937,1,0,0:0:0:0:
296,116,61470,6,0,P|244:137|205:188,1,100,0|0,0:0|0:0,0:0:0:0:
355,168,61737,1,0,0:0:0:0:
326,36,61870,1,0,0:0:0:0:
190,40,62004,1,0,0:0:0:0:
214,168,62137,1,0,0:0:0:0:
355,168,62270,2,0,P|396:129|415:69,1,100,0|0,0:0|0:0,0:0:0:0:
260,79,62537,2,0,L|208:181,1,100,0|0,0:0|0:0,0:0:0:0:
355,168,62804,1,0,0:0:0:0:
260,79,62937,1,0,0:0:0:0:
218,240,63070,2,0,L|290:331,1,100,0|0,0:0|0:0,0:0:0:0:
392,278,63337,1,0,0:0:0:0:
185,103,63604,6,0,L|186:204,1,100,0|0,0:0|0:0,0:0:0:0:
67,208,63870,2,0,L|145:270,1,100,0|0,0:0|0:0,0:0:0:0:
234,262,64137,2,0,L|312:200,1,100,0|0,0:0|0:0,0:0:0:0:
188,330,64404,1,0,0:0:0:0:
381,271,64670,6,0,L|311:199,1,100,0|0,0:0|0:0,0:0:0:0:
218,165,64937,2,0,L|234:268,1,100,0|0,0:0|0:0,0:0:0:0:
311,199,65204,2,0,L|401:113,1,100,0|0,0:0|0:0,0:0:0:0:
398,82,65470,6,0,P|346:60|280:68,1,100,0|0,0:0|0:0,0:0:0:0:
218,165,65737,2,0,L|314:200,1,100,0|0,0:0|0:0,0:0:0:0:
160,18,66004,1,0,0:0:0:0:
218,165,66137,1,0,0:0:0:0:
318,23,66270,1,0,0:0:0:0:
168,103,66404,1,0,0:0:0:0:
350,144,66537,2,0,B|434:74,1,100,0|0,0:0|0:0,0:0:0:0:
259,8,66804,2,0,B|200:2|133:28,1,100,0|0,0:0|0:0,0:0:0:0:
151,187,67070,1,0,0:0:0:0:
288,88,67204,1,0,0:0:0:0:
117,92,67337,6,0,L|160:215,1,100,0|0,0:0|0:0,0:0:0:0:
150,357,67604,2,0,B|104:328|86:280,1,100,0|0,0:0|0:0,0:0:0:0:
255,254,67870,2,0,P|249:303|219:347,1,100,0|0,0:0|0:0,0:0:0:0:
150,186,68137,1,0,0:0:0:0:
320,189,68270,1,0,0:0:0:0:
176,279,68404,1,0,0:0:0:0:
258,130,68537,1,0,0:0:0:0:
354,267,68670,2,0,L|252:253,1,100,0|0,0:0|0:0,0:0:0:0:
169,105,68937,2,0,L|247:39,1,100,0|0,0:0|0:0,0:0:0:0:
393,124,69204,2,0,P|363:164|319:187,1,100,0|0,0:0|0:0,0:0:0:0:
169,105,69470,6,0,L|174:5,1,100,0|0,0:0|0:0,0:0:0:0:
9,167,69737,2,0,P|30:211|71:242,1,100,0|0,0:0|0:0,0:0:0:0:
242,258,70004,2,0,L|344:249,1,100,0|0,0:0|0:0,0:0:0:0:
242,111,70270,1,0,0:0:0:0:
154,258,70404,1,0,0:0:0:0:
341,249,70537,2,0,L|387:155,1,100
235,27,70937,1,0,0:0:0:0:
65,18,71070,2,0,B|24:64|30:142,1,100
183,184,71337,1,0,0:0:0:0:
145,18,71470,1,0,0:0:0:0:
82,177,71604,6,0,B|85:244|143:291,1,100
289,263,71870,2,0,L|328:164,1,100
493,139,72137,2,0,P|506:189|469:261,1,100
326,170,72404,1,0,0:0:0:0:
462,66,72537,1,0,0:0:0:0:
404,225,72670,1,0,0:0:0:0:
298,75,72804,6,0,L|193:73,1,100,0|0,0:0|0:0,0:0:0:0:
244,238,73070,1,0,0:0:0:0:
244,238,73137,1,0,0:0:0:0:
244,238,73204,1,0,0:0:0:0:
298,75,73337,1,0,0:0:0:0:
170,170,73470,1,0,0:0:0:0:
326,170,73604,1,0,0:0:0:0:
198,73,73737,2,0,L|169:177,1,100,0|0,0:0|0:0,0:0:0:0:
293,286,74004,6,0,L|375:229,1,100,0|0,0:0|0:0,0:0:0:0:
236,129,74270,2,0,P|258:85|298:55,1,100,0|0,0:0|0:0,0:0:0:0:
438,151,74537,2,0,L|373:230,1,100,0|0,0:0|0:0,0:0:0:0:
403,59,74804,1,0,0:0:0:0:
496,200,74937,1,0,0:0:0:0:
325,172,75070,6,0,L|233:127,1,100,0|0,0:0|0:0,0:0:0:0:
75,68,75337,2,0,P|41:105|29:153,1,100,0|0,0:0|0:0,0:0:0:0:
123,295,75604,2,0,P|169:310|219:303,1,100,0|0,0:0|0:0,0:0:0:0:
325,172,75870,2,0,P|333:122|316:76,1,100,0|0,0:0|0:0,0:0:0:0:
188,187,76137,2,0,L|293:255,1,100,0|0,0:0|0:0,0:0:0:0:
419,327,76404,6,0,P|364:370|294:369,1,100,0|0,0:0|0:0,0:0:0:0:
197,277,76670,1,0,0:0:0:0:
367,269,76804,1,0,0:0:0:0:
218,351,76937,1,0,0:0:0:0:
275,191,77070,1,0,0:0:0:0:
445,186,77204,2,0,P|478:246|466:315,1,100,0|0,0:0|0:0,0:0:0:0:
351,156,77470,2,0,P|403:163|455:195,1,100,0|0,0:0|0:0,0:0:0:0:
475,353,77737,1,0,0:0:0:0:
315,294,77870,1,0,0:0:0:0:
445,186,78004,2,0,L|380:286,1,100,0|0,0:0|0:0,0:0:0:0:
232,309,78270,6,0,L|159:219,1,100
49,111,78537,2,0,L|3:207,1,100,0|0,0:0|0:0,0:0:0:0:
169,231,78804,1,0,0:0:0:0:
117,69,78937,1,0,0:0:0:0:
6,201,79070,2,0,L|51:297,1,100
165,138,79337,1,0,0:0:0:0:
24,34,79470,1,0,0:0:0:0:
6,201,79604,2,0,P|59:198|123:166,1,100,0|0,0:0|0:0,0:0:0:0:
257,97,79870,1,0,0:0:0:0:
109,13,80004,1,0,0:0:0:0:
102,180,80137,2,0,P|130:220|172:248,1,100,0|0,0:0|0:0,0:0:0:0:
325,170,80404,2,0,L|248:87,1,100,0|0,0:0|0:0,0:0:0:0:
6,224,81337,6,0,L|92:162,1,100,0|0,0:0|0:0,0:0:0:0:
87,165,82270,2,0,P|136:153|178:126,1,100,0|0,0:0|0:0,0:0:0:0:
69,7,82537,2,0,L|184:54,1,100,0|0,0:0|0:0,0:0:0:0:
246,193,82804,2,0,L|141:236,1,100,0|0,0:0|0:0,0:0:0:0:
161,44,83070,1,0,0:0:0:0:
246,193,83204,1,0,0:0:0:0:
104,97,83337,1,0,0:0:0:0:
242,1,83470,6,0,L|332:78,1,100,0|0,0:0|0:0,0:0:0:0:
170,152,83737,1,0,0:0:0:0:
242,1,83870,2,0,P|310:-8|371:27,1,100,0|0,0:0|0:0,0:0:0:0:
273,159,84137,1,0,0:0:0:0:
161,44,84270,1,0,0:0:0:0:
332,93,84404,6,0,L|394:185,1,100,0|0,0:0|0:0,0:0:0:0:
232,247,84670,2,0,P|192:217|169:173,1,100,0|0,0:0|0:0,0:0:0:0:
328,235,84937,2,0,P|322:284|295:325,1,100,0|0,0:0|0:0,0:0:0:0:
136,263,85204,1,0,0:0:0:0:
273,159,85337,1,0,0:0:0:0:
291,332,85470,1,0,0:0:0:0:
188,197,85604,2,0,P|184:147|203:101,1,100,0|0,0:0|0:0,0:0:0:0:
355,177,85870,1,0,0:0:0:0:
188,197,86004,2,0,P|148:167|125:123,1,100,0|0,0:0|0:0,0:0:0:0:
279,51,86270,1,0,0:0:0:0:
274,220,86404,1,0,0:0:0:0:
125,123,86537,2,0,P|117:74|132:26,1,100,0|0,0:0|0:0,0:0:0:0:
265,133,86804,6,0,L|185:199,1,100,0|0,0:0|0:0,0:0:0:0:
154,364,87070,2,0,P|202:371|250:356,1,100,0|0,0:0|0:0,0:0:0:0:
187,196,87337,1,0,0:0:0:0:
85,332,87470,1,0,0:0:0:0:
250,356,87604,1,0,0:0:0:0:
129,242,87737,6,0,L|78:346,1,100,0|0,0:0|0:0,0:0:0:0:
253,311,88004,1,0,0:0:0:0:
172,156,88137,2,0,P|131:215|137:280,1,100,0|0,0:0|0:0,0:0:0:0:
297,256,88404,1,0,0:0:0:0:
227,99,88537,1,0,0:0:0:0:
128,241,88670,6,0,P|149:307|208:343,1,100,0|0,0:0|0:0,0:0:0:0:
297,256,88937,2,0,L|326:160,1,100,0|0,0:0|0:0,0:0:0:0:
397,5,89204,2,0,P|447:-8|519:29,1,100,0|0,0:0|0:0,0:0:0:0:
428,162,89470,1,0,0:0:0:0:
324,26,89604,1,0,0:0:0:0:
483,84,89737,1,0,0:0:0:0:
322,141,89870,6,0,L|249:65,1,100,0|0,0:0|0:0,0:0:0:0:
168,218,90137,1,0,0:0:0:0:
168,218,90204,1,0,0:0:0:0:
168,218,90270,1,0,0:0:0:0:
322,141,90404,1,0,0:0:0:0:
164,118,90537,1,0,0:0:0:0:
274,228,90670,1,0,0:0:0:0:
292,58,90804,2,0,P|248:106|243:172,1,100,0|0,0:0|0:0,0:0:0:0:
359,230,91070,6,0,L|436:164,1,100,0|0,0:0|0:0,0:0:0:0:
381,33,91337,2,0,P|316:36|285:69,1,100,0|0,0:0|0:0,0:0:0:0:
228,191,91604,2,0,P|219:255|246:291,1,100,0|0,0:0|0:0,0:0:0:0:
362,235,91870,2,0,P|359:170|326:139,1,100,0|0,0:0|0:0,0:0:0:0:
228,191,92137,6,0,L|298:279,1,100,0|0,0:0|0:0,0:0:0:0:
215,378,92404,2,0,L|144:291,1,100,0|0,0:0|0:0,0:0:0:0:
57,207,92670,2,0,P|81:165|127:136,1,100,0|0,0:0|0:0,0:0:0:0:
260,158,92937,1,0,0:0:0:0:
140,229,93070,2,0,P|117:187|124:135,1,100
382,230,93470,2,0,P|405:188|402:137,1,100,0|0,0:0|0:0,0:0:0:0:
297,62,93737,6,0,P|227:58|176:94,1,100,0|0,0:0|0:0,0:0:0:0:
98,161,94004,2,0,P|129:223|175:248,1,100,0|0,0:0|0:0,0:0:0:0:
261,150,94270,2,0,L|302:243,1,100,0|0,0:0|0:0,0:0:0:0:
214,352,94537,1,0,0:0:0:0:
152,239,94670,2,0,L|189:146,1,100,0|0,0:0|0:0,0:0:0:0:
315,109,94937,1,0,0:0:0:0:
301,241,95070,2,0,P|251:274|194:277,1,100,0|0,0:0|0:0,0:0:0:0:
188,146,95337,5,0,0:0:0:0:
315,109,95470,2,0,P|345:147|359:199,1,100,0|0,0:0|0:0,0:0:0:0:
317,315,95737,2,0,P|279:345|228:357,1,100,0|0,0:0|0:0,0:0:0:0:
301,241,96004,1,0,0:0:0:0:
402,323,96137,1,0,0:0:0:0:
181,300,96270,6,0,L|56:312,1,100,0|0,0:0|0:0,0:0:0:0:
200,228,96537,2,0,L|97:157,1,100,0|0,0:0|0:0,0:0:0:0:
260,183,96804,2,0,L|255:68,1,100,0|0,0:0|0:0,0:0:0:0:
122,109,97070,1,0,0:0:0:0:
113,244,97204,2,0,P|138:287|177:318,1,100,0|0,0:0|0:0,0:0:0:0:
302,312,97470,1,0,0:0:0:0:
260,183,97604,6,0,L|151:145,1,100,0|0,0:0|0:0,0:0:0:0:
160,287,97870,2,0,P|206:320|269:329,1,100,0|0,0:0|0:0,0:0:0:0:
364,280,98137,1,0,0:0:0:0:
334,147,98270,1,0,0:0:0:0:
211,87,98404,6,0,L|228:206,1,100,0|0,0:0|0:0,0:0:0:0:
340,236,98670,2,0,L|332:130,1,100,0|0,0:0|0:0,0:0:0:0:
468,133,98937,1,0,0:0:0:0:
444,288,99070,6,0,B|390:276|390:276|342:240,1,100,0|0,0:0|0:0,0:0:0:0:
354,249,99270,1,0,0:0:0:0:
354,249,99337,1,0,0:0:0:0:
354,249,99404,1,0,0:0:0:0:
354,249,99470,6,0,B|312:212|312:212|281:156,1,100,0|0,0:0|0:0,0:0:0:0:
394,64,99737,1,0,0:0:0:0:
437,199,99870,2,0,P|395:236|336:249,1,100,0|0,0:0|0:0,0:0:0:0:
218,153,100137,2,0,P|256:112|305:95,1,100,0|0,0:0|0:0,0:0:0:0:
353,248,100404,2,0,P|311:285|250:299,1,100,0|0,0:0|0:0,0:0:0:0:
135,203,100670,2,0,P|176:165|240:152,1,100,0|0,0:0|0:0,0:0:0:0:
351,83,100937,1,0,0:0:0:0:
436,198,101070,2,0,P|394:235|335:248,1,100,0|0,0:0|0:0,0:0:0:0:
76,133,101470,6,0,P|117:95|177:84,1,100,0|0,0:0|0:0,0:0:0:0:
294,168,101737,2,0,P|291:223|257:274,1,100,0|0,0:0|0:0,0:0:0:0:
120,319,102004,1,0,0:0:0:0:
153,163,102137,1,0,0:0:0:0:
270,261,102270,6,0,L|294:360,2,100,0|0|0,0:0|0:0|0:0,0:0:0:0:
229,104,102670,2,0,L|119:58,1,100,0|0,0:0|0:0,0:0:0:0:
13,155,102937,2,0,P|15:210|49:261,1,100,0|0,0:0|0:0,0:0:0:0:
162,150,103204,1,0,0:0:0:0:
31,56,103337,6,0,L|12:156,1,100,0|0,0:0|0:0,0:0:0:0:
145,249,103604,2,0,L|163:150,1,100,0|0,0:0|0:0,0:0:0:0:
227,3,103870,2,0,L|316:80,1,100,0|0,0:0|0:0,0:0:0:0:
240,220,104137,2,0,L|130:253,1,100,0|0,0:0|0:0,0:0:0:0:
152,87,104404,1,0,0:0:0:0:
240,220,104537,2,0,P|264:263|264:313,1,100,0|0,0:0|0:0,0:0:0:0:
115,253,104804,6,0,P|91:210|91:160,1,100,0|0,0:0|0:0,0:0:0:0:
240,220,105070,2,0,P|216:177|216:127,1,100,0|0,0:0|0:0,0:0:0:0:
363,193,105337,2,0,P|339:150|339:100,1,100,0|0,0:0|0:0,0:0:0:0:
499,92,105604,1,0,0:0:0:0:
455,245,105737,2,0,P|422:281|372:295,1,100,0|0,0:0|0:0,0:0:0:0:
239,219,106004,2,0,P|240:170|265:127,1,100,0|0,0:0|0:0,0:0:0:0:
120,181,106270,2,0,P|121:132|146:89,1,100,0|0,0:0|0:0,0:0:0:0:
282,42,106537,2,0,P|332:72|348:127,1,100,0|0,0:0|0:0,0:0:0:0:
239,219,106804,1,0,0:0:0:0:
158,82,106937,2,0,B|209:112|209:112|269:101|269:101|346:124,1,200,0|0,0:0|0:0,0:0:0:0:
415,237,107337,6,0,P|374:275|314:286,1,100,0|0,0:0|0:0,0:0:0:0:
172,275,107604,2,0,P|154:221|170:162,1,100,0|0,0:0|0:0,0:0:0:0:
307,114,107870,2,0,P|338:161|338:222,1,100,0|0,0:0|0:0,0:0:0:0:
161,179,108137,2,0,P|100:204|28:314,2,200,0|0|0,0:0|0:0|0:0,0:0:0:0:
287,249,108804,1,0,0:0:0:0:
285,105,108937,1,0,0:0:0:0:
161,179,109070,1,0,0:0:0:0:
235,303,109204,2,0,P|286:324|335:308,1,100,0|0,0:0|0:0,0:0:0:0:
345,148,109470,2,0,B|317:205|233:154|219:226,1,150,0|0,0:0|0:0,0:0:0:0:
164,261,109737,1,0,0:0:0:0:
239,383,109870,1,0,0:0:0:0:
341,281,110004,6,0,P|337:225|278:181,1,100,0|0,0:0|0:0,0:0:0:0:
207,185,110270,2,0,P|172:228|164:291,1,100,0|0,0:0|0:0,0:0:0:0:
239,383,110537,2,0,P|294:374|344:336,1,100,0|0,0:0|0:0,0:0:0:0:
415,245,110804,2,0,P|402:191|360:144,1,100,0|0,0:0|0:0,0:0:0:0:
250,108,111070,2,0,P|216:152|204:215,1,100,0|0,0:0|0:0,0:0:0:0:
329,262,111337,2,0,P|385:259|426:233,1,100,0|0,0:0|0:0,0:0:0:0:
378,103,111604,2,0,P|328:128|293:182,1,100,0|0,0:0|0:0,0:0:0:0:
237,280,111870,1,0,0:0:0:0:
371,333,112004,1,0,0:0:0:0:
264,211,112137,1,0,0:0:0:0:
287,340,112670,6,0,P|338:349|379:322,1,100,0|0,0:0|0:0,0:0:0:0:
452,213,112937,1,0,0:0:0:0:
320,271,113070,1,0,0:0:0:0:
439,352,113204,1,0,0:0:0:0:
376,222,113337,1,0,0:0:0:0:
244,268,113470,2,0,P|261:322|297:343,1,100,0|0,0:0|0:0,0:0:0:0:
419,280,113737,2,0,L|495:214,1,100,0|0,0:0|0:0,0:0:0:0:
363,150,114004,1,0,0:0:0:0:
350,293,114137,1,0,0:0:0:0:
494,214,114270,2,0,L|497:110,1,100,0|0,0:0|0:0,0:0:0:0:
365,72,114537,2,0,B|247:65|294:277|103:273|209:26|209:26|-3:254,1,719.999978027344,0|0,0:0|0:0,0:0:0:0:
389,253,115870,6,0,L|319:181,1,100,0|0,0:0|0:0,0:0:0:0:
240,177,116137,2,0,L|243:283,1,100,0|0,0:0|0:0,0:0:0:0:
337,200,116404,2,0,L|427:114,1,100,0|0,0:0|0:0,0:0:0:0:
427,80,116670,6,0,P|375:58|309:66,1,100,0|0,0:0|0:0,0:0:0:0:
240,177,116937,2,0,L|341:201,1,100,0|0,0:0|0:0,0:0:0:0:
260,47,117204,1,0,0:0:0:0:
115,136,117337,1,0,0:0:0:0:
284,116,117470,1,0,0:0:0:0:
120,67,117604,1,0,0:0:0:0:
158,234,117737,2,0,B|241:175,1,100,0|0,0:0|0:0,0:0:0:0:
70,203,118004,2,0,B|51:261|94:304,1,100,0|0,0:0|0:0,0:0:0:0:
257,283,118270,1,0,0:0:0:0:
191,126,118404,1,0,0:0:0:0:
167,310,118537,6,0,L|271:373,1,100,0|0,0:0|0:0,0:0:0:0:
82,377,118804,2,0,B|44:319|71:266,1,100,0|0,0:0|0:0,0:0:0:0:
229,240,119070,2,0,B|216:311|147:310,1,100,0|0,0:0|0:0,0:0:0:0:
18,224,119337,1,0,0:0:0:0:
171,149,119470,1,0,0:0:0:0:
64,282,119604,1,0,0:0:0:0:
98,115,119737,1,0,0:0:0:0:
263,146,119870,2,0,L|223:255,1,100,0|0,0:0|0:0,0:0:0:0:
64,282,120137,2,0,L|98:188,1,100,0|0,0:0|0:0,0:0:0:0:
199,325,120404,2,0,P|170:365|121:384,1,100,0|0,0:0|0:0,0:0:0:0:
163,217,120670,6,0,L|249:271,1,100,0|0,0:0|0:0,0:0:0:0:
414,289,120937,2,0,P|413:240|390:196,1,100,0|0,0:0|0:0,0:0:0:0:
220,173,121204,2,0,L|251:283,1,100,0|0,0:0|0:0,0:0:0:0:
387,364,121470,1,0,0:0:0:0:
467,214,121604,1,0,0:0:0:0:
297,182,121737,2,0,L|247:268,1,100,0|0,0:0|0:0,0:0:0:0:
157,40,122137,1,0,0:0:0:0:
297,182,122270,2,0,B|253:201|201:168,1,100,0|0,0:0|0:0,0:0:0:0:
356,46,122537,1,0,0:0:0:0:
246,268,122670,1,0,0:0:0:0:
22,161,122804,6,0,B|4:97|68:63,1,100,0|0,0:0|0:0,0:0:0:0:
202,169,123070,2,0,L|286:226,1,100,0|0,0:0|0:0,0:0:0:0:
460,198,123337,2,0,P|470:149|448:105,1,100,0|0,0:0|0:0,0:0:0:0:
302,19,123604,1,0,0:0:0:0:
400,158,123737,1,0,0:0:0:0:
485,11,123870,1,0,0:0:0:0:
319,97,124004,6,0,L|237:161,1,100,0|0,0:0|0:0,0:0:0:0:
78,102,124270,1,0,0:0:0:0:
78,102,124337,1,0,0:0:0:0:
78,102,124404,1,0,0:0:0:0:
243,66,124537,1,0,0:0:0:0:
109,171,124670,1,0,0:0:0:0:
161,9,124804,1,0,0:0:0:0:
240,158,124937,2,0,L|178:246,1,100,0|0,0:0|0:0,0:0:0:0:
352,258,125204,6,0,L|359:143,1,100,0|0,0:0|0:0,0:0:0:0:
211,70,125470,2,0,P|172:99|149:143,1,100,0|0,0:0|0:0,0:0:0:0:
310,93,125737,2,0,L|256:10,1,100,0|0,0:0|0:0,0:0:0:0:
96,72,126004,1,0,0:0:0:0:
240,158,126137,1,0,0:0:0:0:
168,3,126270,6,0,L|88:79,1,100,0|0,0:0|0:0,0:0:0:0:
186,216,126537,2,0,P|230:237|279:226,1,100,0|0,0:0|0:0,0:0:0:0:
384,92,126804,2,0,P|348:29|310:19,1,100,0|0,0:0|0:0,0:0:0:0:
170,124,127070,2,0,P|161:172|186:216,1,100
355,201,127337,2,0,L|442:143,1,100,0|0,0:0|0:0,0:0:0:0:
503,303,127604,6,0,P|448:346|378:345,1,100,0|0,0:0|0:0,0:0:0:0:
268,273,127870,1,0,0:0:0:0:
431,222,128004,1,0,0:0:0:0:
319,349,128137,1,0,0:0:0:0:
271,186,128270,1,0,0:0:0:0:
431,222,128404,2,0,P|441:289|426:338,1,100,0|0,0:0|0:0,0:0:0:0:
344,176,128670,2,0,P|393:191|439:232,1,100,0|0,0:0|0:0,0:0:0:0:
318,348,128937,1,0,0:0:0:0:
344,176,129070,1,0,0:0:0:0:
416,328,129204,2,0,L|309:350,1,100,0|0,0:0|0:0,0:0:0:0:
212,214,129470,6,0,L|156:123,1,100,0|0,0:0|0:0,0:0:0:0:
64,268,129737,2,0,L|166:263,1,100,0|0,0:0|0:0,0:0:0:0:
91,112,130004,1,0,0:0:0:0:
64,268,130137,1,0,0:0:0:0:
210,213,130270,2,0,L|250:110,1,100,0|0,0:0|0:0,0:0:0:0:
93,194,130537,1,0,0:0:0:0:
231,294,130670,1,0,0:0:0:0:
247,120,130804,2,0,P|221:72|169:43,1,100,0|0,0:0|0:0,0:0:0:0:
212,214,131070,1,0,0:0:0:0:
306,73,131204,1,0,0:0:0:0:
139,108,131337,2,0,P|107:145|92:197,1,100,0|0,0:0|0:0,0:0:0:0:
242,128,131604,2,0,L|177:39,1,100,0|0,0:0|0:0,0:0:0:0:
412,67,132537,6,0,L|373:164,1,100
129,160,133204,5,0,0:0:0:0:
129,160,133337,1,0,0:0:0:0:
129,160,133470,1,0,0:0:0:0:
278,261,133604,2,0,L|370:321,1,100
338,89,134004,2,0,L|246:149,1,100
234,322,134270,2,0,L|326:382,1,100
450,254,134537,2,0,L|439:144,1,100
417,107,134804,6,0,L|317:171,1,100,0|0,0:0|0:0,0:0:0:0:
370,384,135070,2,0,L|469:319,1,100,0|0,0:0|0:0,0:0:0:0:
333,237,135337,2,0,L|233:301,1,100
195,94,135737,6,0,L|296:100,1,100,0|0,0:0|0:0,0:0:0:0:
376,292,136137,2,0,L|291:346,1,100,0|0,0:0|0:0,0:0:0:0:
193,166,136404,2,0,L|292:171,1,100,0|0,0:0|0:0,0:0:0:0:
216,348,136670,2,0,L|114:301,1,100,0|0,0:0|0:0,0:0:0:0:
256,192,136937,12,0,137737,0:0:0:0:
164,195,137870,6,0,L|256:255,1,100,0|0,0:0|0:0,0:0:0:0:
217,39,138270,2,0,L|125:99,1,100,0|0,0:0|0:0,0:0:0:0:
98,240,138537,2,0,L|190:300,1,100,0|0,0:0|0:0,0:0:0:0:
308,215,138804,2,0,L|290:101,1,100
268,90,139004,6,0,L|168:154,1,100
340,304,139337,2,0,L|439:239,1,100
231,196,139604,2,0,L|131:260,1,100,0|0,0:0|0:0,0:0:0:0:
33,32,140004,6,0,L|131:62,1,100
146,249,140404,2,0,L|50:219,1,100
194,86,140670,2,0,L|292:116,1,100
331,307,140937,2,0,L|235:277,1,100
213,288,141137,6,0,L|113:352,1,100
128,124,141470,2,0,L|227:59,1,100
363,198,141737,2,0,L|263:262,1,100
211,69,142004,1,0,0:0:0:0:
363,198,142137,6,0,L|463:262,1,100
259,175,142537,2,0,L|159:239,1,100
377,115,142804,2,0,L|477:179,1,100,0|0,0:0|0:0,0:0:0:0:
258,91,143070,2,0,L|158:155,1,100,0|0,0:0|0:0,0:0:0:0:
173,185,143270,6,0,L|273:249,1,100,0|0,0:0|0:0,0:0:0:0:
425,89,143604,2,0,L|341:34,1,100,0|0,0:0|0:0,0:0:0:0:
275,169,143870,2,0,L|375:233,1,100,0|0,0:0|0:0,0:0:0:0:
241,21,144270,6,0,L|347:35,1,100,0|0,0:0|0:0,0:0:0:0:
275,169,144670,2,0,L|169:155,1,100,0|0,0:0|0:0,0:0:0:0:
71,0,144937,2,0,L|177:14,1,100,0|0,0:0|0:0,0:0:0:0:
107,146,145204,2,0,L|7:132,1,100,0|0,0:0|0:0,0:0:0:0:
7,175,145404,5,0,0:0:0:0:
7,175,145470,2,0,L|107:239,1,100,0|0,0:0|0:0,0:0:0:0:
39,222,145670,2,0,L|139:286,1,100,0|0,0:0|0:0,0:0:0:0:
65,276,145870,2,0,L|165:340,1,100,0|0,0:0|0:0,0:0:0:0:
97,321,146070,2,0,L|197:385,1,100,0|0,0:0|0:0,0:0:0:0:
386,88,147537,6,0,B|354:126|354:126|309:147,1,100
239,3,147824,1,0,0:0:0:0:
386,88,147958,2,0,L|389:196,1,100
225,235,148224,1,0,0:0:0:0:
273,71,148358,1,0,0:0:0:0:
389,187,148491,2,0,L|310:261,1,100
436,378,148758,6,0,P|480:357|517:304,1,100
453,160,149024,1,0,0:0:0:0:
380,314,149158,1,0,0:0:0:0:
506,209,149291,1,0,0:0:0:0:
367,110,149424,1,0,0:0:0:0:
436,263,149558,1,0,0:0:0:0:
296,169,149691,6,0,B|279:123|279:123|291:59,1,100,0|0,0:0|0:0,0:0:0:0:
460,108,149958,1,0,0:0:0:0:
296,169,150091,2,0,L|184:121,1,100,0|0,0:0|0:0,0:0:0:0:
376,26,150358,1,0,0:0:0:0:
372,196,150491,1,0,0:0:0:0:
288,72,150624,2,0,L|383:23,1,100,0|0,0:0|0:0,0:0:0:0:
302,220,150891,6,0,P|334:259|388:270,1,100,0|0,0:0|0:0,0:0:0:0:
433,112,151158,2,0,L|325:129,1,100,0|0,0:0|0:0,0:0:0:0:
215,250,151424,1,0,0:0:0:0:
372,196,151558,1,0,0:0:0:0:
219,118,151691,1,0,0:0:0:0:
284,274,151824,6,0,B|253:314|253:314|198:324,1,100,0|0,0:0|0:0,0:0:0:0:
142,164,152091,1,0,0:0:0:0:
308,176,152224,2,0,L|281:284,1,100,0|0,0:0|0:0,0:0:0:0:
115,252,152491,1,0,0:0:0:0:
219,118,152624,1,0,0:0:0:0:
284,274,152758,2,0,L|257:382,1,100,0|0,0:0|0:0,0:0:0:0:
142,164,153024,6,0,P|91:159|45:189,1,100,0|0,0:0|0:0,0:0:0:0:
197,286,153291,2,0,L|221:188,1,100,0|0,0:0|0:0,0:0:0:0:
82,91,153558,1,0,0:0:0:0:
117,256,153691,1,0,0:0:0:0:
183,95,153824,1,0,0:0:0:0:
50,183,153958,6,0,L|126:265,1,100,0|0,0:0|0:0,0:0:0:0:
15,16,154224,1,0,0:0:0:0:
118,151,154358,2,0,L|185:224,1,100,0|0,0:0|0:0,0:0:0:0:
87,0,154624,1,0,0:0:0:0:
200,127,154758,1,0,0:0:0:0:
267,0,154891,6,0,L|161:0,1,100,0|0,0:0|0:0,0:0:0:0:
299,204,155158,1,0,0:0:0:0:
346,10,155291,1,0,0:0:0:0:
200,127,155424,2,0,L|306:127,1,100,0|0,0:0|0:0,0:0:0:0:
198,212,155691,5,0,0:0:0:0:
267,0,155824,1,0,0:0:0:0:
388,192,155958,1,0,0:0:0:0:
198,212,156091,6,0,P|165:174|161:125,1,100,0|0,0:0|0:0,0:0:0:0:
311,87,156358,1,0,0:0:0:0:
289,255,156491,2,0,L|190:208,1,100,0|0,0:0|0:0,0:0:0:0:
218,42,156758,1,0,0:0:0:0:
322,178,156891,1,0,0:0:0:0:
161,125,157024,2,0,L|221:39,1,100,0|0,0:0|0:0,0:0:0:0:
354,112,157291,1,0,0:0:0:0:
198,212,157424,1,0,0:0:0:0:
73,94,157558,2,0,L|133:8,1,100,0|0,0:0|0:0,0:0:0:0:
245,136,157824,1,0,0:0:0:0:
80,175,157958,1,0,0:0:0:0:
130,11,158091,1,0,0:0:0:0:
198,212,158224,6,0,P|244:227|291:212,1,100,0|0,0:0|0:0,0:0:0:0:
166,97,158491,1,0,0:0:0:0:
110,259,158624,2,0,L|204:207,1,100,0|0,0:0|0:0,0:0:0:0:
216,37,158891,1,0,0:0:0:0:
66,99,159024,1,0,0:0:0:0:
197,211,159158,2,0,L|291:159,1,100,0|0,0:0|0:0,0:0:0:0:
142,71,159424,1,0,0:0:0:0:
132,240,159558,1,0,0:0:0:0:
284,163,159691,2,0,L|370:113,1,100,0|0,0:0|0:0,0:0:0:0:
216,37,159958,1,0,0:0:0:0:
224,206,160091,1,0,0:0:0:0:
370,112,160224,1,0,0:0:0:0:
281,258,160358,6,0,P|237:281|188:274,1,100,0|0,0:0|0:0,0:0:0:0:
272,118,160624,1,0,0:0:0:0:
366,260,160758,2,0,L|316:366,1,100,0|0,0:0|0:0,0:0:0:0:
224,206,161024,1,0,0:0:0:0:
394,191,161158,1,0,0:0:0:0:
323,350,161291,2,0,L|217:300,1,100,0|0,0:0|0:0,0:0:0:0:
321,161,161558,1,0,0:0:0:0:
417,300,161691,1,0,0:0:0:0:
232,307,161824,2,0,L|192:196,1,100,0|0,0:0|0:0,0:0:0:0:
367,235,162091,1,0,0:0:0:0:
232,307,162224,1,0,0:0:0:0:
232,136,162358,1,0,0:0:0:0:
117,231,162624,6,0,L|89:340,1,100,0|0,0:0|0:0,0:0:0:0:
349,177,163158,2,0,L|425:260,1,100,0|0,0:0|0:0,0:0:0:0:
117,96,163691,2,0,L|42:183,1,100
343,59,164224,2,0,L|431:143,1,100,0|0,0:0|0:0,0:0:0:0:
256,157,164624,1,0,0:0:0:0:
256,199,164758,2,0,L|257:320,1,100,0|0,0:0|0:0,0:0:0:0:
176,355,176130,6,0,P|231:342|303:224,1,200
86,317,176914,2,0,P|56:269|88:134,1,200
85,138,177699,6,0,P|52:195|303:217,1,500
363,122,182405,6,0,P|311:78|195:118,1,200
451,167,183189,2,0,P|399:211|283:171,1,200
231,216,183973,2,0,P|323:231|313:111,1,250
285,173,184758,6,0,B|191:128|252:-8|349:-15|436:113|422:191,1,375
147,139,188679,5,0,0:0:0:0:
256,191,189071,1,0,0:0:0:0:
362,133,189463,1,0,0:0:0:0:
142,67,189856,2,0,P|77:120|156:209,1,200
148,139,190640,6,0,P|199:207|103:274,1,200
126,207,191424,2,0,P|59:264|140:349,1,200
130,278,192208,2,0,P|190:208|269:256,1,200
202,281,192699,1,0,0:0:0:0:
100,181,192993,2,0,P|190:139|284:164,1,200
285,236,193777,6,0,P|356:167|303:92,1,200
283,163,194561,2,0,P|239:80|314:22,1,200
310,94,195346,2,0,P|227:50|169:125,1,200
242,122,195836,1,0,0:0:0:0:
77,110,196130,2,0,P|136:204|234:185,1,200
242,122,196914,2,0,P|296:198|219:281,1,200
139,287,197699,5,0,0:0:0:0:
68,231,197797,2,0,L|56:80,1,150
76,50,198189,2,0,L|228:41,1,150
174,167,198875,2,0,P|249:211|360:168,1,200
174,167,199561,6,0,L|177:63,1,100
86,235,199855,2,0,L|15:160,1,100
262,240,200149,2,0,L|331:160,1,100
168,304,200443,1,0,0:0:0:0:
464,138,200709,6,0,P|442:85|390:44,1,100
244,87,200976,2,0,P|222:139|230:205,1,100
336,309,201243,2,0,L|458:277,1,100
411,56,201509,6,0,L|294:28,1,100
222,181,201776,2,0,L|319:204,1,100
174,16,202043,1,0,0:0:0:0:
145,183,202176,1,0,0:0:0:0:
296,106,202309,1,0,0:0:0:0:
125,96,202443,1,0,0:0:0:0:
319,204,202576,2,0,B|376:122,1,100
242,16,202843,2,0,B|183:10|116:36,1,100
232,170,203109,1,0,0:0:0:0:
339,37,203243,1,0,0:0:0:0:
150,170,203374,6,0,L|202:287,1,100,0|0,0:0|0:0,0:0:0:0:
96,366,203643,2,0,B|50:337|32:289,1,100
352,233,203909,2,0,P|345:282|318:323,1,100,0|0,0:0|0:0,0:0:0:0:
150,170,204176,1,0,0:0:0:0:
319,156,204308,1,0,0:0:0:0:
190,261,204443,1,0,0:0:0:0:
234,97,204576,1,0,0:0:0:0:
289,253,204709,2,0,L|183:261,1,100
134,98,204976,2,0,L|235:96,1,100
393,124,205243,2,0,P|363:164|319:187,1,100
147,197,205509,6,0,L|133:94,1,100
24,229,205774,2,0,P|45:273|86:306,1,100,0|0,0:0|0:0,0:0:0:0:
254,309,206043,2,0,L|354:266,1,100
266,119,206309,1,0,0:0:0:0:
181,267,206443,1,0,0:0:0:0:
345,269,206576,2,0,L|403:179,1,100
115,106,206843,1,0,0:0:0:0:
55,264,206976,2,0,B|101:305|179:299,1,100
31,173,207243,1,0,0:0:0:0:
0,338,207376,1,0,0:0:0:0:
146,299,207509,6,0,B|205:267|223:195,1,100
110,205,207776,2,0,L|115:101,1,100
286,165,208043,2,0,P|308:210|291:289,1,100
146,299,208309,1,0,0:0:0:0:
198,137,208443,1,0,0:0:0:0:
306,259,208576,1,0,0:0:0:0:
285,87,208709,6,0,L|191:140,1,100
367,124,208976,1,0,0:0:0:0:
367,124,209109,1,0,0:0:0:0:
367,124,209243,1,0,0:0:0:0:
213,51,209376,1,0,0:0:0:0:
227,219,209509,1,0,0:0:0:0:
367,124,209643,1,0,0:0:0:0:
213,51,209776,2,0,L|282:142,1,100
425,208,210043,6,0,L|472:119,1,100
469,371,210309,2,0,P|422:386|372:379,1,100
325,211,210576,2,0,L|441:207,1,100
279,296,210843,1,0,0:0:0:0:
273,130,210976,1,0,0:0:0:0:
374,266,211109,6,0,L|275:296,1,100
148,183,211376,2,0,P|114:220|102:268,1,100
245,360,211643,2,0,P|291:375|341:368,1,100
361,199,211909,2,0,P|369:149|352:103,1,100
254,243,212176,2,0,L|343:288,1,100
150,350,212443,6,0,P|107:295|108:224,1,100
142,102,212709,1,0,0:0:0:0:
264,221,212843,1,0,0:0:0:0:
101,266,212976,1,0,0:0:0:0:
220,146,213109,1,0,0:0:0:0:
332,274,213243,2,0,P|272:307|203:295,1,100
320,157,213509,2,0,P|372:164|424:196,1,100
378,353,213776,1,0,0:0:0:0:
264,221,213909,1,0,0:0:0:0:
413,186,214043,2,0,L|417:316,1,100
241,307,214309,6,0,L|168:217,1,100
49,110,214576,2,0,L|3:206,1,100
178,229,214843,1,0,0:0:0:0:
117,69,214976,1,0,0:0:0:0:
6,201,215109,2,0,L|51:297,1,100
165,138,215376,1,0,0:0:0:0:
24,34,215509,1,0,0:0:0:0:
6,201,215643,2,0,P|59:198|123:166,1,100
257,97,215909,1,0,0:0:0:0:
109,13,216043,1,0,0:0:0:0:
102,180,216176,2,0,P|141:208|191:219,1,100
191,19,216443,6,0,L|162:134,1,100
135,282,216709,2,0,L|223:347,1,100
260,348,216909,1,0,0:0:0:0:
303,337,216976,1,0,0:0:0:0:
340,311,217043,1,0,0:0:0:0:
364,273,217109,1,0,0:0:0:0:
378,230,217176,1,0,0:0:0:0:
372,185,217243,1,0,0:0:0:0:
343,150,217309,1,0,0:0:0:0:
298,144,217376,2,0,L|185:203,1,100
9,23,217643,6,0,L|122:82,1,100
141,82,217843,1,0,0:0:0:0:
186,83,217909,1,0,0:0:0:0:
230,77,217976,1,0,0:0:0:0:
270,59,218043,1,0,0:0:0:0:
315,55,218109,1,0,0:0:0:0:
360,58,218176,1,0,0:0:0:0:
399,79,218243,1,0,0:0:0:0:
431,110,218309,1,0,0:0:0:0:
448,151,218376,1,0,0:0:0:0:
454,195,218443,1,0,0:0:0:0:
428,271,218576,6,0,L|368:385,1,100
171,348,218843,2,0,L|132:226,1,100
247,58,219109,1,0,0:0:0:0:
284,258,219243,1,0,0:0:0:0:
131,120,219376,1,0,0:0:0:0:
333,105,219509,6,0,L|426:205,1,100
209,202,219776,1,0,0:0:0:0:
321,32,219909,2,0,P|389:23|450:58,1,100
336,223,220176,1,0,0:0:0:0:
212,61,220309,1,0,0:0:0:0:
384,135,220443,6,0,L|332:230,1,100
501,184,220709,2,0,P|512:136|500:88,1,100
321,32,220976,2,0,P|279:58|253:99,1,100
361,294,221243,1,0,0:0:0:0:
384,135,221376,1,0,0:0:0:0:
231,245,221509,1,0,0:0:0:0:
425,221,221643,2,0,P|415:171|360:122,1,100
226,160,221909,1,0,0:0:0:0:
361,294,222043,2,0,P|401:264|429:199,1,100
298,109,222309,1,0,0:0:0:0:
283,306,222443,1,0,0:0:0:0:
383,134,222576,2,0,P|378:75|341:23,1,100
185,68,222843,6,0,L|235:180,1,100
112,323,223109,2,0,P|73:277|63:214,1,100
185,68,223376,1,0,0:0:0:0:
163,234,223509,1,0,0:0:0:0:
100,80,223643,1,0,0:0:0:0:
262,227,223776,6,0,L|144:234,1,100
185,68,224043,1,0,0:0:0:0:
262,227,224176,2,0,P|246:287|203:326,1,100
98,148,224443,1,0,0:0:0:0:
292,139,224576,1,0,0:0:0:0:
222,314,224709,6,0,P|153:328|92:295,1,100
292,139,224976,2,0,L|257:252,1,100
419,352,225243,2,0,P|452:302|452:243,1,100
292,139,225509,1,0,0:0:0:0:
319,357,225643,1,0,0:0:0:0:
402,154,225776,1,0,0:0:0:0:
225,297,225909,6,0,L|99:255,1,100
292,139,226176,1,0,0:0:0:0:
292,139,226243,1,0,0:0:0:0:
292,139,226309,1,0,0:0:0:0:
225,297,226443,1,0,0:0:0:0:
147,154,226576,1,0,0:0:0:0:
316,225,226709,1,0,0:0:0:0:
96,235,226843,2,0,P|52:186|47:120,1,100
347,130,227109,6,0,L|309:245,1,100
147,154,227376,2,0,P|102:203|99:269,1,100,0|0,0:3|0:0,0:3:0:0:
218,354,227643,1,0,0:0:0:0:
241,157,227776,1,0,0:0:0:0:
114,312,227909,1,0,0:0:0:0:
315,224,228043,6,0,L|211:131,1,100
218,354,228309,1,0,0:0:0:0:
384,292,228443,2,0,P|356:250|287:218,1,100
125,236,228709,1,0,0:0:0:0:
300,323,228843,1,0,0:0:0:0:
334,136,228976,2,0,P|283:137|225:172,1,100
384,292,229243,2,0,L|403:152,1,100
349,8,229509,6,0,P|279:17|230:67,1,100
397,192,229776,1,0,0:0:0:0:
349,8,229909,1,0,0:0:0:0:
173,120,230043,1,0,0:0:0:0:
328,264,230176,2,0,P|388:297|457:285,1,100
399,94,230443,1,0,0:0:0:0:
250,206,230576,2,0,P|285:245|355:268,1,100
487,139,230843,1,0,0:0:0:0:
296,65,230976,1,0,0:0:0:0:
327,265,231109,2,0,P|365:250|406:184,1,100
239,106,231376,6,0,L|251:228,1,100
59,317,231643,2,0,P|32:280|28:200,1,100
249,206,231909,1,0,0:0:0:0:
107,370,232043,1,0,0:0:0:0:
120,166,232176,1,0,0:0:0:0:
212,319,232309,6,0,L|322:332,1,100
280,128,232576,1,0,0:0:0:0:
143,250,232709,2,0,P|171:290|234:328,1,100
280,128,232976,1,0,0:0:0:0:
143,250,233109,1,0,0:0:0:0:
305,223,233243,2,0,P|301:175|266:110,1,100
213,320,233509,2,0,L|340:314,1,100
127,211,234443,6,0,L|226:308,1,100
376,96,235509,6,0,L|300:164,1,100
268,171,235709,6,0,B|164:202|140:20|323:24|307:146,1,300
305,173,236576,6,0,L|305:291,1,100
