osu file format v14

[General]
AudioFilename: audio.mp3
AudioLeadIn: 0
PreviewTime: 154136
Countdown: 0
SampleSet: None
StackLeniency: 0.5
Mode: 0
LetterboxInBreaks: 0
WidescreenStoryboard: 1

[Editor]
Bookmarks: 6291,19636,30760,50964,53346,59107,72418,84770,104362,114158,119056,121505,123954,126403,136199,145382,149406,165156
DistanceSpacing: 0.8
BeatDivisor: 2
GridSize: 16
TimelineZoom: 2.28

[Metadata]
Title:Prayer of the Refugee
TitleUnicode:Prayer of the Refugee
Artist:Rise Against
ArtistUnicode:Rise Against
Creator:spoes
Version:piroshki's Insane
Source:
Tags:rock sufferer and the witness
BeatmapID:1906142
BeatmapSetID:912479

[Difficulty]
HPDrainRate:5
CircleSize:4.5
OverallDifficulty:7
ApproachRate:9
SliderMultiplier:1.8
SliderTickRate:1

[Events]
//Background and Video events
0,0,"risegainst2.jpg",0,0
//Break Periods
2,53546,58312
2,149606,153536
//Storyboard Layer 0 (Background)
//Storyboard Layer 1 (Fail)
//Storyboard Layer 2 (Pass)
//Storyboard Layer 3 (Foreground)
//Storyboard Sound Samples

[TimingPoints]
6890,398.671096345515,4,2,1,40,1,0
6890,-100,4,2,1,40,0,0
19636,397.088021178028,4,2,1,60,1,0
30760,306.122448979592,4,2,1,60,1,8
31066,-100,4,2,1,40,0,8
31372,-100,4,2,1,40,0,8
31678,-100,4,2,1,40,0,8
31984,-76.9230769230769,4,2,1,60,0,9
50964,-142.857142857143,4,2,1,60,0,8
53346,397.350993377483,4,2,1,60,1,8
82948,-100,4,2,1,60,0,8
83047,-100,4,2,1,20,0,8
83147,-100,4,2,1,60,0,8
83246,-100,4,2,1,20,0,8
83345,-100,4,2,1,60,0,8
83546,306.122448979592,4,2,1,60,1,8
83852,-100,4,2,1,40,0,8
84770,-76.9230769230769,4,2,1,60,0,9
104362,-100,4,2,1,60,0,8
136199,-83.3333333333333,4,2,1,60,0,9
145382,-166.666666666667,4,2,1,60,0,8
149406,397.851601352695,4,2,1,60,1,8
154136,306.122448979592,4,2,1,60,1,8
154442,-100,4,2,1,40,0,8
155360,-76.9230769230769,4,2,1,60,0,9
174952,-100,4,2,1,60,0,8
184748,-71.4285714285714,4,2,1,60,0,9
194544,-250,4,2,1,60,0,8
196687,-250,4,2,1,5,0,8
196840,-250,4,2,1,40,0,8

[Colours]
Combo1 : 109,49,142
Combo2 : 36,159,125
Combo3 : 51,51,185
SliderTrackOverride : 0,0,0

[HitObjects]
459,165,6291,5,0,0:0:0:0:
426,169,6358,1,0,0:0:0:0:
393,174,6424,1,0,0:0:0:0:
359,177,6491,2,0,L|255:172,1,90
123,257,6889,6,0,L|277:248,1,135
330,246,7288,1,0,0:0:0:0:
330,246,7488,1,0,0:0:0:0:
207,310,7687,2,0,P|183:278|210:153,1,135
215,123,8086,1,0,0:0:0:0:
215,123,8285,1,0,0:0:0:0:
111,180,8484,6,0,P|103:237|113:291,1,90
273,184,8883,2,0,L|182:186,1,90
302,271,9282,1,0,0:0:0:0:
423,268,9481,1,0,0:0:0:0:
362,201,9680,1,0,0:0:0:0:
365,345,9879,1,0,0:0:0:0:
423,268,10079,6,0,P|434:204|421:164,1,90
396,110,10478,1,0,0:0:0:0:
349,51,10677,2,0,P|396:36|441:51,1,90
322,122,11076,2,0,P|275:137|230:122,1,90
275,55,11474,1,0,0:0:0:0:
173,215,11674,6,0,L|168:126,1,90
161,31,12072,1,0,0:0:0:0:
99,180,12272,1,0,0:0:0:0:
95,84,12471,1,0,0:0:0:0:
173,215,12670,1,0,0:0:0:0:
173,215,13069,5,0,0:0:0:0:
227,311,13268,1,0,0:0:0:0:
207,176,13468,2,0,P|193:254|209:284,1,90
275,231,13866,1,0,0:0:0:0:
405,281,14066,2,0,P|357:291|297:273,1,90
448,202,14464,2,0,P|480:238|495:299,1,90
356,202,14863,2,0,P|371:155|416:112,1,90
495,106,15262,6,0,P|507:63|498:12,1,90
351,58,15660,1,0,0:0:0:0:
434,61,15860,1,0,0:0:0:0:
287,98,16059,2,0,P|195:111|156:93,1,135
104,42,16458,6,0,P|88:86|107:148,1,90
143,277,16856,2,0,P|159:233|140:171,1,90
76,227,17255,1,0,0:0:0:0:
228,261,17454,2,0,L|340:254,1,90
464,344,17853,2,0,L|352:337,1,90
285,330,18252,1,0,0:0:0:0:
414,275,18451,1,0,0:0:0:0:
248,260,18650,1,0,0:0:0:0:
374,338,18850,5,0,0:0:0:0:
335,192,19049,1,0,0:0:0:0:
285,330,19248,1,0,0:0:0:0:
335,192,19447,1,0,0:0:0:0:
374,338,19636,5,0,0:0:0:0:
248,260,19834,1,0,0:0:0:0:
414,275,20033,2,0,L|519:278,1,90
335,192,20430,2,0,L|230:195,1,90
160,195,20827,1,0,0:0:0:0:
244,125,21025,1,0,0:0:0:0:
200,271,21224,6,0,P|154:278|96:260,1,90
159,110,21621,1,0,0:0:0:0:
160,195,21819,1,0,0:0:0:0:
101,57,22018,2,0,P|163:36|224:63,1,135
230,140,22415,2,0,P|282:150|322:134,1,90
378,89,22812,5,0,0:0:0:0:
308,151,23011,2,0,L|311:258,1,90
423,188,23408,2,0,L|420:98,1,90
384,268,23805,2,0,P|430:279|475:262,1,90
423,188,24202,1,0,0:0:0:0:
358,333,24401,2,0,L|216:337,1,135
155,338,24798,1,0,0:0:0:0:
268,267,24996,1,0,0:0:0:0:
97,375,25195,5,0,0:0:0:0:
163,248,25393,1,0,0:0:0:0:
92,198,25592,1,0,0:0:0:0:
158,325,25790,1,0,0:0:0:0:
245,213,25989,1,0,0:0:0:0:
174,147,26187,5,0,0:0:0:0:
216,287,26386,2,0,P|270:290|311:269,1,90
455,232,26783,2,0,P|410:220|362:238,1,90
411,311,27180,1,0,0:0:0:0:
508,274,27379,1,0,0:0:0:0:
371,233,27577,2,0,P|310:256|219:233,1,135
203,177,27974,2,0,P|245:169|293:176,1,90
371,233,28371,2,0,P|389:188|375:126,1,90
361,66,28769,5,0,0:0:0:0:
312,133,28967,1,0,0:0:0:0:
512,43,29166,2,0,P|462:31|421:41,1,90
312,133,29563,2,0,P|268:141|225:129,1,90
161,80,29960,1,0,0:0:0:0:
231,168,30158,5,0,0:0:0:0:
246,190,30258,1,0,0:0:0:0:
251,216,30357,1,0,0:0:0:0:
247,242,30456,1,0,0:0:0:0:
232,264,30555,1,0,0:0:0:0:
139,213,30760,1,0,0:0:0:0:
139,213,31066,6,0,L|257:222,1,90
359,271,31372,2,0,L|229:279,1,90
139,213,31678,2,0,L|257:222,1,90
373,270,31984,2,0,L|243:278,1,116.999994644165
133,286,32290,5,0,0:0:0:0:
133,286,32443,1,0,0:0:0:0:
133,286,32596,2,0,P|179:332|265:340,1,116.999994644165
350,321,32902,1,0,0:0:0:0:
350,321,33055,1,0,0:0:0:0:
350,321,33208,6,0,L|339:194,1,116.999994644165
476,165,33515,2,0,L|466:282,1,116.999994644165
334,293,33821,2,0,L|323:166,1,116.999994644165
495,142,34127,2,0,L|485:259,1,116.999994644165
415,61,34433,6,0,P|359:44|301:50,1,116.999994644165
166,83,34739,1,0,0:0:0:0:
166,83,34892,1,0,0:0:0:0:
166,83,35045,2,0,P|231:111|306:107,1,116.999994644165
422,107,35351,1,0,0:0:0:0:
422,107,35504,1,0,0:0:0:0:
422,107,35657,6,0,P|361:93|302:111,1,116.999994644165
233,219,35964,2,0,P|247:158|229:99,1,116.999994644165
54,156,36270,2,0,L|178:161,1,116.999994644165
355,285,36576,2,0,L|231:290,1,116.999994644165
113,359,36882,6,0,P|95:305|114:239,1,116.999994644165
178,167,37188,1,0,0:0:0:0:
178,167,37341,1,0,0:0:0:0:
178,167,37494,2,0,P|196:113|177:47,1,116.999994644165
35,104,37800,1,0,0:0:0:0:
35,104,37953,1,0,0:0:0:0:
35,104,38106,6,0,L|157:113,1,116.999994644165
344,173,38413,2,0,L|222:182,1,116.999994644165
414,57,38719,2,0,P|429:121|407:174,1,116.999994644165
311,343,39025,2,0,P|296:279|318:226,1,116.999994644165
378,148,39331,5,0,0:0:0:0:
378,148,39484,1,0,0:0:0:0:
207,181,39637,1,0,0:0:0:0:
211,185,39943,5,0,0:0:0:0:
211,185,40096,1,0,0:0:0:0:
428,224,40249,1,0,0:0:0:0:
428,224,40555,6,0,P|380:209|315:219,1,116.999994644165
260,264,40785,1,0,0:0:0:0:
260,264,40862,2,0,L|185:262,3,58.4999973220826
167,288,41168,2,0,L|108:289,3,58.4999973220826
70,324,41474,1,0,0:0:0:0:
50,294,41550,1,0,0:0:0:0:
45,258,41627,1,0,0:0:0:0:
57,225,41703,1,0,0:0:0:0:
81,199,41780,6,0,P|99:129|96:78,1,116.999994644165
24,11,42086,1,0,0:0:0:0:
24,11,42239,1,0,0:0:0:0:
24,11,42392,2,0,P|99:44|170:46,1,116.999994644165
255,24,42698,1,0,0:0:0:0:
255,24,42851,1,0,0:0:0:0:
255,24,43004,6,0,P|236:80|263:151,1,116.999994644165
309,312,43311,2,0,P|328:256|301:185,1,116.999994644165
131,194,43617,2,0,L|256:199,1,116.999994644165
433,132,43923,2,0,L|308:137,1,116.999994644165
105,211,44229,6,0,L|230:216,1,116.999994644165
359,224,44535,1,0,0:0:0:0:
359,224,44688,1,0,0:0:0:0:
359,224,44841,2,0,L|242:219,1,116.999994644165
112,217,45147,1,0,0:0:0:0:
112,217,45300,1,0,0:0:0:0:
112,217,45453,6,0,P|94:276|128:346,1,116.999994644165
297,160,45760,2,0,P|238:142|168:175,1,116.999994644165
392,258,46066,2,0,L|383:138,1,116.999994644165
487,236,46372,2,0,L|478:352,1,116.999994644165
266,299,46678,6,0,P|331:286|381:300,1,116.999994644165
485,360,46984,1,0,0:0:0:0:
485,360,47137,1,0,0:0:0:0:
485,360,47290,2,0,P|466:317|466:238,1,116.999994644165
497,120,47596,1,0,0:0:0:0:
497,120,47749,1,0,0:0:0:0:
497,120,47902,6,0,L|361:134,1,116.999994644165
367,29,48208,2,0,L|250:41,1,116.999994644165
476,130,48515,2,0,L|340:144,1,116.999994644165
336,25,48821,2,0,L|219:37,1,116.999994644165
75,54,49127,5,0,0:0:0:0:
75,54,49280,1,0,0:0:0:0:
259,104,49433,1,0,0:0:0:0:
263,108,49739,5,0,0:0:0:0:
263,108,49892,1,0,0:0:0:0:
43,145,50045,1,0,0:0:0:0:
47,148,50351,5,0,0:0:0:0:
47,148,50504,1,0,0:0:0:0:
308,177,50657,1,0,0:0:0:0:
308,177,50964,1,0,0:0:0:0:
256,192,51040,12,0,53346,0:0:0:0:
262,129,59107,5,0,0:0:0:0:
299,289,59306,2,0,P|314:206|291:137,1,135
254,113,59703,2,0,P|245:62|256:6,1,90
415,68,60100,2,0,L|308:70,1,90
254,113,60498,2,0,L|164:111,1,90
59,108,60895,1,0,0:0:0:0:
59,108,61094,1,0,0:0:0:0:
148,191,61293,2,0,P|217:181|299:205,1,135
297,263,61690,2,0,P|347:271|403:256,1,90
465,218,62087,5,0,0:0:0:0:
465,218,62286,1,0,0:0:0:0:
322,314,62485,2,0,P|310:253|319:218,1,90
381,63,62882,2,0,P|397:127|380:192,1,135
315,226,63279,2,0,L|217:229,1,90
132,147,63677,2,0,L|230:150,1,90
311,153,64074,1,0,0:0:0:0:
182,229,64273,1,0,0:0:0:0:
216,84,64471,6,0,P|226:155|203:243,1,135
171,270,64869,2,0,P|166:330|185:375,1,90
246,309,65266,1,0,0:0:0:0:
67,338,65465,1,0,0:0:0:0:
17,253,65663,1,0,0:0:0:0:
171,290,65862,1,0,0:0:0:0:
79,139,66061,6,0,P|71:185|92:242,1,90
172,98,66458,2,0,P|180:52|159:-5,1,90
89,64,66855,1,0,0:0:0:0:
89,64,67054,1,0,0:0:0:0:
230,129,67253,2,0,L|323:127,1,90
412,126,67650,1,0,0:0:0:0:
291,199,67849,2,0,L|198:197,1,90
126,193,68246,1,0,0:0:0:0:
244,286,68445,6,0,P|283:276|345:292,2,90
175,345,69041,2,0,P|131:353|75:338,1,90
87,228,69438,2,0,P|131:220|187:235,1,90
244,286,69836,2,0,P|298:293|345:278,1,90
409,324,70233,2,0,P|424:280|411:221,1,90
381,151,70630,1,0,0:0:0:0:
305,228,70829,6,0,P|281:154|301:77,1,135
340,38,71226,1,0,0:0:0:0:
195,120,71425,1,0,0:0:0:0:
300,163,71624,2,0,L|365:168,3,45
379,186,72021,2,0,L|423:182,3,45
484,208,72418,5,0,0:0:0:0:
418,70,72617,2,0,L|422:164,1,90
428,253,73014,1,0,0:0:0:0:
345,215,73213,2,0,P|298:202|252:217,1,90
190,270,73610,2,0,P|143:283|97:268,1,90
152,76,74008,6,0,L|145:218,1,135
190,270,74405,2,0,L|194:361,1,90
268,326,74802,2,0,P|325:355|412:327,1,135
443,297,75200,1,0,0:0:0:0:
339,262,75398,1,0,0:0:0:0:
502,359,75597,6,0,P|519:297|475:217,1,135
422,198,75995,2,0,P|410:143|415:100,1,90
465,37,76392,1,0,0:0:0:0:
347,115,76591,2,0,L|243:120,1,90
319,40,76988,1,0,0:0:0:0:
465,37,77187,2,0,P|480:110|441:192,1,135
445,234,77584,2,0,P|407:223|339:244,1,90
256,283,77981,5,0,0:0:0:0:
404,289,78180,1,0,0:0:0:0:
358,232,78379,1,0,0:0:0:0:
276,355,78577,1,0,0:0:0:0:
283,214,78776,2,0,L|287:62,1,135
286,10,79173,6,0,P|241:0|192:15,1,90
321,105,79571,2,0,P|366:115|415:100,1,90
479,57,79968,1,0,0:0:0:0:
479,57,80167,1,0,0:0:0:0:
390,184,80365,2,0,P|323:183|257:151,1,135
221,96,80763,6,0,P|174:86|114:108,1,90
178,252,81160,2,0,P|188:202|170:156,1,90
134,95,81557,1,0,0:0:0:0:
101,217,81756,2,0,L|110:328,1,90
186,277,82153,2,0,P|228:265|293:286,1,90
113,350,82551,2,0,P|71:362|6:341,1,90
64,271,82948,5,0,0:0:0:0:
229,339,83147,1,0,0:0:0:0:
351,209,83345,1,0,0:0:0:0:
186,277,83544,1,0,0:0:0:0:
186,277,83852,6,0,L|177:160,1,90
238,40,84158,2,0,L|231:129,1,90
186,277,84464,2,0,L|177:160,1,90
239,27,84770,6,0,L|229:153,1,116.999994644165
217,262,85076,1,0,0:0:0:0:
217,262,85229,1,0,0:0:0:0:
217,262,85382,2,0,P|142:278|70:254,1,116.999994644165
7,204,85688,1,0,0:0:0:0:
7,204,85841,1,0,0:0:0:0:
7,204,85994,6,0,P|58:191|124:208,1,116.999994644165
218,149,86301,2,0,P|231:200|214:266,1,116.999994644165
306,373,86607,2,0,P|293:322|310:256,1,116.999994644165
492,315,86913,2,0,L|365:321,1,116.999994644165
192,238,87219,6,0,L|319:244,1,116.999994644165
432,252,87525,1,0,0:0:0:0:
432,252,87678,1,0,0:0:0:0:
432,252,87831,2,0,P|383:211|321:197,1,116.999994644165
199,246,88137,1,0,0:0:0:0:
199,246,88290,1,0,0:0:0:0:
199,246,88443,6,0,P|212:175|188:106,1,116.999994644165
31,57,88750,2,0,L|157:61,1,116.999994644165
267,128,89056,2,0,L|383:124,1,116.999994644165
201,5,89362,2,0,P|188:76|212:145,1,116.999994644165
249,211,89668,6,0,P|263:268|234:341,1,116.999994644165
145,265,89974,1,0,0:0:0:0:
145,265,90127,1,0,0:0:0:0:
145,265,90280,2,0,P|131:228|157:135,1,116.999994644165
221,57,90586,1,0,0:0:0:0:
221,57,90739,1,0,0:0:0:0:
221,57,90892,6,0,L|78:73,1,116.999994644165
274,153,91199,2,0,L|417:169,1,116.999994644165
202,48,91505,2,0,L|59:64,1,116.999994644165
253,158,91812,2,0,L|396:174,1,116.999994644165
507,195,92117,5,0,0:0:0:0:
507,195,92270,1,0,0:0:0:0:
347,249,92423,1,0,0:0:0:0:
350,253,92729,5,0,0:0:0:0:
350,253,92882,1,0,0:0:0:0:
375,79,93035,1,0,0:0:0:0:
375,79,93341,6,0,P|387:142|379:204,1,116.999994644165
350,254,93571,1,0,0:0:0:0:
350,254,93648,2,0,L|283:261,3,58.4999973220826
254,287,93954,2,0,L|195:280,3,58.4999973220826
155,260,94260,5,0,0:0:0:0:
125,261,94336,1,0,0:0:0:0:
95,261,94413,1,0,0:0:0:0:
65,261,94489,1,0,0:0:0:0:
35,261,94566,6,0,P|19:314|31:375,1,116.999994644165
145,333,94872,1,0,0:0:0:0:
145,333,95025,1,0,0:0:0:0:
145,333,95178,2,0,P|161:255|144:194,1,116.999994644165
108,108,95484,1,0,0:0:0:0:
108,108,95637,1,0,0:0:0:0:
108,108,95790,6,0,L|245:113,1,116.999994644165
328,166,96097,2,0,L|444:161,1,116.999994644165
239,3,96403,2,0,P|225:60|242:118,1,116.999994644165
306,315,96709,2,0,P|320:258|302:199,1,116.999994644165
357,110,97015,6,0,L|240:114,1,116.999994644165
75,122,97321,1,0,0:0:0:0:
75,122,97474,1,0,0:0:0:0:
75,122,97627,2,0,L|191:117,1,116.999994644165
364,117,97933,1,0,0:0:0:0:
364,117,98086,1,0,0:0:0:0:
364,117,98239,6,0,L|372:249,1,116.999994644165
250,314,98546,2,0,L|243:198,1,116.999994644165
366,120,98852,2,0,L|383:251,1,116.999994644165
230,326,99159,2,0,L|234:210,1,116.999994644165
70,167,99464,6,0,P|127:153|186:164,1,116.999994644165
302,227,99770,1,0,0:0:0:0:
302,227,99923,1,0,0:0:0:0:
302,227,100076,2,0,P|287:149|296:101,1,116.999994644165
366,23,100382,1,0,0:0:0:0:
366,23,100535,1,0,0:0:0:0:
366,23,100688,6,0,P|307:9|233:29,1,116.999994644165
73,90,100994,2,0,P|132:104|206:84,1,116.999994644165
299,203,101301,2,0,P|313:144|293:70,1,116.999994644165
172,169,101607,2,0,P|158:228|178:302,1,116.999994644165
286,230,101913,5,0,0:0:0:0:
286,230,102066,1,0,0:0:0:0:
93,255,102219,1,0,0:0:0:0:
97,259,102525,5,0,0:0:0:0:
97,259,102678,1,0,0:0:0:0:
328,280,102831,1,0,0:0:0:0:
332,284,103137,5,0,0:0:0:0:
332,284,103290,1,0,0:0:0:0:
81,332,103443,1,0,0:0:0:0:
81,332,103750,6,0,P|97:278|84:183,1,116.999994644165
58,159,103979,1,0,0:0:0:0:
47,147,104056,2,0,L|41:78,3,58.4999973220826
85,40,104362,2,0,P|134:27|219:58,1,135
260,110,104668,1,0,0:0:0:0:
260,110,104821,1,0,0:0:0:0:
340,170,104974,2,0,P|349:119|339:76,1,90
189,118,105280,2,0,P|178:165|190:212,1,90
296,269,105586,6,0,P|248:260|196:274,1,90
107,304,105892,1,0,0:0:0:0:
167,339,106046,2,0,P|229:347|266:325,1,90
311,244,106352,1,0,0:0:0:0:
378,266,106505,2,0,L|372:359,1,90
470,297,106811,6,0,L|482:98,1,180
446,42,107270,2,0,P|402:30|345:44,1,90
297,111,107576,1,0,0:0:0:0:
220,104,107729,2,0,L|119:97,1,90
216,190,108035,2,0,L|333:198,1,90
157,223,108341,2,0,L|355:236,1,180
416,244,108801,1,0,0:0:0:0:
312,304,108954,2,0,L|148:292,1,135
110,331,109260,2,0,P|82:266|112:171,1,135
134,153,109566,6,0,P|152:109|141:58,1,90
27,53,109872,2,0,P|10:100|20:148,1,90
91,204,110178,2,0,P|103:251|98:299,1,90
26,362,110484,2,0,L|135:358,1,90
191,282,110790,1,0,0:0:0:0:
262,286,110943,2,0,L|351:289,1,90
450,339,111250,1,0,0:0:0:0:
454,263,111403,2,0,L|456:155,1,90
409,97,111709,6,0,P|333:68|221:106,1,180
193,174,112168,2,0,P|253:186|291:171,1,90
357,228,112474,1,0,0:0:0:0:
294,264,112627,2,0,P|246:274|192:264,1,90
145,334,112933,2,0,P|120:286|137:214,1,90
217,89,113239,2,0,L|205:276,1,180
283,338,113699,1,0,0:0:0:0:
287,316,113775,1,0,0:0:0:0:
292,294,113852,2,0,L|296:240,3,45
326,211,114158,6,0,P|390:190|472:218,1,135
508,275,114464,2,0,P|471:291|410:277,1,90
347,140,114770,2,0,P|379:164|397:223,1,90
187,146,115076,2,0,L|281:143,1,90
195,72,115382,2,0,L|106:70,1,90
41,162,115688,1,0,0:0:0:0:
115,165,115841,2,0,P|124:212|109:265,1,90
50,342,116148,1,0,0:0:0:0:
123,358,116301,2,0,L|219:353,1,90
314,296,116607,6,0,P|334:215|306:93,1,180
190,64,117066,2,0,P|222:93|237:150,1,90
149,138,117372,1,0,0:0:0:0:
273,54,117525,2,0,L|384:54,1,90
487,144,117831,2,0,L|397:144,1,90
287,161,118137,2,0,L|476:161,1,180
385,242,118597,1,0,0:0:0:0:
217,144,118750,2,0,L|379:144,1,135
422,127,119056,6,0,L|212:127,1,180
137,125,119515,1,0,0:0:0:0:
188,202,119668,2,0,P|197:253|177:315,1,90
67,170,119974,2,0,P|55:119|78:57,1,90
125,20,120280,2,0,L|287:26,1,135
326,29,120586,1,0,0:0:0:0:
285,111,120739,2,0,P|340:119|393:99,1,90
435,61,121046,1,0,0:0:0:0:
502,142,121199,2,0,L|497:294,1,135
506,353,121505,6,0,P|448:331|322:341,1,180
240,373,121964,1,0,0:0:0:0:
302,217,122117,1,0,0:0:0:0:
309,342,122270,1,0,0:0:0:0:
231,183,122423,2,0,P|225:131|238:70,1,90
308,22,122729,6,0,P|236:52|111:32,1,180
55,6,123188,2,0,L|62:106,1,90
71,181,123494,1,0,0:0:0:0:
171,134,123648,2,0,P|242:120|318:148,1,135
364,198,123954,6,0,P|293:212|217:184,1,135
154,212,124260,2,0,P|145:257|161:307,1,90
239,260,124566,1,0,0:0:0:0:
239,260,124719,1,0,0:0:0:0:
96,338,124872,2,0,L|-9:342,1,90
157,256,125178,2,0,L|302:262,1,135
361,290,125484,2,0,P|386:235|363:153,1,135
310,86,125790,5,0,0:0:0:0:
439,135,125943,1,0,0:0:0:0:
265,168,126097,1,0,0:0:0:0:
323,0,126250,1,0,0:0:0:0:
374,168,126403,5,0,0:0:0:0:
374,168,126556,1,0,0:0:0:0:
266,239,126709,2,0,L|143:236,1,90
74,233,127015,1,0,0:0:0:0:
174,305,127168,1,0,0:0:0:0:
123,165,127321,2,0,P|113:120|133:60,1,90
200,7,127627,5,0,0:0:0:0:
200,7,127780,1,0,0:0:0:0:
239,134,127933,2,0,L|344:131,1,90
437,126,128239,1,0,0:0:0:0:
328,200,128392,1,0,0:0:0:0:
499,169,128546,2,0,P|509:123|494:72,1,90
431,11,128852,5,0,0:0:0:0:
431,11,129005,1,0,0:0:0:0:
437,126,129158,2,0,P|390:135|332:113,1,90
252,63,129464,1,0,0:0:0:0:
395,68,129617,1,0,0:0:0:0:
235,164,129770,2,0,L|235:64,1,90
324,19,130076,5,0,0:0:0:0:
324,19,130229,1,0,0:0:0:0:
219,82,130382,2,0,P|172:89|124:77,1,90
177,0,130688,1,0,0:0:0:0:
155,169,130841,1,0,0:0:0:0:
41,76,130994,2,0,L|156:81,1,90
245,87,131301,5,0,0:0:0:0:
245,87,131454,1,0,0:0:0:0:
155,169,131607,2,0,L|40:174,1,90
209,233,131913,1,0,0:0:0:0:
119,105,132066,1,0,0:0:0:0:
165,299,132219,2,0,P|216:309|272:290,1,90
339,240,132525,5,0,0:0:0:0:
339,240,132678,1,0,0:0:0:0:
270,104,132831,2,0,P|257:147|271:198,1,90
354,151,133137,1,0,0:0:0:0:
187,160,133290,1,0,0:0:0:0:
338,80,133443,2,0,L|430:85,1,90
495,149,133750,5,0,0:0:0:0:
495,149,133903,1,0,0:0:0:0:
338,80,134056,2,0,L|248:84,1,90
142,91,134362,1,0,0:0:0:0:
268,150,134515,1,0,0:0:0:0:
115,0,134668,2,0,L|127:100,1,90
75,177,134974,1,0,0:0:0:0:
145,252,135127,5,0,0:0:0:0:
167,250,135204,1,0,0:0:0:0:
189,249,135280,2,0,L|246:255,3,45
255,246,135586,2,0,L|299:241,3,45
319,248,135892,1,0,0:0:0:0:
341,250,135968,1,0,0:0:0:0:
363,252,136045,1,0,0:0:0:0:
386,254,136121,1,0,0:0:0:0:
408,256,136199,6,0,P|422:193|403:136,1,107.999996704102
346,79,136505,1,0,0:0:0:0:
346,79,136658,1,0,0:0:0:0:
213,137,136811,2,0,P|201:78|212:25,1,107.999996704102
314,84,137117,1,0,0:0:0:0:
314,84,137270,1,0,0:0:0:0:
156,211,137423,6,0,L|41:208,1,107.999996704102
205,306,137729,2,0,L|320:303,1,107.999996704102
102,156,138035,2,0,P|84:214|111:278,1,107.999996704102
219,188,138341,2,0,P|237:130|210:66,1,107.999996704102
60,36,138648,6,0,L|201:41,1,107.999996704102
310,47,138954,1,0,0:0:0:0:
310,47,139107,1,0,0:0:0:0:
145,217,139260,2,0,L|157:94,1,107.999996704102
275,203,139566,1,0,0:0:0:0:
275,203,139719,1,0,0:0:0:0:
138,305,139872,6,0,P|181:319|258:296,1,107.999996704102
421,337,140178,2,0,P|378:323|301:346,1,107.999996704102
186,360,140484,2,0,L|192:245,1,107.999996704102
280,95,140790,2,0,L|274:202,1,107.999996704102
231,30,141097,6,0,P|294:19|341:39,1,107.999996704102
421,91,141403,1,0,0:0:0:0:
421,91,141556,1,0,0:0:0:0:
277,125,141709,2,0,P|214:136|167:116,1,107.999996704102
87,64,142015,1,0,0:0:0:0:
87,64,142168,1,0,0:0:0:0:
196,214,142321,6,0,L|320:207,1,107.999996704102
482,147,142627,2,0,L|374:153,1,107.999996704102
285,313,142933,2,0,P|270:254|285:201,1,107.999996704102
312,17,143239,2,0,P|327:76|312:129,1,107.999996704102
120,71,143546,6,0,L|279:71,1,107.999996704102
395,71,143852,1,0,0:0:0:0:
395,71,144005,1,0,0:0:0:0:
305,167,144158,2,0,L|146:167,1,107.999996704102
30,167,144464,1,0,0:0:0:0:
30,167,144617,1,0,0:0:0:0:
165,264,144770,2,0,L|324:264,1,107.999996704102
410,319,145076,2,0,P|422:270|410:214,1,107.999996704102
301,131,145382,1,0,0:0:0:0:
256,192,145459,12,0,149406,0:0:0:0:
192,271,154136,5,0,0:0:0:0:
192,271,154442,6,0,L|190:369,1,90
86,223,154748,2,0,L|87:133,1,90
217,250,155054,2,0,L|215:348,1,90
71,198,155360,6,0,L|73:73,1,116.999994644165
232,129,155666,1,0,0:0:0:0:
232,129,155819,1,0,0:0:0:0:
232,129,155972,2,0,L|229:4,1,116.999994644165
78,205,156278,1,0,0:0:0:0:
78,205,156431,1,0,0:0:0:0:
78,205,156584,6,0,P|139:225|208:200,1,116.999994644165
308,163,156891,2,0,P|364:151|418:170,1,116.999994644165
411,248,157197,2,0,P|354:259|300:240,1,116.999994644165
72,128,157503,2,0,P|128:116|182:135,1,116.999994644165
237,304,157809,6,0,L|245:176,1,116.999994644165
255,51,158115,1,0,0:0:0:0:
255,51,158268,1,0,0:0:0:0:
255,51,158421,2,0,L|263:179,1,116.999994644165
272,321,158727,1,0,0:0:0:0:
272,321,158880,1,0,0:0:0:0:
272,321,159033,6,0,P|256:262|275:191,1,116.999994644165
334,22,159340,2,0,P|350:81|331:152,1,116.999994644165
454,216,159646,2,0,L|337:207,1,116.999994644165
150,143,159952,2,0,L|267:134,1,116.999994644165
474,228,160258,6,0,L|357:219,1,116.999994644165
223,210,160564,1,0,0:0:0:0:
223,210,160717,1,0,0:0:0:0:
223,210,160870,2,0,P|199:149|225:78,1,116.999994644165
341,137,161176,1,0,0:0:0:0:
341,137,161329,1,0,0:0:0:0:
341,137,161482,6,0,L|219:148,1,116.999994644165
54,45,161789,2,0,L|176:56,1,116.999994644165
365,146,162095,2,0,L|243:157,1,116.999994644165
33,32,162401,2,0,L|155:43,1,116.999994644165
288,64,162707,5,0,0:0:0:0:
288,64,162860,1,0,0:0:0:0:
255,244,163013,1,0,0:0:0:0:
259,247,163319,5,0,0:0:0:0:
259,247,163472,1,0,0:0:0:0:
217,33,163625,1,0,0:0:0:0:
278,108,163778,5,0,0:0:0:0:
294,124,163855,1,0,0:0:0:0:
311,138,163931,2,0,P|343:146|392:138,3,58.4999973220826
423,150,164238,2,0,P|427:180|417:212,3,58.4999973220826
375,234,164544,2,0,P|371:262|376:307,3,58.4999973220826
405,333,164850,1,0,0:0:0:0:
374,350,164926,1,0,0:0:0:0:
338,354,165003,1,0,0:0:0:0:
304,342,165079,1,0,0:0:0:0:
278,318,165156,6,0,L|286:178,1,116.999994644165
297,59,165462,1,0,0:0:0:0:
297,59,165615,1,0,0:0:0:0:
297,59,165768,2,0,L|289:199,1,116.999994644165
285,324,166074,1,0,0:0:0:0:
285,324,166227,1,0,0:0:0:0:
285,324,166380,6,0,P|348:315|412:331,1,116.999994644165
187,352,166687,2,0,P|124:361|60:345,1,116.999994644165
0,280,166993,2,0,L|6:149,1,116.999994644165
181,235,167299,2,0,L|186:351,1,116.999994644165
330,278,167605,6,0,L|336:147,1,116.999994644165
344,28,167911,1,0,0:0:0:0:
344,28,168064,1,0,0:0:0:0:
344,28,168217,2,0,P|306:51|224:60,1,116.999994644165
98,42,168523,1,0,0:0:0:0:
98,42,168676,1,0,0:0:0:0:
98,42,168829,6,0,L|235:44,1,116.999994644165
143,157,169136,2,0,L|6:159,1,116.999994644165
259,100,169442,2,0,P|274:160|251:219,1,116.999994644165
84,259,169748,2,0,P|143:276|183:325,1,116.999994644165
309,327,170054,6,0,P|365:314|405:273,1,116.999994644165
444,156,170360,1,0,0:0:0:0:
444,156,170513,1,0,0:0:0:0:
444,156,170666,2,0,L|317:165,1,116.999994644165
181,178,170972,1,0,0:0:0:0:
181,178,171125,1,0,0:0:0:0:
181,178,171278,6,0,L|175:62,1,116.999994644165
321,281,171584,2,0,L|327:165,1,116.999994644165
166,193,171891,2,0,L|160:77,1,116.999994644165
337,301,172197,2,0,L|343:185,1,116.999994644165
360,32,172503,5,0,0:0:0:0:
360,32,172656,1,0,0:0:0:0:
253,243,172809,1,0,0:0:0:0:
442,171,173115,5,0,0:0:0:0:
442,171,173268,1,0,0:0:0:0:
190,147,173421,1,0,0:0:0:0:
343,280,173727,5,0,0:0:0:0:
343,280,173880,1,0,0:0:0:0:
275,51,174033,2,0,P|289:124|261:190,1,116.999994644165
205,222,174340,2,0,L|146:215,3,58.4999973220826
108,236,174646,1,0,0:0:0:0:
95,268,174722,1,0,0:0:0:0:
90,303,174799,1,0,0:0:0:0:
99,336,174875,1,0,0:0:0:0:
117,356,174952,6,0,L|237:351,1,90
206,352,175258,1,0,0:0:0:0:
293,231,175411,1,0,0:0:0:0:
294,364,175564,1,0,0:0:0:0:
332,164,175717,1,0,0:0:0:0:
218,276,175870,2,0,P|207:239|227:174,1,90
332,164,176176,6,0,P|375:154|429:169,1,90
374,246,176482,1,0,0:0:0:0:
298,100,176636,1,0,0:0:0:0:
217,189,176789,2,0,P|152:197|115:173,1,90
27,107,177095,2,0,P|95:92|172:116,1,135
217,189,177401,6,0,L|214:290,1,90
214,278,177707,1,0,0:0:0:0:
129,218,177860,1,0,0:0:0:0:
295,266,178013,1,0,0:0:0:0:
152,329,178166,1,0,0:0:0:0:
254,202,178319,2,0,P|316:192|349:208,1,90
426,248,178625,6,0,P|436:199|423:150,1,90
339,24,178931,2,0,P|330:67|340:111,1,90
502,59,179238,2,0,L|408:66,1,90
273,113,179544,2,0,L|183:106,1,90
85,99,179850,2,0,P|77:146|87:193,1,90
136,273,180156,1,0,0:0:0:0:
179,185,180309,1,0,0:0:0:0:
47,276,180462,1,0,0:0:0:0:
227,272,180615,2,0,L|326:271,1,90
316,271,180921,5,0,0:0:0:0:
378,193,181074,1,0,0:0:0:0:
323,348,181227,1,0,0:0:0:0:
299,182,181380,2,0,L|301:80,1,90
301,3,181687,1,0,0:0:0:0:
219,109,181840,1,0,0:0:0:0:
367,53,181993,2,0,P|414:44|464:64,1,90
403,219,182299,6,0,L|407:115,1,90
412,8,182605,1,0,0:0:0:0:
328,293,182911,2,0,L|324:189,1,90
319,82,183217,1,0,0:0:0:0:
407,348,183523,6,0,L|411:244,1,90
417,174,183753,1,0,0:0:0:0:
417,174,183829,2,0,L|345:186,3,45
343,204,184136,2,0,L|298:196,3,45
274,169,184442,1,0,0:0:0:0:
262,135,184518,1,0,0:0:0:0:
266,99,184595,1,0,0:0:0:0:
283,67,184671,1,0,0:0:0:0:
316,48,184748,6,0,L|459:50,1,125.999996154785
262,135,185054,2,0,L|119:133,1,125.999996154785
12,130,185360,1,0,0:0:0:0:
172,154,185513,1,0,0:0:0:0:
64,70,185666,1,0,0:0:0:0:
54,253,185819,1,0,0:0:0:0:
316,136,185972,2,0,L|189:137,1,125.999996154785
429,250,186278,2,0,L|303:250,1,125.999996154785
171,326,186584,5,0,0:0:0:0:
323,325,186738,1,0,0:0:0:0:
206,248,186891,1,0,0:0:0:0:
54,253,187045,1,0,0:0:0:0:
255,315,187197,2,0,P|282:251|258:184,1,125.999996154785
206,118,187503,1,0,0:0:0:0:
206,118,187656,1,0,0:0:0:0:
359,225,187809,2,0,L|353:358,1,125.999996154785
210,251,188115,5,0,0:0:0:0:
210,251,188268,1,0,0:0:0:0:
309,167,188421,1,0,0:0:0:0:
255,315,188574,1,0,0:0:0:0:
133,92,188727,2,0,L|265:98,1,125.999996154785
444,175,189033,2,0,L|312:181,1,125.999996154785
116,82,189340,2,0,L|248:88,1,125.999996154785
54,257,189646,6,0,P|34:197|66:127,1,125.999996154785
239,207,189952,1,0,0:0:0:0:
117,202,190105,1,0,0:0:0:0:
272,279,190258,2,0,L|411:274,1,125.999996154785
512,265,190564,1,0,0:0:0:0:
352,343,190717,1,0,0:0:0:0:
424,151,190870,2,0,P|438:218|416:281,1,125.999996154785
297,196,191176,6,0,P|283:129|305:66,1,125.999996154785
492,57,191482,2,0,L|363:70,1,125.999996154785
171,183,191789,2,0,L|300:196,1,125.999996154785
103,246,192095,6,0,L|89:107,1,125.999996154785
77,6,192401,1,0,0:0:0:0:
77,6,192554,1,0,0:0:0:0:
221,277,192707,2,0,L|235:138,1,125.999996154785
247,37,193013,1,0,0:0:0:0:
247,37,193166,1,0,0:0:0:0:
94,286,193319,6,0,L|80:147,1,125.999996154785
63,19,193625,1,0,0:0:0:0:
63,19,193778,1,0,0:0:0:0:
231,327,193931,2,0,L|245:188,1,125.999996154785
260,50,194237,1,0,0:0:0:0:
260,50,194390,1,0,0:0:0:0:
343,240,194544,6,0,B|351:300|336:357|336:357|371:348|401:359|401:359|425:291|408:199|394:166|394:166|332:184|268:162,1,504
256,192,196840,12,0,199748,0:0:0:0:
