osu file format v14

[General]
AudioFilename: audio.mp3
AudioLeadIn: 0
PreviewTime: 30765
Countdown: 0
SampleSet: Normal
StackLeniency: 0.7
Mode: 0
LetterboxInBreaks: 0
WidescreenStoryboard: 0

[Editor]
DistanceSpacing: 0.5
BeatDivisor: 4
GridSize: 8
TimelineZoom: 1.3

[Metadata]
Title:Prayer of the Refugee
TitleUnicode:Prayer of the Refugee
Artist:Rise Against
ArtistUnicode:Rise Against
Creator:NotABox
Version:Protest
Source:
Tags:
BeatmapID:2067589
BeatmapSetID:988389

[Difficulty]
HPDrainRate:5
CircleSize:4.2
OverallDifficulty:9
ApproachRate:9.2
SliderMultiplier:1.4
SliderTickRate:1

[Events]
//Background and Video events
0,0,"refugeez.jpg",0,0
//Break Periods
//Storyboard Layer 0 (Background)
//Storyboard Layer 1 (Fail)
//Storyboard Layer 2 (Pass)
//Storyboard Layer 3 (Foreground)
//Storyboard Sound Samples

[TimingPoints]
6890,398.671096345515,4,1,0,100,1,0
16757,-100,4,1,0,5,0,0
16856,-100,4,1,0,100,0,0
19647,397.088021178028,4,1,0,100,1,0
19647,-83.3333333333333,4,1,0,100,0,0
21533,-83.3333333333333,4,1,0,5,0,0
21632,-83.3333333333333,4,1,0,100,0,0
28283,-83.3333333333333,4,1,0,5,0,0
28382,-83.3333333333333,4,1,0,100,0,0
31063,-62.5,4,1,0,100,0,0
31956,306.122448979592,4,1,0,100,1,1
31956,-58.8235294117647,4,1,0,100,0,1
32797,-58.8235294117647,4,1,0,5,0,1
32874,-58.8235294117647,4,1,0,100,0,1
37389,-58.8235294117647,4,1,0,5,0,1
37466,-58.8235294117647,4,1,0,100,0,1
39302,-50,4,1,0,100,0,1
40527,-66.6666666666667,4,1,0,100,0,0
41751,-58.8235294117647,4,1,0,100,0,1
47797,-58.8235294117647,4,1,0,5,0,1
47874,-58.8235294117647,4,1,0,100,0,1
49098,-50,4,1,0,100,0,1
50629,-66.6666666666667,4,1,0,100,0,1
51547,-71.4285714285714,4,1,0,100,0,0
58894,-62.5,4,1,0,100,0,0
61343,-50,4,1,0,100,0,1
71139,-83.3333333333333,4,1,0,100,0,0

[Colours]
Combo1 : 107,107,107
Combo2 : 255,72,72
Combo3 : 255,181,26
Combo4 : 178,178,178

[HitObjects]
468,275,6291,38,8,L|464:227,1,35
455,120,6491,1,0,0:0:0:0:
370,327,6690,1,0,0:0:0:0:
283,253,6889,6,0,P|204:226|141:241,1,140
59,124,7488,1,0,0:0:0:0:
59,124,7687,2,0,P|138:151|201:136,1,140
135,50,8285,1,0,0:0:0:0:
197,224,8484,37,0,0:0:0:0:
275,44,8684,1,0,0:0:0:0:
166,132,8883,2,8,B|157:231,1,70
151,301,9282,1,0,0:0:0:0:
84,160,9481,1,0,0:0:0:0:
252,241,9680,1,0,0:0:0:0:
78,264,9880,1,0,0:0:0:0:
311,189,10079,5,0,0:0:0:0:
311,189,10278,2,0,L|319:281,1,70
292,333,10677,2,0,P|368:291|438:310,2,140
374,377,11674,2,8,B|380:307,1,70
390,194,12072,1,0,0:0:0:0:
473,343,12272,1,0,0:0:0:0:
238,278,12471,37,0,0:0:0:0:
508,213,12670,1,0,0:0:0:0:
508,213,13069,5,0,0:0:0:0:
238,278,13268,2,0,P|177:258|133:187,1,140
230,111,13866,1,0,0:0:0:0:
230,111,14066,2,0,P|231:162|224:189,1,70
296,290,14464,2,0,P|293:255|299:220,1,70
364,79,14863,37,0,0:0:0:0:
394,253,15062,1,0,0:0:0:0:
259,110,15262,2,8,B|329:104,1,70
443,89,15660,1,0,0:0:0:0:
212,40,15860,1,0,0:0:0:0:
369,218,16059,2,0,P|370:183|359:150,1,70
205,158,16458,6,0,B|233:190|233:190|309:196,1,105
329,198,16856,1,0,0:0:0:0:
206,80,17056,2,0,P|164:92|130:181,2,140
84,62,18052,37,0,0:0:0:0:
272,14,18252,1,0,0:0:0:0:
138,251,18451,2,0,P|97:244|67:223,1,70
161,24,18850,21,0,0:0:0:0:
265,296,19049,1,0,0:0:0:0:
265,70,19248,5,0,0:0:0:0:
156,350,19448,1,0,0:0:0:0:
46,175,19647,6,0,B|118:171|118:171|142:145|142:145|218:139,1,167.999994873047
296,134,20242,1,0,0:0:0:0:
74,100,20441,1,0,0:0:0:0:
182,217,20639,1,0,0:0:0:0:
154,47,20838,1,0,0:0:0:0:
58,255,21036,1,0,0:0:0:0:
238,165,21235,6,0,B|199:133|199:133|111:142,1,125.999996154785,0|0,0:3|0:3,0:3:0:0:
82,147,21632,1,0,0:0:0:0:
281,79,21830,1,0,0:0:0:0:
248,252,22029,2,0,P|207:245|173:222,1,83.9999974365235
237,331,22426,1,0,0:0:0:0:
295,128,22625,1,0,0:0:0:0:
355,277,22823,37,0,0:0:0:0:
176,137,23022,2,0,P|213:119|254:118,1,83.9999974365235
433,161,23419,1,0,0:0:0:0:
232,192,23617,1,0,0:0:0:0:
419,51,23816,2,0,B|411:147,1,83.9999974365235
401,282,24213,1,0,0:0:0:0:
288,153,24412,6,0,P|225:138|187:149,1,83.9999974365235
312,47,24809,1,0,0:0:0:0:
233,221,25007,1,0,0:0:0:0:
139,86,25206,5,0,0:0:0:0:
404,161,25404,1,0,0:0:0:0:
64,202,25603,5,0,0:0:0:0:
359,64,25801,1,0,0:0:0:0:
221,307,26000,6,0,B|202:280|202:280|209:213,1,83.9999974365235,0|0,0:3|0:3,0:3:0:0:
221,78,26397,1,0,0:0:0:0:
280,256,26596,1,0,0:0:0:0:
117,140,26794,1,0,0:0:0:0:
340,182,26993,1,0,0:0:0:0:
165,257,27191,1,0,0:0:0:0:
301,99,27390,1,0,0:0:0:0:
204,327,27588,6,0,P|147:332|110:313,1,83.9999974365235
46,369,27985,2,0,P|85:259|74:229,1,125.999996154785
65,217,28382,1,0,0:0:0:0:
148,357,28581,1,0,0:0:0:0:
178,168,28780,1,0,0:0:0:0:
8,291,28978,1,0,0:0:0:0:
180,337,29177,38,0,B|173:253,1,83.9999974365235
159,122,29574,1,0,0:0:0:0:
261,282,29772,1,0,0:0:0:0:
86,212,29971,1,0,0:0:0:0:
292,153,30169,6,0,P|319:155|349:166,1,41.9999987182618
296,230,30368,1,0,0:0:0:0:
255,220,30467,1,0,0:0:0:0:
226,191,30566,1,0,0:0:0:0:
215,151,30665,1,0,0:0:0:0:
226,111,30765,37,0,0:0:0:0:
292,153,31063,6,0,B|227:157|227:157|203:183|203:183|129:188,2,168
61,195,31956,5,0,0:0:0:0:
268,228,32109,1,0,0:0:0:0:
202,5,32262,2,0,B|172:40|172:40|167:112,1,119.000002269745,0|0,0:3|0:3,0:3:0:0:
334,287,32568,2,0,P|351:206|274:138,1,178.500003404617
259,140,32874,1,0,0:0:0:0:
436,312,33027,1,0,0:0:0:0:
432,28,33180,6,0,B|422:155,1,119.000002269745
322,361,33486,2,0,B|311:234,1,119.000002269745
294,102,33792,37,0,0:0:0:0:
200,314,33945,1,0,0:0:0:0:
168,47,34098,5,0,0:0:0:0:
344,275,34251,1,0,0:0:0:0:
90,122,34404,38,0,P|152:87|214:94,1,119.000002269745
376,191,34711,1,0,0:0:0:0:
168,165,34864,1,0,0:0:0:0:
412,39,35017,2,0,B|402:166,1,119.000002269745
445,312,35323,2,8,B|414:276|414:276|334:283,1,119.000002269745,8|8,0:3|0:3,0:3:0:0:
230,301,35629,5,0,0:0:0:0:
488,245,35782,1,0,0:0:0:0:
170,367,35935,2,0,P|143:310|161:245,1,119.000002269745
281,87,36241,37,0,0:0:0:0:
230,301,36394,1,0,0:0:0:0:
358,33,36547,5,0,0:0:0:0:
403,271,36700,1,0,0:0:0:0:
168,137,36853,38,8,B|211:108|211:108|291:115,1,119.000002269745,8|8,0:3|0:3,0:3:0:0:
94,80,37160,2,0,P|92:192|150:234,1,178.500003404617
166,236,37466,1,0,0:0:0:0:
0,156,37619,1,0,0:0:0:0:
262,194,37772,2,0,P|262:274|225:319,1,119.000002269745
350,233,38078,6,0,B|477:223,1,119.000002269745
184,163,38384,2,0,B|57:153,1,119.000002269745
353,112,38690,1,0,0:0:0:0:
222,247,38843,1,0,0:0:0:0:
357,30,38996,2,0,P|415:62|436:117,1,119.000002269745
200,28,39302,37,0,0:0:0:0:
414,313,39456,1,0,0:0:0:0:
144,147,39609,6,0,B|88:140|88:140|64:159|64:159|1:152,1,140
121,269,39915,37,0,0:0:0:0:
468,166,40068,1,0,0:0:0:0:
241,365,40221,6,0,P|213:303|229:223,1,140
413,67,40527,37,0,0:0:0:0:
308,293,40680,1,0,0:0:0:0:
308,293,40757,1,0,0:0:0:0:
308,293,40833,2,0,L|249:288,3,52.5000020027161
67,213,41139,2,0,L|125:208,3,52.5000020027161
183,135,41445,5,0,0:0:0:0:
208,180,41521,1,0,0:0:0:0:
207,232,41598,1,0,0:0:0:0:
182,277,41674,1,0,0:0:0:0:
138,305,41751,37,0,0:0:0:0:
28,109,41904,1,0,0:0:0:0:
284,210,42058,2,0,P|359:201|393:150,1,119.000002269745
458,51,42364,1,0,0:0:0:0:
444,278,42517,1,0,0:0:0:0:
313,138,42670,2,8,B|276:114|276:114|196:121,1,119.000002269745,8|8,0:3|0:3,0:3:0:0:
64,56,42976,6,0,P|83:139|64:185,1,119.000002269745
258,311,43282,2,0,P|239:228|258:182,1,119.000002269745
434,30,43588,37,0,0:0:0:0:
317,245,43741,1,0,0:0:0:0:
308,72,43894,5,0,0:0:0:0:
433,317,44047,1,0,0:0:0:0:
506,124,44200,38,0,B|387:133,1,119.000002269745
238,144,44507,1,0,0:0:0:0:
475,216,44660,1,0,0:0:0:0:
189,70,44813,2,0,P|152:125|157:186,1,119.000002269745
297,44,45119,2,0,B|178:34,1,119.000002269745
81,21,45425,5,0,0:0:0:0:
245,179,45578,1,0,0:0:0:0:
112,331,45731,2,8,B|88:294|88:294|95:214,1,119.000002269745,8|8,0:3|0:3,0:3:0:0:
102,45,46037,37,0,0:0:0:0:
169,273,46190,1,0,0:0:0:0:
201,116,46343,5,0,0:0:0:0:
58,333,46496,1,0,0:0:0:0:
271,227,46649,38,0,P|328:217|385:240,1,119.000002269745
193,341,46956,2,0,B|183:223,1,119.000002269745
174,121,47262,1,0,0:0:0:0:
317,299,47415,1,0,0:0:0:0:
255,75,47568,2,0,P|181:34|94:73,1,178.500003404617
42,10,47874,6,8,B|66:47|66:47|59:127,1,119.000002269745,8|8,3:3|3:3,3:3:0:0:
174,121,48180,2,8,B|149:158|149:158|156:238,1,119.000002269745,8|8,3:3|3:3,3:3:0:0:
169,312,48486,1,0,0:0:0:0:
99,91,48639,1,0,0:0:0:0:
329,132,48792,2,0,P|286:172|229:186,1,119.000002269745
319,9,49098,37,0,0:0:0:0:
215,336,49251,1,0,0:0:0:0:
104,112,49404,6,0,B|243:100,1,140
425,76,49711,37,0,0:0:0:0:
135,280,49864,1,0,0:0:0:0:
326,0,50017,6,0,B|319:53|319:53|337:76|337:76|330:137,1,140
301,352,50323,37,0,0:0:0:0:
69,71,50476,1,0,0:0:0:0:
404,180,50629,6,0,P|368:210|285:204,1,105.000004005432
482,245,50935,1,0,0:0:0:0:
330,131,51088,37,0,0:0:0:0:
279,134,51164,1,0,0:0:0:0:
237,165,51241,1,0,0:0:0:0:
220,214,51317,1,0,0:0:0:0:
234,264,51394,1,0,0:0:0:0:
273,297,51470,1,0,0:0:0:0:
324,304,51547,22,0,P|380:268|396:225,1,97.9999970092774
330,131,51853,1,0,0:0:0:0:
396,360,52007,1,0,0:0:0:0:
311,215,52160,2,0,B|276:196|276:196|205:203,1,97.9999970092774,0|0,3:3|3:3,3:3:0:0:
109,114,52466,2,0,B|144:133|144:133|215:126,1,97.9999970092774,0|0,3:3|3:3,3:3:0:0:
159,51,52772,5,0,0:0:0:0:
261,278,52925,1,0,0:0:0:0:
330,112,53078,2,0,P|374:82|448:89,1,97.9999970092774
296,40,53384,1,0,0:0:0:0:
397,160,53537,2,0,B|405:257,2,97.9999970092774
429,41,53996,37,0,0:0:0:0:
306,215,54149,2,0,P|230:233|201:222,1,97.9999970092774
326,293,54456,1,0,0:0:0:0:
249,156,54609,1,0,0:0:0:0:
153,314,54762,2,0,B|250:322,1,97.9999970092774
396,333,55068,1,0,0:0:0:0:
182,209,55221,5,0,0:0:0:0:
281,346,55374,1,0,0:0:0:0:
250,141,55527,2,0,P|207:118|158:117,1,97.9999970092774
85,228,55833,2,0,P|126:202|150:160,1,97.9999970092774
92,41,56139,2,0,P|93:89|117:131,1,97.9999970092774
171,69,56445,37,0,0:0:0:0:
66,193,56598,2,0,B|98:212|98:212|169:205,1,97.9999970092774,0|0,3:3|3:3,3:3:0:0:
254,194,56904,1,0,0:0:0:0:
43,268,57058,1,0,0:0:0:0:
232,334,57211,2,0,B|240:237,1,97.9999970092774
250,107,57517,1,0,0:0:0:0:
321,292,57670,5,0,0:0:0:0:
196,169,57823,2,0,P|139:154|89:170,1,97.9999970092774
34,217,58129,1,0,0:0:0:0:
221,93,58282,1,0,0:0:0:0:
137,330,58435,2,0,B|145:233,1,97.9999970092774
162,137,58741,1,0,0:0:0:0:
162,137,58818,1,0,0:0:0:0:
162,137,58894,5,0,0:0:0:0:
248,354,59047,1,0,0:0:0:0:
323,107,59200,22,0,B|293:81|293:81|218:75,1,112,0|0,3:3|3:3,3:3:0:0:
125,72,59507,37,0,0:0:0:0:
406,22,59660,1,0,0:0:0:0:
115,159,59813,6,0,P|66:132|43:82,1,112
56,222,60119,1,0,0:0:0:0:
126,24,60272,5,0,0:0:0:0:
126,24,60348,1,0,0:0:0:0:
126,24,60425,2,0,L|122:82,3,56
201,90,60731,2,0,L|206:146,3,56
100,198,61037,2,0,L|96:254,3,56
243,324,61343,5,0,0:0:0:0:
130,66,61496,1,0,0:0:0:0:
126,364,61649,5,0,0:0:0:0:
248,51,61802,1,0,0:0:0:0:
259,337,61956,37,0,0:0:0:0:
111,77,62109,1,0,0:0:0:0:
112,358,62262,5,0,0:0:0:0:
268,50,62415,1,0,0:0:0:0:
356,301,62568,37,0,0:0:0:0:
36,216,62721,1,0,0:0:0:0:
383,152,62874,5,0,0:0:0:0:
84,320,63027,1,0,0:0:0:0:
346,316,63180,37,0,0:0:0:0:
53,194,63333,1,0,0:0:0:0:
375,128,63486,5,0,0:0:0:0:
96,339,63639,1,0,0:0:0:0:
227,31,63792,37,0,0:0:0:0:
369,334,63945,1,0,0:0:0:0:
399,57,64098,5,0,0:0:0:0:
238,376,64251,1,0,0:0:0:0:
247,28,64405,37,0,0:0:0:0:
369,350,64558,1,0,0:0:0:0:
424,62,64711,5,0,0:0:0:0:
217,364,64864,1,0,0:0:0:0:
75,144,65017,37,0,0:0:0:0:
428,197,65170,1,0,0:0:0:0:
76,303,65323,6,0,B|49:241|49:241|55:169,1,140
248,139,65629,2,0,B|208:192|208:192|142:223,1,140
20,73,65935,2,0,B|86:80|86:80|145:121,1,140
256,288,66241,37,0,0:0:0:0:
355,57,66394,1,0,0:0:0:0:
256,304,66547,5,0,0:0:0:0:
153,76,66700,1,0,0:0:0:0:
256,320,66853,37,0,0:0:0:0:
289,35,67007,1,0,0:0:0:0:
256,336,67160,5,0,0:0:0:0:
199,13,67313,1,0,0:0:0:0:
54,303,67466,37,0,0:0:0:0:
372,128,67619,1,0,0:0:0:0:
62,173,67772,5,0,3:0:0:0:
432,267,67925,1,0,3:0:0:0:
57,188,68078,37,0,3:0:0:0:
435,250,68231,1,0,3:0:0:0:
57,205,68384,5,0,3:0:0:0:
436,234,68537,1,0,3:0:0:0:
175,29,68690,37,0,0:0:0:0:
137,348,68843,1,0,0:0:0:0:
324,22,68996,5,0,0:0:0:0:
365,357,69149,1,0,0:0:0:0:
188,24,69302,37,0,0:0:0:0:
130,370,69455,1,0,0:0:0:0:
312,29,69608,5,0,0:0:0:0:
374,371,69761,1,0,0:0:0:0:
30,257,69915,37,0,0:0:0:0:
474,132,70068,1,0,0:0:0:0:
49,104,70221,5,0,0:0:0:0:
471,257,70374,1,0,0:0:0:0:
42,244,70527,37,0,0:0:0:0:
483,115,70680,1,0,0:0:0:0:
37,118,70833,5,0,0:0:0:0:
488,248,70986,1,0,0:0:0:0:
104,349,71139,37,0,0:0:0:0:
