osu file format v14

[General]
AudioFilename: Rise Against - Making Christmas.mp3
AudioLeadIn: 0
PreviewTime: 80325
Countdown: 0
SampleSet: Soft
StackLeniency: 0.7
Mode: 0
LetterboxInBreaks: 0
WidescreenStoryboard: 0

[Editor]
Bookmarks: 45935,60203
DistanceSpacing: 0.9
BeatDivisor: 4
GridSize: 4
TimelineZoom: 1.44

[Metadata]
Title:Making Christmas
TitleUnicode:Making Christmas
Artist:Rise Against
ArtistUnicode:Rise Against
Creator:BOUYAAA
Version:Normal
Source:
Tags:The Nightmare Revisited pishifat the nightmare before christmas
BeatmapID:750809
BeatmapSetID:247165

[Difficulty]
HPDrainRate:4
CircleSize:3
OverallDifficulty:4.5
ApproachRate:5
SliderMultiplier:1.2
SliderTickRate:2

[Events]
//Background and Video events
0,0,"Nightmare Revisited.png",0,0
//Break Periods
2,64795,66688
//Storyboard Layer 0 (Background)
//Storyboard Layer 1 (Fail)
//Storyboard Layer 2 (Pass)
//Storyboard Layer 3 (Foreground)
//Storyboard Sound Samples

[TimingPoints]
1308,365.853658536585,4,2,2,60,1,0
7161,-100,4,2,2,50,0,0
8625,-100,4,2,2,40,0,0
8990,-100,4,2,2,50,0,0
9173,-100,4,2,2,55,0,0
9356,-100,4,2,2,60,0,0
9539,-100,4,2,2,65,0,0
9722,-100,4,2,2,70,0,0
10454,-100,4,2,2,60,0,0
29112,365.853658536585,3,2,2,60,1,0
31307,365.853658536585,4,2,2,60,1,0
41550,-100,4,2,2,40,0,0
41916,-100,4,2,2,45,0,0
42282,-100,4,2,2,50,0,0
42648,-100,4,2,2,55,0,0
43014,-100,4,2,2,60,0,0
43380,-100,4,2,2,65,0,0
43746,-100,4,2,2,70,0,0
44477,-100,4,2,2,60,0,0
48867,365.853658536585,3,2,2,60,1,0
49964,365.853658536585,4,2,2,60,1,0
53621,365.853658536585,4,2,2,60,1,0
56547,365.853658536585,3,2,2,60,1,0
58742,365.853658536585,4,2,2,60,1,0
66059,365.853658536585,3,2,2,60,1,0
71912,-100,3,2,2,50,0,0
73741,-100,3,2,2,60,0,0
75205,-100,3,2,2,50,0,0
77034,-100,3,2,2,60,0,0
78132,-100,3,2,2,70,0,0
80327,365.853658536585,4,2,2,60,1,0
80509,-100,4,2,3,40,0,0
80692,-100,4,2,2,60,0,0
80875,-100,4,2,3,40,0,0
81058,-100,4,2,2,60,0,0
82339,-100,4,2,3,40,0,0
82522,-100,4,2,2,60,0,0
83436,-100,4,2,3,40,0,0
83619,-100,4,2,2,60,0,0
84900,-100,4,2,3,40,0,0
85083,-100,4,2,2,60,0,0
86729,-100,4,2,3,40,0,0
86912,-100,4,2,2,60,0,0
87644,-100,4,2,2,70,0,0
87826,-100,4,2,3,50,0,0
88009,-100,4,2,2,70,0,0
88558,-100,4,2,3,50,0,0
88741,-100,4,2,2,70,0,0
89290,-100,4,2,3,50,0,0
89473,-100,4,2,2,70,0,0
90022,-100,4,2,3,50,0,0
90205,-100,4,2,2,70,0,0
90753,-100,4,2,3,50,0,0
90936,-100,4,2,2,70,0,0
91485,-100,4,2,3,50,0,0
91668,-100,4,2,2,70,0,0
92217,-100,4,2,3,50,0,0
92400,-100,4,2,2,70,0,0
93497,-100,4,2,2,70,0,0
94961,-100,4,2,2,60,0,1
95509,-100,4,2,3,40,0,1
95692,-100,4,2,2,60,0,1
96607,-100,4,2,3,40,0,1
96790,-100,4,2,2,60,0,1
97339,-100,4,2,3,40,0,1
97522,-100,4,2,2,60,0,1
98070,-100,4,2,3,40,0,1
98253,-100,4,2,2,60,0,1
98802,-100,4,2,3,40,0,1
98985,-100,4,2,2,60,0,1
100266,-100,4,2,3,40,0,1
100448,-100,4,2,2,60,0,1
100997,-100,4,2,3,40,0,1
101180,-100,4,2,2,60,0,1
101729,-100,4,2,3,40,0,1
101912,-100,4,2,2,60,0,1
102461,-100,4,2,3,40,0,1
102644,-100,4,2,2,60,0,1
103924,-100,4,2,3,40,0,1
104107,-100,4,2,2,60,0,1
104656,-100,4,2,3,40,0,1
104839,-100,4,2,2,60,0,1
105387,-100,4,2,3,40,0,1
105570,-100,4,2,2,60,0,1
106119,-100,4,2,3,40,0,1
106302,-100,4,2,2,60,0,0
108131,-100,4,2,2,70,0,1
108314,-100,4,2,3,50,0,1
108497,-100,4,2,2,70,0,1
109046,-100,4,2,3,50,0,1
109229,-100,4,2,2,70,0,1
109778,-100,4,2,3,50,0,1
109961,-100,4,2,2,70,0,1
110509,-100,4,2,3,50,0,1
110692,-100,4,2,2,70,0,1
111241,-100,4,2,3,50,0,1
111424,-100,4,2,2,70,0,1
111973,-100,4,2,3,50,0,1
112156,-100,4,2,2,70,0,1
112705,-100,4,2,3,50,0,1
112887,-100,4,2,2,70,0,1
113436,-100,4,2,3,50,0,1
113619,-100,4,2,2,70,0,1
113985,-100,4,2,2,60,0,0

[Colours]
Combo1 : 116,108,136
Combo2 : 170,64,64
Combo3 : 82,96,150
Combo4 : 196,141,87

[HitObjects]
216,72,4234,6,0,L|348:80,1,120,6|8,0:0|0:0,0:0:0:0:
400,168,4966,2,0,L|281:176,1,120,2|8,0:0|0:0,0:0:0:0:
172,188,5698,6,0,P|112:232|100:312,1,120,2|8,0:0|0:0,0:0:0:0:
176,348,6429,2,0,P|236:304|248:224,1,120,2|8,0:0|0:0,0:0:0:0:
264,156,7161,6,0,L|256:92,2,60,2|8|4,0:0|3:0|3:0,0:0:0:0:
352,216,7893,2,0,L|476:228,1,120,8|0,0:0|0:0,0:0:0:0:
488,280,8442,1,2,0:0:0:0:
484,332,8625,6,0,B|420:348|420:348|360:340,1,120,12|8,0:0|0:0,0:0:0:0:
312,328,9173,1,8,0:0:0:0:
260,324,9356,2,0,L|184:336,1,60,8|8,0:0|0:0,0:0:0:0:
148,332,9722,2,0,B|148:268|148:268|128:204,1,120,2|6,0:0|0:0,0:0:0:0:
56,136,10454,6,0,L|64:72,1,60,8|0,0:0|0:0,0:0:0:0:
72,24,10820,1,2,0:0:0:0:
172,68,11186,2,0,L|240:60,1,60,8|0,0:0|0:0,0:0:0:0:
284,56,11551,1,2,0:0:0:0:
320,160,11917,2,0,L|408:164,2,60,8|0|2,0:0|0:0|0:0,0:0:0:0:
216,204,12649,2,0,P|204:248|204:284,1,60,8|0,0:0|0:0,0:0:0:0:
196,316,13015,6,0,B|272:308|272:308|320:324,1,120,2|12,0:0|0:0,0:0:0:0:
408,268,13747,2,0,L|480:272,2,60,2|2|8,0:0|0:0|0:0,0:0:0:0:
312,220,14478,6,0,B|304:160|304:160|316:92,1,120,2|8,0:0|0:0,0:0:0:0:
288,56,15027,1,0,0:0:0:0:
240,32,15210,2,0,P|176:32|120:88,1,120,2|8,0:0|0:0,0:0:0:0:
100,168,15942,6,0,L|104:296,1,120,2|8,0:0|0:0,0:0:0:0:
120,340,16490,1,0,0:0:0:0:
172,348,16673,2,0,B|240:340|240:340|308:352,1,120,2|8,0:0|0:0,0:0:0:0:
368,272,17405,6,0,L|360:208,2,60,2|2|8,0:0|0:0|0:0,0:0:0:0:
468,228,18137,2,0,L|472:164,1,60,2|2,0:0|0:0,0:0:0:0:
476,116,18503,1,8,0:0:0:0:
368,100,18868,6,0,L|376:24,2,60,2|2|8,0:0|0:0|0:0,0:0:0:0:
332,140,19417,1,0,0:0:0:0:
300,184,19600,2,0,L|312:260,2,60,2|2|8,0:0|0:0|0:0,0:0:0:0:
220,112,20332,6,0,P|144:104|80:136,1,120,2|8,0:0|0:0,0:0:0:0:
76,164,20881,1,0,0:0:0:0:
64,216,21064,2,0,B|76:288|76:288|64:360,1,120,2|8,0:0|0:0,0:0:0:0:
176,352,21795,6,0,L|304:364,1,120,2|8,0:0|0:0,0:0:0:0:
348,268,22527,2,0,L|476:280,1,120,2|8,0:0|0:0,0:0:0:0:
488,172,23259,6,0,L|480:104,1,60,2|2,0:0|0:0,0:0:0:0:
448,68,23625,2,0,B|408:72|408:72|380:88|380:88|316:96,1,120,12|2,0:0|0:0,0:0:0:0:
236,140,24356,2,0,L|168:132,1,60,8|0,0:0|0:0,0:0:0:0:
132,104,24722,6,0,P|64:112|24:184,1,120,2|8,0:0|0:0,0:0:0:0:
20,200,25271,1,2,0:0:0:0:
28,252,25454,2,0,B|48:288|56:324|56:324|108:328,1,120,2|8,0:0|0:0,0:0:0:0:
208,336,26186,6,0,B|268:348|268:348|328:336,1,120,2|8,0:0|0:0,0:0:0:0:
372,308,26734,1,2,0:0:0:0:
428,308,26917,2,0,L|436:168,1,120,2|8,0:0|0:0,0:0:0:0:
420,80,27649,6,0,L|348:84,1,60,2|2,0:0|0:0,0:0:0:0:
312,108,28015,2,0,L|172:96,1,120,8|2,0:0|0:0,0:0:0:0:
100,156,28747,6,0,L|104:288,1,120,12|4,0:0|0:0,0:0:0:0:
184,348,29477,1,12,0:0:0:0:
284,308,29843,1,4,0:0:0:0:
384,352,30209,2,0,B|404:300|404:300|384:216|384:216|416:168|408:112,1,240,0|0,1:0|1:0,0:0:0:0:
312,68,31307,5,2,0:0:0:0:
208,100,31672,1,8,0:0:0:0:
108,64,32038,2,0,L|92:192,1,120,8|8,0:0|0:0,0:0:0:0:
40,276,32770,1,8,0:0:0:0:
108,360,33136,1,8,0:0:0:0:
208,312,33502,2,0,L|200:184,1,120,8|8,0:0|0:0,0:0:0:0:
280,120,34233,6,0,B|320:116|320:116|364:120,1,60,14|2,0:0|0:0,0:0:0:0:
388,140,34599,2,0,L|384:276,1,120,8|2,0:0|0:0,0:0:0:0:
300,328,35331,1,4,3:0:0:0:
196,304,35697,6,0,L|48:312,1,120,6|8,0:0|0:0,0:0:0:0:
108,208,36428,2,0,L|244:216,1,120,2|8,0:0|0:0,0:0:0:0:
328,256,37160,6,0,L|392:248,1,60,2|0,0:0|0:0,0:0:0:0:
440,240,37526,1,8,0:0:0:0:
460,132,37892,2,0,P|416:108|324:128,1,120,2|8,0:0|0:0,0:0:0:0:
252,164,38624,6,0,B|244:196|244:196|220:228|220:228|208:288,1,120,2|8,0:0|0:0,0:0:0:0:
228,324,39172,1,0,0:0:0:0:
276,344,39355,2,0,L|432:352,1,120,2|8,0:0|0:0,0:0:0:0:
472,272,40087,6,0,B|484:224|484:224|472:140,1,120,2|8,0:0|0:0,0:0:0:0:
372,120,40819,2,0,L|364:184,1,60,2|2,0:0|0:0,0:0:0:0:
356,232,41185,1,8,0:0:0:0:
280,312,41550,6,0,B|236:316|236:316|200:312|200:312|136:316,1,120,6|6,0:0|0:0,0:0:0:0:
116,216,42282,6,0,B|160:220|160:220|196:216|196:216|235:218,1,120,6|6,0:0|0:0,0:0:0:0:
276,120,43014,6,0,B|232:124|232:124|196:120|196:120|132:124,1,120,6|6,0:0|0:0,0:0:0:0:
56,160,43746,6,0,P|52:100|208:36,1,240,6|8,0:0|0:3,0:0:0:0:
284,84,44843,1,8,0:3:0:0:
376,32,45209,1,8,0:0:0:0:
468,88,45575,1,8,0:3:0:0:
480,196,45941,6,0,L|468:348,1,120,4|0,0:0|0:0,0:0:0:0:
372,356,46672,2,0,L|362:236,1,120,0|0,0:0|0:0,0:0:0:0:
292,152,47404,1,0,0:0:0:0:
184,168,47770,1,0,0:0:0:0:
76,188,48136,2,0,P|64:260|88:320,1,120,0|0,0:0|0:0,0:0:0:0:
172,356,48867,6,0,L|244:352,1,60,2|0,0:0|0:0,0:0:0:0:
284,332,49232,2,0,L|360:340,2,60
212,252,49964,6,0,P|212:192|260:124,1,120,2|0,0:0|0:0,0:0:0:0:
344,104,50695,2,0,L|480:112,1,120,0|0,0:0|0:0,0:0:0:0:
424,212,51427,2,0,L|296:220,1,120
224,292,52159,2,0,L|92:296,1,120,0|0,0:0|0:0,0:0:0:0:
32,216,52890,6,0,B|40:184|40:184|44:136,1,60,8|8,0:0|0:0,0:0:0:0:
64,108,53256,2,0,P|116:92|184:112,1,120,4|0,0:0|0:0,0:0:0:0:
272,164,53986,2,0,P|329:180|386:164,1,120,0|0,0:0|0:0,0:0:0:0:
328,72,54718,1,0,0:0:0:0:
220,84,55084,6,0,P|184:124|180:152,1,60,0|0,0:0|0:0,0:0:0:0:
152,172,55450,2,0,B|80:164|80:164|20:180,1,120,4|0,3:0|0:0,0:0:0:0:
4,280,56181,5,0,0:0:0:0:
92,340,56547,2,0,L|236:352,1,120
308,300,57278,1,0,0:0:0:0:
412,336,57644,2,0,P|464:288|432:128,1,240
336,104,58742,6,0,L|268:112,1,60,2|2,0:0|0:0,0:0:0:0:
224,120,59107,1,4,0:0:0:0:
120,96,59473,2,0,L|108:176,1,60,8|8,0:0|0:0,0:0:0:0:
100,208,59839,1,4,0:0:0:0:
156,300,60205,6,0,P|200:300|228:288,1,60,4|4,3:0|3:0,0:0:0:0:
260,268,60571,2,0,P|292:260|328:268,1,60,8|8,3:0|3:0,0:0:0:0:
368,284,60937,2,0,L|364:352,2,60,8|8|4,0:0|0:0|0:0,0:0:0:0:
468,248,61668,6,0,L|456:124,1,120,6|2,0:0|0:0,0:0:0:0:
396,40,62400,2,0,B|352:28|352:28|240:48,1,120,8|2,0:0|0:0,0:0:0:0:
204,120,63132,2,0,L|40:112,1,120,2|2,0:0|0:0,0:0:0:0:
52,216,63863,2,0,L|216:208,1,120,8|2,0:0|0:0,0:0:0:0:
272,248,64595,5,4,0:0:0:0:
376,76,67888,6,0,L|364:140,1,60,2|2,0:0|0:0,0:0:0:0:
384,188,68254,2,0,B|392:240|392:240|384:344,1,120,6|2,0:0|0:0,0:0:0:0:
284,336,68985,6,0,L|216:344,1,60
172,356,69351,2,0,L|36:340,1,120,2|2,0:0|0:0,0:0:0:0:
8,244,70083,6,0,L|76:236,1,60,2|0,0:0|0:0,0:0:0:0:
120,220,70449,2,0,P|204:272|276:264,1,120,2|2,0:0|0:0,0:0:0:0:
328,248,71180,2,0,L|336:180,1,60,2|0,0:0|0:0,0:0:0:0:
340,136,71546,1,6,0:0:0:0:
448,120,71912,6,0,L|452:260,1,120,8|4,3:0|3:0,0:0:0:0:
404,336,72644,2,0,P|352:352|264:320,1,120,4|4,3:0|3:0,0:0:0:0:
220,256,73376,1,4,3:0:0:0:
300,184,73741,6,0,P|316:124|296:64,1,120,6|2,0:0|0:0,0:0:0:0:
256,40,74290,2,0,B|184:28|184:28|128:40,1,120,0|0,0:0|0:0,0:0:0:0:
96,72,74839,1,4,0:0:0:0:
76,180,75205,6,0,L|84:316,1,120,8|8,3:0|3:0,0:0:0:0:
180,352,75937,2,0,L|200:220,1,120,4|4,3:0|3:0,0:0:0:0:
244,136,76668,1,4,3:0:0:0:
336,80,77034,6,0,P|396:88|452:176,1,120,6|0,0:0|0:0,0:0:0:0:
444,180,77583,2,0,B|428:244|428:244|440:328,1,120,0|0,0:0|0:0,0:0:0:0:
416,348,78132,6,0,L|344:352,1,60,8|4,0:0|3:0,0:0:0:0:
300,356,78498,1,8,3:0:0:0:
316,248,78863,2,0,L|324:164,1,60,8|4,3:0|3:0,0:0:0:0:
328,136,79229,1,8,0:0:0:0:
224,164,79595,2,0,L|132:160,1,60,8|4,0:0|3:0,0:0:0:0:
108,160,79961,1,8,0:0:0:0:
24,228,80327,6,0,P|68:316|240:296,1,240,6|2,0:0|0:0,0:0:0:0:
292,276,81424,1,2,0:0:0:0:
380,336,81790,2,0,L|452:328,1,60,2|8,0:0|0:0,0:0:0:0:
484,300,82156,2,0,B|496:228|496:228|468:152,1,120,2|2,0:0|0:0,0:0:0:0:
404,108,82887,2,0,L|412:48,1,60,2|8,0:0|0:0,0:0:0:0:
380,4,83253,6,0,L|240:12,1,120,6|2,0:0|0:0,0:0:0:0:
188,92,83985,1,2,0:0:0:0:
252,176,84351,2,0,P|256:236|248:256,1,60,2|8,0:0|0:0,0:0:0:0:
236,284,84717,6,0,B|160:296|160:296|84:280,1,120,2|2,0:0|0:0,0:0:0:0:
32,220,85448,1,2,0:0:0:0:
52,112,85814,1,2,0:0:0:0:
152,68,86180,6,0,L|164:148,1,60,2|8,0:0|0:0,0:0:0:0:
196,168,86546,2,0,P|188:228|188:296,1,120,2|2,0:0|3:0,0:0:0:0:
272,352,87278,1,8,0:0:0:0:
380,332,87644,6,0,P|388:276|384:192,1,120,6|2,0:0|0:0,0:0:0:0:
376,160,88192,1,8,0:0:0:0:
340,120,88375,2,0,B|272:104|272:104|216:116,1,120,2|2,0:0|0:0,0:0:0:0:
176,144,88924,1,8,0:0:0:0:
136,180,89107,6,0,L|0:192,1,120,6|2,0:0|0:0,0:0:0:0:
56,292,89839,2,0,L|192:304,1,120,2|2,0:0|0:0,0:0:0:0:
228,304,90387,1,8,0:0:0:0:
280,324,90570,6,0,P|336:348|404:328,1,120,4|2,0:0|0:0,0:0:0:0:
456,248,91302,2,0,L|464:124,1,120,2|2,0:0|0:0,0:0:0:0:
440,80,91851,1,8,0:0:0:0:
396,48,92034,6,0,B|320:36|320:36|244:52,1,120,6|2,0:0|0:0,0:0:0:0:
180,92,92766,1,4,3:0:0:0:
160,196,93131,1,4,3:0:0:0:
220,288,93497,6,0,P|372:296|416:108,1,360,4|8,3:0|0:0,0:0:0:0:
348,44,94961,6,0,L|276:48,1,60,6|8,0:0|0:0,0:0:0:0:
252,88,95326,2,0,L|132:76,1,120,2|2,0:0|0:0,0:0:0:0:
32,120,96058,6,0,P|12:156|12:196,1,60,2|8,0:0|0:0,0:0:0:0:
44,216,96424,2,0,L|176:212,1,120,2|2,0:0|0:0,0:0:0:0:
212,236,96973,1,8,0:0:0:0:
264,256,97156,2,0,B|336:240|336:240|412:256,1,120,2|2,0:0|0:0,0:0:0:0:
484,212,97887,6,0,P|500:148|472:84,1,120,2|2,0:0|0:0,0:0:0:0:
444,64,98436,1,8,0:0:0:0:
392,56,98619,2,0,L|228:64,1,120,2|2,0:0|0:0,0:0:0:0:
168,96,99351,6,0,L|156:172,1,60,2|8,0:0|0:0,0:0:0:0:
180,204,99717,2,0,L|192:288,1,60,2|8,0:0|0:0,0:0:0:0:
180,316,100083,2,0,P|116:336|64:308,1,120,8|8,0:0|0:0,0:0:0:0:
48,208,100814,6,0,L|56:80,1,120,6|2,0:0|0:0,0:0:0:0:
152,36,101546,2,0,L|159:155,1,120,2|2,0:0|0:0,0:0:0:0:
180,208,102095,1,8,0:0:0:0:
212,252,102278,6,0,P|276:272|348:236,1,120,2|2,0:0|0:0,0:0:0:0:
332,148,103009,2,0,P|332:120|356:84,1,60,2|8,0:0|0:0,0:0:0:0:
396,68,103375,2,0,P|424:68|460:92,1,60,2|12,0:0|0:0,0:0:0:0:
484,128,103741,6,0,B|472:184|472:184|488:288,1,120,2|2,0:0|0:0,0:0:0:0:
408,328,104473,2,0,L|260:344,1,120,2|2,0:0|0:0,0:0:0:0:
236,336,105022,1,8,0:0:0:0:
184,320,105205,6,0,P|160:264|192:196,1,120,2|2,0:0|0:0,0:0:0:0:
256,136,105936,2,0,P|260:64|228:16,1,120,2|8,0:0|3:0,0:0:0:0:
128,24,106668,1,4,3:0:0:0:
52,224,107400,6,0,B|172:212|172:212|252:240,1,180,8|4,3:0|3:0,0:0:0:0:
276,256,108131,6,0,P|356:276|408:256,1,120,6|2,0:0|0:0,0:0:0:0:
472,196,108863,2,0,P|484:136|460:68,1,120,2|2,0:0|0:0,0:0:0:0:
420,56,109412,1,8,0:0:0:0:
368,72,109595,6,0,B|316:80|316:80|216:68,1,120,2|2,0:0|0:0,0:0:0:0:
144,88,110326,2,0,L|128:224,1,120,2|2,0:0|0:0,0:0:0:0:
156,256,110875,1,8,0:0:0:0:
196,292,111058,6,0,B|272:288|272:288|332:296,1,120,2|2,0:0|0:0,0:0:0:0:
424,280,111790,2,0,P|444:220|420:160,1,120,2|2,0:0|0:0,0:0:0:0:
384,136,112339,1,8,0:0:0:0:
332,128,112522,6,0,L|204:140,1,120,2|2,0:0|0:0,0:0:0:0:
160,156,113070,1,8,0:0:0:0:
116,188,113253,2,0,P|92:268|108:312,1,120,2|2,0:0|0:0,0:0:0:0:
200,344,113985,5,6,0:0:0:0:
