osu file format v14

[General]
AudioFilename: Rise Against - Making Christmas.mp3
AudioLeadIn: 0
PreviewTime: 80325
Countdown: 0
SampleSet: Soft
StackLeniency: 0.7
Mode: 0
LetterboxInBreaks: 0
WidescreenStoryboard: 0

[Editor]
Bookmarks: 18861,20332,20881,21064,21429,40087
DistanceSpacing: 1
BeatDivisor: 4
GridSize: 4
TimelineZoom: 1.996

[Metadata]
Title:Making Christmas
TitleUnicode:Making Christmas
Artist:Rise Against
ArtistUnicode:Rise Against
Creator:BOUYAAA
Version:Nightmare
Source:
Tags:The Nightmare Revisited pishifat the nightmare before christmas
BeatmapID:709264
BeatmapSetID:247165

[Difficulty]
HPDrainRate:6.7
CircleSize:4
OverallDifficulty:8
ApproachRate:9
SliderMultiplier:1.8
SliderTickRate:2

[Events]
//Background and Video events
0,0,"Nightmare Revisited.png",0,0
//Break Periods
2,64795,67288
//Storyboard Layer 0 (Background)
//Storyboard Layer 1 (Fail)
//Storyboard Layer 2 (Pass)
//Storyboard Layer 3 (Foreground)
//Storyboard Sound Samples

[TimingPoints]
1308,365.853658536585,4,2,2,60,1,0
4234,-100,4,2,2,60,0,0
7344,-100,4,2,2,50,0,0
7893,-100,4,2,2,70,0,0
8625,-100,4,2,2,50,0,0
8807,-100,4,2,2,55,0,0
8990,-100,4,2,2,60,0,0
9173,-100,4,2,2,65,0,0
9356,-100,4,2,2,70,0,0
10454,-100,4,2,2,60,0,0
28747,-76.9230769230769,4,2,2,60,0,0
29112,365.853658536585,3,2,2,60,1,0
29112,-76.9230769230769,3,2,2,60,0,0
30209,-76.9230769230769,3,2,2,30,0,0
31307,365.853658536585,4,2,2,60,1,0
34233,-125,4,2,2,60,0,0
35697,-100,4,2,2,60,0,0
41550,-100,4,2,2,40,0,0
41916,-86.9565217391304,4,2,2,45,0,0
42282,-76.9230769230769,4,2,2,50,0,0
42648,-68.9655172413793,4,2,2,55,0,0
43014,-62.5,4,2,2,60,0,0
43380,-57.1428571428571,4,2,2,65,0,0
43746,-57.1428571428571,4,2,2,60,0,0
44294,-57.1428571428571,4,2,2,25,0,0
44477,-100,4,2,2,60,0,0
45941,-100,4,2,2,55,0,0
48867,365.853658536585,3,2,2,60,1,0
49964,365.853658536585,4,2,2,60,1,0
53621,365.853658536585,4,2,2,60,1,0
56181,-90.9090909090909,4,2,2,60,0,0
56547,365.853658536585,3,2,2,60,1,0
56547,-90.9090909090909,3,2,2,60,0,0
58742,365.853658536585,4,2,2,60,1,0
58742,-125,4,2,2,60,0,0
63772,-100,4,2,2,60,0,0
66059,365.853658536585,3,2,2,60,1,0
71546,-100,3,2,2,50,0,0
73741,-100,3,2,2,60,0,0
74839,-100,3,2,2,50,0,0
77034,-90.9090909090909,3,2,2,60,0,0
77583,-76.9230769230769,3,2,2,60,0,0
78132,-66.6666666666667,3,2,2,70,0,0
80327,365.853658536585,4,2,2,60,1,0
80327,-62.5,4,2,2,60,0,0
80875,-76.9230769230769,4,2,2,60,0,0
87644,-71.4285714285714,4,2,2,70,0,0
92766,-83.3333333333333,4,2,2,50,0,0
94961,-71.4285714285714,4,2,2,70,0,1
105205,-76.9230769230769,4,2,2,60,0,1
106119,-76.9230769230769,4,2,2,50,0,1
106668,-76.9230769230769,4,2,2,50,0,0
108131,-66.6666666666667,4,2,2,70,0,1
113985,-76.9230769230769,4,2,2,60,0,0

[Colours]
Combo1 : 116,108,136
Combo2 : 170,64,64
Combo3 : 82,96,150
Combo4 : 196,141,87

[HitObjects]
84,228,4234,6,0,P|113:276|140:344,1,90,4|0,0:0|0:0,0:0:0:0:
192,136,4600,2,0,P|204:100|200:28,1,90,8|0,0:0|0:0,0:0:0:0:
68,80,4966,1,2,0:0:0:0:
96,200,5149,1,2,0:0:0:0:
300,160,5332,2,0,L|196:152,1,90,8|0,0:0|0:0,0:0:0:0:
376,256,5698,6,0,B|384:304|384:304|392:384,1,90,2|0,0:0|0:0,0:0:0:0:
424,148,6064,2,0,B|436:104|436:104|424:36,1,90,8|0,0:0|0:0,0:0:0:0:
268,48,6429,1,2,0:0:0:0:
352,96,6612,1,2,0:0:0:0:
168,72,6795,2,0,P|120:68|64:68,1,90,8|0,0:0|0:0,0:0:0:0:
272,136,7161,6,0,L|292:232,1,90,6|8,0:0|3:0,0:0:0:0:
148,276,7527,2,0,P|152:232|176:176,1,90,4|4,3:0|3:0,3:0:0:0:
416,296,7893,2,0,B|336:312|336:312|216:280,1,180,8|0,0:0|0:0,0:0:0:0:
168,189,8442,1,2,0:0:0:0:
52,360,8625,5,12,0:0:0:0:
28,244,8807,1,8,0:0:0:0:
200,316,8990,5,8,0:0:0:0:
216,148,9173,1,8,0:0:0:0:
48,280,9356,5,8,0:0:0:0:
16,96,9539,1,8,0:0:0:0:
172,304,9722,6,0,B|228:312|228:312|288:296,1,90,2|0,0:0|0:0,0:0:0:0:
384,116,10088,2,0,P|296:112|196:140,1,180,6|0,0:0|0:0,0:0:0:0:
312,324,10637,5,0,0:0:0:0:
312,324,10820,2,0,B|359:317|359:317|423:290,1,90,2|2,0:0|0:0,0:0:0:0:
180,328,11186,2,0,L|72:336,1,90,8|0,0:0|0:0,0:0:0:0:
139,158,11551,5,2,0:0:0:0:
139,158,11734,1,0,0:0:0:0:
275,226,11917,2,0,L|387:238,1,90,8|0,0:0|0:0,0:0:0:0:
478,116,12283,1,2,0:0:0:0:
422,45,12466,1,2,0:0:0:0:
338,77,12649,2,0,B|294:77|294:77|234:89,1,90,8|0,0:0|0:0,0:0:0:0:
108,216,13015,6,0,L|100:312,1,90,2|0,0:0|0:0,0:0:0:0:
172,160,13381,2,0,P|184:88|120:8,1,180,12|2,0:0|0:0,0:0:0:0:
80,108,13929,1,2,0:0:0:0:
228,88,14112,2,0,L|328:100,1,90,8|0,0:0|0:0,0:0:0:0:
448,204,14478,6,0,P|444:280|416:320,1,90,2|0,0:0|0:0,0:0:0:0:
276,168,14844,2,0,P|343:133|392:137,1,90,8|0,0:0|0:0,0:0:0:0:
332,332,15210,2,0,P|268:290|247:246,1,90,2|2,0:0|0:0,0:0:0:0:
116,248,15576,2,0,P|72:257|35:283,1,90,8|0,0:0|0:0,0:0:0:0:
216,152,15942,6,0,P|229:109|225:64,1,90,2|2,0:0|0:0,0:0:0:0:
88,92,16307,1,8,0:0:0:0:
88,92,16490,1,0,0:0:0:0:
88,216,16673,6,0,P|120:272|180:296,1,90,2|2,0:0|0:0,0:0:0:0:
228,160,17039,1,8,0:0:0:0:
228,160,17222,1,0,0:0:0:0:
280,288,17405,6,0,L|400:296,1,90,2|2,0:0|0:0,0:0:0:0:
444,160,17771,2,0,L|354:165,1,90,8|0,0:0|0:0,0:0:0:0:
164,176,18137,1,2,0:0:0:0:
136,92,18320,1,2,0:0:0:0:
196,24,18503,2,0,L|288:28,1,90,8|0,0:0|0:0,0:0:0:0:
48,80,18868,6,0,B|24:116|24:116|8:164,1,90,2|2,0:0|0:0,0:0:0:0:
216,240,19234,1,12,0:0:0:0:
248,100,19417,1,0,0:0:0:0:
428,304,19600,6,0,L|300:312,1,90,2|2,0:0|0:0,0:0:0:0:
188,152,19966,1,12,0:0:0:0:
332,164,20149,1,0,0:0:0:0:
216,336,20332,6,0,P|136:368|48:332,1,180,2|8,0:0|0:0,0:0:0:0:
20,248,20881,1,0,0:0:0:0:
164,184,21064,2,0,L|276:196,1,90,2|2,0:0|0:0,0:0:0:0:
328,268,21429,2,0,P|348:312|348:384,1,90,8|0,0:0|0:0,0:0:0:0:
288,176,21795,6,0,B|294:98|294:98|316:68|316:68|325:-29,1,180,2|8,0:0|0:0,0:0:0:0:
216,28,22344,1,0,0:0:0:0:
444,84,22527,2,0,L|440:184,1,90,2|2,0:0|0:0,0:0:0:0:
320,292,22893,1,8,0:0:0:0:
304,168,23076,1,0,0:0:0:0:
440,224,23259,5,2,0:0:0:0:
292,328,23442,1,2,0:0:0:0:
168,204,23625,2,0,P|240:184|352:216,1,180,12|2,0:0|0:0,0:0:0:0:
404,272,24173,1,2,0:0:0:0:
292,328,24356,2,0,B|244:328|244:328|176:312,1,90,8|0,0:0|0:0,0:0:0:0:
292,84,24722,6,0,P|400:88|456:172,1,180,2|8,0:0|0:0,0:0:0:0:
396,244,25271,1,2,0:0:0:0:
220,160,25454,2,0,P|112:164|56:248,1,180,2|8,0:0|0:0,0:0:0:0:
88,320,26003,1,0,0:0:0:0:
272,256,26186,2,0,P|380:260|436:344,1,180,2|8,0:0|0:0,0:0:0:0:
320,364,26734,1,2,0:0:0:0:
188,216,26917,2,0,B|200:136|200:136|184:80|184:80|196:8,1,180,2|8,0:0|0:0,0:0:0:0:
308,8,27466,1,0,0:0:0:0:
408,168,27649,6,0,L|420:292,1,90,2|2,0:0|0:0,0:0:0:0:
316,333,28015,2,0,L|308:244,1,90,8|0,0:0|0:0,0:0:0:0:
204,172,28381,1,2,0:0:0:0:
192,280,28564,1,2,0:0:0:0:
324,224,28747,6,0,P|340:160|264:60,1,175.499991966248,12|0,0:0|2:0,0:0:0:0:
256,48,29112,6,0,P|192:32|91:108,1,175.499991966248,4|0,0:0|2:0,0:0:0:0:
84,120,29478,6,0,P|68:184|144:284,1,175.499991966248,12|0,0:0|2:0,0:0:0:0:
152,288,29844,6,0,P|216:304|316:228,1,175.499991966248,4|0,0:0|2:0,0:0:0:0:
316,224,30209,6,0,L|324:172,22,29.2499986610413,0|0|0|0|0|0|0|0|0|0|0|0|0|0|0|0|0|0|0|0|0|0|0,1:0|1:0|1:0|1:0|1:0|1:0|1:0|1:0|1:0|1:0|1:0|1:0|1:0|1:0|1:0|1:0|1:0|1:0|1:0|1:0|1:0|1:0|1:0,1:0:0:0:
305,250,31307,6,0,L|188:240,1,90,6|0,0:0|0:0,0:0:0:0:
80,344,31673,1,8,0:0:0:0:
204,328,31856,1,2,0:0:0:0:
128,220,32038,5,8,0:0:0:0:
296,236,32221,1,2,0:0:0:0:
28,148,32405,5,8,0:0:0:0:
228,124,32588,1,2,0:0:0:0:
24,252,32770,6,0,P|67:228|122:215,1,90,8|2,0:0|0:0,0:0:0:0:
236,244,33136,2,0,P|285:245|339:261,1,90,8|2,0:0|0:0,0:0:0:0:
468,96,33502,6,0,P|424:72|369:59,1,90,8|2,0:0|0:0,0:0:0:0:
256,88,33868,2,0,P|206:89|152:105,1,90,8|2,0:0|0:0,0:0:0:0:
36,336,34233,5,14,0:0:0:0:
80,168,34416,1,2,0:0:0:0:
208,336,34599,2,0,P|179:231|138:186,1,144,8|2,0:0|0:0,0:0:0:0:
80,168,35148,1,2,0:0:0:0:
48,360,35331,2,0,L|124:364,1,72,4|0,3:0|0:0,0:0:0:0:
288,320,35697,6,0,L|472:328,1,180,4|8,0:0|0:0,0:0:0:0:
436,188,36246,1,0,0:0:0:0:
276,248,36428,2,0,L|392:252,1,90,2|2,0:0|0:0,0:0:0:0:
420,108,36794,2,0,L|324:116,1,90,8|0,0:0|0:0,0:0:0:0:
112,140,37160,6,0,P|188:184|296:160,1,180,2|8,0:0|0:0,0:0:0:0:
212,60,37709,1,0,0:0:0:0:
112,232,37892,2,0,L|120:348,1,90,2|0,0:0|0:0,0:0:0:0:
244,272,38258,2,0,L|252:172,1,90,8|0,0:0|0:0,0:0:0:0:
420,88,38624,6,0,P|440:192|388:284,1,180,2|8,0:0|0:0,0:0:0:0:
336,328,39172,1,0,0:0:0:0:
176,288,39355,2,0,L|76:296,1,90,2|2,0:0|0:0,0:0:0:0:
336,328,39721,2,0,L|444:332,1,90,8|0,0:0|0:0,0:0:0:0:
232,196,40087,6,0,P|120:192|72:248,1,180,2|8,0:0|0:0,0:0:0:0:
176,288,40636,1,0,0:0:0:0:
268,176,40819,2,0,L|276:76,1,90,2|2,0:0|0:0,0:0:0:0:
120,40,41185,2,0,L|124:152,1,90,8|0,0:0|0:0,0:0:0:0:
140,277,41550,6,0,L|296:312,1,135,6|0,0:0|2:0,0:0:0:0:
296,272,41916,6,0,L|120:232,1,155.250002961159,6|0,0:0|2:0,0:0:0:0:
144,196,42283,6,0,L|336:240,1,175.499991966248,6|0,0:0|2:0,0:0:0:0:
340,200,42649,6,0,L|116:148,1,195.750005973816,6|0,0:0|2:0,0:0:0:0:
156,108,43015,6,0,L|416:172,1,216,6|0,0:0|2:0,0:0:0:0:
380,108,43380,6,0,P|280:40|152:68,1,236.250002253056,6|0,0:0|2:0,0:0:0:0:
112,136,43746,6,0,P|204:316|392:192,1,472.500004506111,6|0,0:0|0:0,0:0:0:0:
376,112,44478,5,8,0:3:0:0:
376,112,44600,2,0,L|370:36,1,60,8|8,0:3|0:0,0:0:0:0:
240,112,44844,1,8,0:3:0:0:
240,112,44966,2,0,L|232:200,1,60,8|8,0:0|0:3,0:0:0:0:
240,284,45210,1,8,0:0:0:0:
276,320,45331,1,8,0:3:0:0:
320,312,45454,1,8,0:3:0:0:
336,268,45576,1,8,0:3:0:0:
328,220,45698,1,8,0:3:0:0:
336,176,45820,1,8,0:3:0:0:
376,148,45941,6,0,L|476:160,1,90,4|0,0:0|0:0,0:0:0:0:
426,267,46306,2,0,L|325:268,1,90
184,224,46672,1,0,0:0:0:0:
96,244,46855,1,0,0:0:0:0:
120,332,47038,1,0,0:0:0:0:
208,312,47221,1,0,0:0:0:0:
336,196,47404,6,0,P|332:92|280:32,1,180
184,12,47953,1,0,0:0:0:0:
92,128,48136,2,0,L|80:260,1,90
208,264,48502,2,0,L|204:156,1,90
328,320,48867,5,2,0:0:0:0:
416,340,49049,1,0,0:0:0:0:
496,300,49232,2,0,B|508:256|508:256|500:196,2,90
416,340,49781,1,0,0:0:0:0:
240,240,49964,6,0,P|144:264|112:352,1,180,2|0,0:0|0:0,0:0:0:0:
224,352,50512,1,0,0:0:0:0:
400,280,50695,2,0,B|416:168,1,90
312,208,51061,2,0,B|328:96,1,90
132,60,51427,6,0,B|108:120|108:120|136:268,1,180
232,316,51976,1,0,0:0:0:0:
400,216,52159,2,0,L|284:228,1,90
332,128,52524,2,0,L|216:140,1,90
152,180,52799,5,8,0:0:0:0:
152,180,52890,2,0,L|48:192,1,90,8|8,0:0|0:0,0:0:0:0:
8,280,53256,2,0,P|24:348|60:372,1,90,4|0,0:0|0:0,0:0:0:0:
208,328,53621,6,0,P|296:296|408:332,1,180
456,356,54169,1,0,0:0:0:0:
280,224,54352,2,0,P|352:164|464:160,1,180
512,192,54901,1,0,0:0:0:0:
288,112,55084,6,0,P|308:64|344:32,1,90
472,16,55450,1,4,3:0:0:0:
232,188,55816,6,0,P|188:200|132:200,1,90
24,112,56181,2,0,B|81:110|81:110|136:120,1,99.0000030212403
312,236,56547,2,0,P|400:220|440:112,1,198.000006042481
392,44,57095,1,0,0:0:0:0:
260,28,57278,2,0,B|228:72|228:72|200:148,1,99.0000030212403
308,344,57644,6,0,P|320:272|260:156,1,198.000006042481
108,160,58193,1,0,0:0:0:0:
184,252,58376,1,0,0:0:0:0:
32,272,58559,1,0,0:0:0:0:
108,160,58742,6,0,P|212:128|272:140,1,144,2|4,0:0|0:0,0:0:0:0:
332,172,59290,1,0,0:0:0:0:
336,316,59473,1,8,0:0:0:0:
420,216,59656,1,8,0:0:0:0:
248,232,59839,2,0,B|208:240|208:240|168:252,1,72,4|0,0:0|0:0,0:0:0:0:
56,348,60205,5,4,3:0:0:0:
180,340,60388,1,4,3:0:0:0:
108,244,60571,1,8,3:0:0:0:
228,264,60754,1,8,3:0:0:0:
200,168,60937,2,0,P|232:132|280:104,1,72,8|8,0:0|0:0,0:0:0:0:
72,216,61302,2,0,L|-16:224,1,72,4|0,0:0|0:0,0:0:0:0:
260,300,61668,6,0,P|348:300|412:244,1,144,6|2,0:0|0:0,0:0:0:0:
424,196,62217,1,0,0:0:0:0:
324,120,62400,2,0,P|280:128|240:148,1,72,8|0,0:0|0:0,0:0:0:0:
116,240,62766,2,0,B|160:244|160:244|200:236,1,72,2|0,0:0|0:0,0:0:0:0:
396,236,63132,6,0,P|388:192|380:164,1,72,2|0,0:0|0:0,0:0:0:0:
188,40,63498,2,0,L|184:128,1,72,2|0,0:0|0:0,0:0:0:0:
264,344,63863,6,0,P|288:296|288:244,1,90,8|0,0:0|0:0,0:0:0:0:
80,188,64229,2,0,P|108:232|140:252,1,90,2|0,0:0|0:0,0:0:0:0:
368,304,64595,5,4,0:0:0:0:
352,300,67888,6,0,P|364:252|368:184,1,90,2|2,0:0|0:0,0:0:0:0:
216,260,68254,2,0,P|224:328|244:372,1,90,6|0,0:0|0:0,0:0:0:0:
284,196,68619,1,2,0:0:0:0:
176,164,68802,1,0,0:0:0:0:
308,104,68985,2,0,B|362:95|362:95|424:92,1,90,2|0,0:0|0:0,0:0:0:0:
176,64,69351,6,0,P|104:52|60:60,1,90,2|0,0:0|0:0,0:0:0:0:
120,168,69717,1,2,0:0:0:0:
240,144,69900,1,0,0:0:0:0:
72,256,70083,2,0,L|60:348,1,90,2|0,0:0|0:0,0:0:0:0:
152,196,70449,6,0,P|180:112|152:28,1,180,2|2,0:0|0:0,0:0:0:0:
48,112,70998,1,0,0:0:0:0:
296,124,71180,2,0,B|288:80|288:80|264:24,1,90
360,260,71546,5,4,0:0:0:0:
204,112,71729,1,0,0:0:0:0:
424,72,71912,1,8,3:0:0:0:
444,112,72004,1,8,3:0:0:0:
444,156,72095,1,8,3:0:0:0:
436,196,72187,1,8,3:0:0:0:
384,208,72278,5,4,3:0:0:0:
396,164,72369,1,4,3:0:0:0:
392,120,72461,1,4,3:0:0:0:
368,84,72552,1,4,3:0:0:0:
328,64,72644,1,4,3:0:0:0:
284,60,72735,1,4,3:0:0:0:
244,76,72827,1,4,3:0:0:0:
216,112,72918,1,4,3:0:0:0:
204,156,73010,5,4,3:0:0:0:
216,200,73101,1,4,3:0:0:0:
208,244,73193,1,4,3:0:0:0:
180,280,73284,1,4,3:0:0:0:
140,300,73376,1,4,3:0:0:0:
96,300,73467,1,4,3:0:0:0:
56,284,73558,1,4,3:0:0:0:
28,248,73650,1,4,3:0:0:0:
24,204,73741,6,0,B|80:184|80:184|112:192|112:192|160:172|216:184,1,180,6|2,0:0|0:0,0:0:0:0:
308,228,74290,1,0,0:0:0:0:
208,360,74473,2,0,B|172:332|172:332|136:272,1,90,2|0,0:0|0:0,0:0:0:0:
336,264,74839,5,4,3:2:0:0:
160,256,75022,1,8,3:0:0:0:
352,360,75205,1,8,3:0:0:0:
392,348,75296,1,8,3:0:0:0:
420,320,75388,1,8,3:0:0:0:
432,280,75479,1,8,3:0:0:0:
428,240,75571,1,8,3:0:0:0:
408,204,75662,1,8,3:0:0:0:
380,172,75754,1,8,3:0:0:0:
368,132,75845,1,8,3:0:0:0:
368,88,75937,5,4,3:0:0:0:
332,96,76028,1,4,3:0:0:0:
292,104,76119,1,4,3:0:0:0:
252,104,76211,1,4,3:0:0:0:
212,92,76302,1,4,3:0:0:0:
176,76,76394,1,4,3:0:0:0:
136,68,76485,1,4,3:0:0:0:
96,80,76577,1,4,3:0:0:0:
64,104,76668,1,4,3:0:0:0:
44,140,76760,1,4,3:0:0:0:
32,180,76851,1,4,3:0:0:0:
32,220,76943,1,4,3:0:0:0:
48,260,77034,6,0,B|104:280|104:280|184:268|184:268|268:288,1,198.000006042481,6|0,0:0|0:0,0:0:0:0:
412,148,77583,6,0,B|344:180|344:180|268:152|268:152|168:172,1,233.999989288331
148,372,78132,5,8,0:0:0:0:
264,232,78315,1,0,0:0:0:0:
72,168,78498,1,8,3:0:0:0:
72,168,78589,1,8,3:0:0:0:
72,168,78680,2,4,P|84:220|100:248,1,67.5000025749208,4|4,3:0|3:0,3:0:0:0:
236,64,78863,1,8,3:0:0:0:
236,64,78955,1,8,3:0:0:0:
236,64,79046,2,4,P|202:108|187:146,1,67.5000025749208,4|4,3:0|3:0,3:0:0:0:
304,288,79229,5,8,0:0:0:0:
304,288,79321,1,8,0:0:0:0:
304,288,79412,2,8,P|296:232|284:196,1,67.5000025749208
40,296,79595,1,8,0:0:0:0:
40,296,79687,1,4,3:0:0:0:
40,296,79778,2,4,P|68:308|124:316,1,67.5000025749208,4|4,3:0|3:0,3:0:0:0:
272,324,79961,1,8,0:0:0:0:
308,308,80052,1,8,0:0:0:0:
348,304,80144,1,4,3:0:0:0:
388,312,80235,1,4,3:0:0:0:
428,324,80327,6,0,B|448:264|448:264|428:144,1,144,6|8,0:0|0:0,0:0:0:0:
312,72,80692,1,2,0:0:0:0:
300,224,80875,1,8,0:0:0:0:
164,152,81058,1,2,0:0:0:0:
204,292,81241,1,8,0:0:0:0:
244,100,81424,1,2,0:0:0:0:
208,68,81516,1,2,0:0:0:0:
164,52,81607,1,8,0:0:0:0:
120,248,81790,1,2,0:0:0:0:
64,124,81973,1,8,0:0:0:0:
284,236,82156,5,2,0:0:0:0:
280,252,82247,1,2,0:0:0:0:
276,268,82339,1,8,0:0:0:0:
424,140,82522,2,0,P|376:92|308:72,1,116.999994644165,2|8,0:0|0:0,0:0:0:0:
172,124,82887,1,2,0:0:0:0:
160,140,82979,1,2,0:0:0:0:
148,156,83070,1,8,0:0:0:0:
216,336,83253,6,0,P|228:284|228:220,1,116.999994644165,2|8,0:0|0:0,0:0:0:0:
48,176,83619,1,2,0:0:0:0:
52,204,83711,1,2,0:0:0:0:
56,232,83802,1,8,0:0:0:0:
264,136,83985,1,2,0:0:0:0:
216,336,84168,1,8,0:0:0:0:
400,256,84351,2,0,P|328:260|272:288,1,116.999994644165,2|8,0:0|0:0,0:0:0:0:
468,184,84717,6,0,B|480:116|480:116|468:56,1,116.999994644165,2|8,0:0|0:0,0:0:0:0:
316,28,85083,1,2,0:0:0:0:
316,28,85174,1,2,0:0:0:0:
316,28,85266,1,8,0:0:0:0:
200,192,85448,2,0,L|212:328,1,116.999994644165,0|8,0:0|0:0,0:0:0:0:
388,344,85814,1,2,0:0:0:0:
392,316,85906,1,2,0:0:0:0:
392,288,85997,1,8,0:0:0:0:
308,56,86180,5,0,0:0:0:0:
400,168,86363,1,0,0:0:0:0:
192,100,86546,1,2,0:0:0:0:
180,132,86637,1,2,0:0:0:0:
177,168,86729,1,8,0:0:0:0:
356,240,86912,5,2,3:0:0:0:
144,296,87095,1,8,0:0:0:0:
340,344,87278,1,8,0:0:0:0:
388,336,87369,1,8,0:0:0:0:
428,312,87461,1,8,0:0:0:0:
448,272,87552,1,8,0:0:0:0:
456,224,87644,6,0,L|448:76,1,125.999996154785,6|8,0:0|0:0,0:0:0:0:
168,152,88009,2,0,L|156:304,1,125.999996154785,2|8,0:0|0:0,0:0:0:0:
236,56,88375,6,0,P|180:32|100:56,1,125.999996154785,2|8,0:0|0:0,0:0:0:0:
328,132,88741,2,0,L|472:148,1,125.999996154785,2|8,0:0|0:0,0:0:0:0:
364,332,89107,6,0,L|216:348,1,125.999996154785,6|8,0:0|0:0,0:0:0:0:
8,300,89473,1,2,0:0:0:0:
40,300,89564,1,2,0:0:0:0:
72,300,89656,1,8,0:0:0:0:
208,200,89839,1,2,0:0:0:0:
264,332,90022,1,8,0:0:0:0:
316,152,90205,2,0,P|419:163|472:198,1,125.999996154785,2|8,0:0|0:0,0:0:0:0:
200,292,90570,6,0,L|60:292,1,125.999996154785,6|8,0:0|0:0,0:0:0:0:
0,124,90936,1,2,0:0:0:0:
32,112,91028,1,2,0:0:0:0:
68,104,91119,1,8,0:0:0:0:
264,152,91302,6,0,P|200:176|112:176,1,125.999996154785,2|8,0:0|0:0,0:0:0:0:
356,44,91668,2,0,P|404:104|388:196,1,125.999996154785,2|8,0:0|0:0,0:0:0:0:
132,320,92034,6,0,L|136:168,1,125.999996154785,6|8,0:0|0:0,0:0:0:0:
336,172,92400,1,2,0:0:0:0:
336,172,92491,1,2,0:0:0:0:
336,172,92583,1,8,0:0:0:0:
144,124,92766,5,4,3:0:0:0:
364,276,92948,1,8,3:0:0:0:
340,324,93040,1,8,3:0:0:0:
296,340,93131,1,4,3:0:0:0:
248,336,93223,1,4,3:0:0:0:
212,300,93314,2,4,P|200:276|192:236,1,53.9999983520508,4|4,3:0|3:0,3:0:0:0:
212,160,93497,5,4,3:0:0:0:
220,108,93589,1,4,3:0:0:0:
196,60,93680,1,4,3:0:0:0:
144,44,93772,1,4,3:0:0:0:
92,56,93863,1,8,3:0:0:0:
64,104,93955,1,8,3:0:0:0:
68,156,94046,1,8,3:0:0:0:
100,200,94137,1,8,3:0:0:0:
132,244,94229,5,8,0:0:0:0:
144,296,94320,1,8,0:0:0:0:
120,344,94412,1,8,0:0:0:0:
72,368,94503,1,8,0:0:0:0:
20,352,94595,1,8,0:0:0:0:
4,300,94686,1,8,0:0:0:0:
28,252,94778,1,8,0:0:0:0:
76,232,94869,1,8,0:0:0:0:
132,244,94961,6,0,B|188:264|188:264|260:260,1,125.999996154785,6|8,0:0|0:0,0:0:0:0:
280,240,95235,1,0,2:0:0:0:
308,220,95326,2,0,L|440:228,1,125.999996154785,2|8,0:0|0:0,0:0:0:0:
308,64,95692,5,2,0:0:0:0:
192,140,95875,2,0,P|184:180|188:232,1,62.9999980773926,8|0,0:0|2:0,0:0:0:0:
156,272,96058,2,0,P|76:300|20:296,1,125.999996154785,2|8,0:0|0:0,0:0:0:0:
400,160,96424,6,0,B|400:132|400:132|392:88,1,62.9999980773926,2|0,0:0|2:0,0:0:0:0:
336,204,96607,2,0,B|312:232|312:232|276:252,1,62.9999980773926,8|0,0:0|2:0,0:0:0:0:
408,236,96790,2,0,P|444:308|448:364,1,125.999996154785,2|8,0:0|0:0,0:0:0:0:
208,328,97156,5,2,0:0:0:0:
248,176,97339,2,0,P|268:148|300:120,1,62.9999980773926,8|0,0:0|2:0,0:0:0:0:
348,80,97522,2,0,P|288:92|196:84,1,125.999996154785,2|8,0:0|0:0,0:0:0:0:
148,72,97796,1,0,0:0:0:0:
140,64,97887,6,0,P|104:76|72:76,1,62.9999980773926,2|0,0:0|2:0,0:0:0:0:
0,112,98070,1,8,0:0:0:0:
192,256,98253,1,2,0:0:0:0:
4,336,98436,1,8,0:0:0:0:
192,256,98619,6,0,B|192:224|192:224|184:180,1,62.9999980773926,2|0,0:0|2:0,0:0:0:0:
264,296,98802,2,0,L|328:292,1,62.9999980773926,8|0,0:0|2:0,0:0:0:0:
508,352,98985,2,0,L|360:344,1,125.999996154785,2|8,0:0|0:0,0:0:0:0:
340,168,99351,6,0,P|304:152|268:144,1,62.9999980773926,2|0,0:0|2:0,0:0:0:0:
400,224,99534,2,0,L|468:220,1,62.9999980773926,8|0,0:0|2:0,0:0:0:0:
312,364,99717,2,0,P|304:320|340:224,1,125.999996154785,2|8,0:0|0:0,0:0:0:0:
432,104,100083,5,8,0:0:0:0:
400,136,100174,1,8,0:0:0:0:
360,156,100266,1,8,0:0:0:0:
316,164,100357,1,8,0:0:0:0:
272,156,100448,1,8,0:0:0:0:
236,132,100540,1,8,0:0:0:0:
204,104,100631,1,8,0:0:0:0:
164,88,100723,1,8,0:0:0:0:
120,92,100814,6,0,P|80:104|44:128,1,62.9999980773926,6|0,0:0|2:0,0:0:0:0:
164,224,100997,2,0,L|156:148,1,62.9999980773926,8|0,0:0|2:0,0:0:0:0:
32,240,101180,2,0,P|60:324|56:380,1,125.999996154785,2|8,0:0|0:0,0:0:0:0:
296,344,101546,6,0,P|261:336|216:332,1,62.9999980773926,2|0,0:0|2:0,0:0:0:0:
160,352,101729,1,8,0:0:0:0:
420,332,101912,1,2,0:0:0:0:
256,252,102095,1,8,0:0:0:0:
384,160,102278,6,0,L|396:88,1,62.9999980773926,2|0,0:0|2:0,0:0:0:0:
336,216,102461,2,0,B|340:252|340:252|352:292,1,62.9999980773926,8|0,0:0|2:0,0:0:0:0:
304,340,102644,2,0,B|228:360|228:360|128:352,1,125.999996154785,2|8,0:0|0:0,0:0:0:0:
52,256,103009,1,2,0:0:0:0:
216,280,103192,1,8,0:0:0:0:
100,148,103375,1,2,0:0:0:0:
212,192,103558,1,12,0:0:0:0:
356,68,103741,6,0,P|288:76|236:120,1,125.999996154785,2|8,0:0|0:0,0:0:0:0:
144,260,104107,1,2,0:0:0:0:
340,196,104290,1,8,0:0:0:0:
144,128,104473,2,0,P|108:124|48:136,1,62.9999980773926,2|0,0:0|2:0,0:0:0:0:
208,176,104656,2,0,B|233:195|233:195|276:217,1,62.9999980773926,8|0,0:0|2:0,0:0:0:0:
336,60,104839,2,0,P|264:72|208:104,1,125.999996154785,2|8,0:0|0:0,0:0:0:0:
124,232,105205,5,2,0:0:0:0:
136,348,105387,1,8,0:0:0:0:
252,264,105570,2,0,P|240:200|216:136,1,116.999994644165,2|8,0:0|0:0,0:0:0:0:
60,64,105936,1,2,0:0:0:0:
120,164,106119,5,8,3:0:0:0:
160,188,106211,1,8,3:0:0:0:
204,196,106302,1,8,3:0:0:0:
252,192,106394,1,8,3:0:0:0:
296,176,106485,2,8,P|324:156|348:120,1,58.4999973220826,8|8,3:0|3:0,3:0:0:0:
384,36,106668,5,4,3:0:0:0:
360,76,106759,1,8,3:0:0:0:
348,120,106851,1,8,3:0:0:0:
352,168,106942,1,8,0:0:0:0:
380,204,107034,1,8,0:0:0:0:
404,244,107125,1,8,0:0:0:0:
404,292,107217,1,8,0:0:0:0:
384,332,107308,1,8,0:0:0:0:
340,352,107400,5,8,3:0:0:0:
292,356,107491,1,8,3:0:0:0:
252,332,107583,1,8,3:0:0:0:
236,288,107674,1,8,3:0:0:0:
244,240,107766,1,4,3:0:0:0:
228,196,107857,1,4,3:0:0:0:
188,168,107948,1,4,3:0:0:0:
140,172,108040,1,4,3:0:0:0:
96,204,108131,6,0,L|88:352,1,135.000005149842,6|8,0:0|0:0,0:0:0:0:
348,184,108497,2,0,L|336:28,1,135.000005149842,2|8,0:0|0:0,0:0:0:0:
276,296,108863,6,0,P|344:332|444:296,1,135.000005149842,2|8,0:0|0:0,0:0:0:0:
140,172,109229,2,0,P|68:180|8:260,1,135.000005149842,2|8,0:0|0:0,0:0:0:0:
348,184,109595,6,0,L|356:24,1,135.000005149842,2|8,0:0|0:0,0:0:0:0:
84,200,109961,2,0,L|96:352,1,135.000005149842,2|8,0:0|0:0,0:0:0:0:
184,68,110326,6,0,B|132:76|132:76|108:72|108:72|16:88,1,135.000005149842,2|8,0:0|0:0,0:0:0:0:
328,184,110692,2,0,B|380:176|380:176|404:180|404:180|496:164,1,135.000005149842,2|8,0:0|0:0,0:0:0:0:
196,328,111058,6,0,P|120:312|68:252,1,135.000005149842,2|8,0:0|0:0,0:0:0:0:
264,180,111424,2,0,L|424:196,1,135.000005149842,2|8,0:0|0:0,0:0:0:0:
188,32,111790,6,0,P|104:52|48:112,1,135.000005149842,2|8,0:0|0:0,0:0:0:0:
324,352,112156,2,0,P|408:332|464:272,1,135.000005149842,2|8,0:0|0:0,0:0:0:0:
432,100,112522,5,2,0:0:0:0:
312,244,112705,1,8,0:0:0:0:
272,104,112887,1,2,0:0:0:0:
272,104,112979,1,2,0:0:0:0:
272,104,113070,1,8,0:0:0:0:
415,186,113253,5,2,0:0:0:0:
145,273,113436,1,8,0:0:0:0:
312,44,113619,1,2,0:0:0:0:
312,328,113802,1,8,0:0:0:0:
145,98,113985,5,6,0:0:0:0:
