osu file format v14

[General]
AudioFilename: Rise Against - Making Christmas.mp3
AudioLeadIn: 0
PreviewTime: 80325
Countdown: 0
SampleSet: Soft
StackLeniency: 0.7
Mode: 0
LetterboxInBreaks: 0
WidescreenStoryboard: 0

[Editor]
Bookmarks: 12642,19959,53252
DistanceSpacing: 1.2
BeatDivisor: 4
GridSize: 4
TimelineZoom: 2.24

[Metadata]
Title:Making Christmas
TitleUnicode:Making Christmas
Artist:Rise Against
ArtistUnicode:Rise Against
Creator:BOUYAAA
Version:Hard
Source:
Tags:The Nightmare Revisited pishifat the nightmare before christmas
BeatmapID:709263
BeatmapSetID:247165

[Difficulty]
HPDrainRate:5
CircleSize:4
OverallDifficulty:6
ApproachRate:7.5
SliderMultiplier:1.4
SliderTickRate:2

[Events]
//Background and Video events
0,0,"Nightmare Revisited.png",0,0
//Break Periods
2,64795,67063
//Storyboard Layer 0 (Background)
//Storyboard Layer 1 (Fail)
//Storyboard Layer 2 (Pass)
//Storyboard Layer 3 (Foreground)
//Storyboard Sound Samples

[TimingPoints]
1308,365.853658536585,4,2,2,60,1,0
7161,-100,4,2,2,50,0,0
8625,-100,4,2,2,40,0,0
8990,-100,4,2,2,50,0,0
9173,-100,4,2,2,55,0,0
9356,-100,4,2,2,60,0,0
9539,-100,4,2,2,65,0,0
9722,-100,4,2,2,70,0,0
10454,-100,4,2,2,60,0,0
28747,-90.9090909090909,4,2,2,40,0,0
29112,365.853658536585,3,2,2,50,1,0
29112,-90.9090909090909,3,2,2,50,0,0
31307,365.853658536585,4,2,2,60,1,0
35697,-100,4,2,2,60,0,0
41550,-100,4,2,2,40,0,0
41916,-97.0873786407767,4,2,2,45,0,0
42282,-94.3396226415094,4,2,2,50,0,0
42648,-91.743119266055,4,2,2,55,0,0
43014,-89.2857142857143,4,2,2,60,0,0
43380,-86.9565217391304,4,2,2,65,0,0
43746,-86.9565217391304,4,2,2,70,0,0
44477,-100,4,2,2,60,0,0
48867,365.853658536585,3,2,2,60,1,0
49964,365.853658536585,4,2,2,60,1,0
53621,365.853658536585,4,2,2,60,1,0
56181,-90.9090909090909,4,2,2,60,0,0
56547,365.853658536585,3,2,2,60,1,0
56547,-90.9090909090909,3,2,2,60,0,0
58742,365.853658536585,4,2,2,60,1,0
58742,-125,4,2,2,60,0,0
64595,-100,4,2,2,60,0,0
66059,365.853658536585,3,2,2,60,1,0
71546,-100,3,2,2,50,0,0
73741,-100,3,2,2,60,0,0
74839,-100,3,2,2,50,0,0
77034,-90.9090909090909,3,2,2,50,0,0
77583,-86.9565217391304,3,2,2,60,0,0
78132,-86.9565217391304,3,2,2,70,0,0
79687,-86.9565217391304,4,2,2,60,0,0
80327,365.853658536585,4,2,2,60,1,0
80327,-86.9565217391304,4,2,2,60,0,0
80509,-86.9565217391304,4,2,3,40,0,0
80692,-86.9565217391304,4,2,2,60,0,0
80875,-86.9565217391304,4,2,2,60,0,0
87644,-86.9565217391304,4,2,2,70,0,0
88009,-86.9565217391304,4,2,2,70,0,0
90753,-86.9565217391304,4,2,3,50,0,0
90936,-86.9565217391304,4,2,2,70,0,0
92217,-86.9565217391304,4,2,3,50,0,0
92400,-86.9565217391304,4,2,2,70,0,0
92948,-86.9565217391304,4,2,3,50,0,0
93131,-86.9565217391304,4,2,2,70,0,0
93314,-86.9565217391304,4,2,2,50,0,0
94961,-86.9565217391304,4,2,2,60,0,1
106302,-90.9090909090909,4,2,2,60,0,0
108131,-86.9565217391304,4,2,2,70,0,1
109046,-86.9565217391304,4,2,3,50,0,1
109229,-86.9565217391304,4,2,2,70,0,1
109778,-86.9565217391304,4,2,3,50,0,1
109961,-86.9565217391304,4,2,2,70,0,1
111241,-86.9565217391304,4,2,3,50,0,1
111424,-86.9565217391304,4,2,2,70,0,1
111973,-86.9565217391304,4,2,3,50,0,1
112156,-86.9565217391304,4,2,2,70,0,1
113985,-86.9565217391304,4,2,2,60,0,0

[Colours]
Combo1 : 116,108,136
Combo2 : 170,64,64
Combo3 : 82,96,150
Combo4 : 196,141,87

[HitObjects]
344,240,4234,5,6,0:0:0:0:
344,240,4417,1,0,0:0:0:0:
260,272,4600,2,0,L|172:248,1,70,8|0,0:0|0:0,0:0:0:0:
228,176,4966,1,2,0:0:0:0:
228,176,5149,1,2,0:0:0:0:
316,152,5332,2,0,L|396:168,1,70,8|0,0:0|0:0,0:0:0:0:
456,212,5698,6,0,P|464:268|456:296,1,70,2|0,0:0|0:0,0:0:0:0:
388,324,6064,2,0,L|380:252,1,70,8|0,0:0|0:0,0:0:0:0:
304,224,6429,2,0,L|296:296,1,70,2|2,0:0|0:0,0:0:0:0:
228,344,6795,2,0,P|192:344|144:320,1,70,8|0,0:0|0:0,0:0:0:0:
100,272,7161,5,2,0:0:0:0:
76,192,7344,1,8,3:0:0:0:
104,112,7527,1,4,3:0:0:0:
176,72,7710,1,4,3:0:0:0:
260,80,7893,2,0,P|320:144|368:140,1,140,8|0,0:0|0:0,0:0:0:0:
344,60,8442,1,2,0:0:0:0:
260,80,8625,6,0,B|216:100|216:100|168:92|168:92|108:100,1,140,12|8,0:0|0:0,0:0:0:0:
48,132,9174,1,8,0:0:0:0:
92,204,9356,2,0,L|84:284,1,70,8|8,0:0|0:0,0:0:0:0:
120,348,9722,6,0,P|64:356|36:340,1,70,2|0,0:0|0:0,0:0:0:0:
192,308,10088,2,0,B|240:304|240:304|256:324|308:348|344:320,1,140,6|8,0:0|0:0,0:0:0:0:
308,240,10637,1,0,0:0:0:0:
228,220,10820,2,0,L|136:232,1,70,2|2,0:0|0:0,0:0:0:0:
85,273,11186,2,0,B|73:257|64:226|81:189|81:189|69:177|57:161|61:129,1,140,8|2,0:0|0:0,0:0:0:0:
140,124,11734,5,0,0:0:0:0:
224,132,11917,2,0,P|256:156|272:204,1,70,8|0,0:0|0:0,0:0:0:0:
232,260,12283,2,0,P|200:236|184:188,1,70,2|2,0:0|0:0,0:0:0:0:
269,182,12649,1,8,0:0:0:0:
352,188,12832,1,0,0:0:0:0:
412,244,13015,5,2,0:0:0:0:
376,72,13381,2,0,B|336:84|336:84|280:76|280:76|208:88,1,140,12|2,0:0|0:0,0:0:0:0:
156,100,13930,1,2,0:0:0:0:
96,160,14113,2,0,P|88:208|96:240,1,70,8|0,0:0|0:0,0:0:0:0:
152,288,14478,6,0,P|196:300|240:288,1,70,2|0,0:0|0:0,0:0:0:0:
292,340,14844,2,0,P|332:328|368:280,1,70,8|0,0:0|0:0,0:0:0:0:
436,296,15210,2,0,P|448:256|440:208,1,70,2|2,0:0|0:0,0:0:0:0:
484,152,15576,2,0,P|464:112|436:88,1,70,8|0,0:0|0:0,0:0:0:0:
360,72,15942,6,0,P|296:80|268:64,1,70,2|2,0:0|0:0,0:0:0:0:
224,128,16308,2,0,P|272:152|304:152,1,70,8|0,0:0|0:0,0:0:0:0:
280,68,16674,2,0,P|192:52|144:92,1,140,2|8,0:0|0:0,0:0:0:0:
104,148,17222,1,0,0:0:0:0:
104,148,17405,6,0,B|116:208|116:208|100:316,1,140,2|8,0:0|0:0,0:0:0:0:
172,336,17954,1,0,0:0:0:0:
172,336,18137,2,0,B|236:328|236:328|272:336|272:336|324:328,1,140,2|8,0:0|0:0,0:0:0:0:
396,324,18686,1,0,0:0:0:0:
480,324,18868,6,0,L|488:236,1,70,2|2,0:0|0:0,0:0:0:0:
392,176,19234,2,0,L|396:260,1,70,8|0,0:0|0:0,0:0:0:0:
296,316,19600,2,0,L|304:228,1,70,2|2,0:0|0:0,0:0:0:0:
308,164,19966,1,8,0:0:0:0:
308,164,20149,1,0,0:0:0:0:
392,148,20332,6,0,P|368:104|260:92,1,140,2|8,0:0|0:0,0:0:0:0:
208,108,20881,1,0,0:0:0:0:
160,176,21064,2,0,P|105:243|32:228,1,140,2|8,0:0|0:0,0:0:0:0:
80,164,21613,1,0,0:0:0:0:
124,96,21795,6,0,P|200:100|245:160,1,140,2|8,0:0|0:0,0:0:0:0:
284,216,22344,1,0,0:0:0:0:
340,280,22527,2,0,P|368:224|316:136,1,140,2|8,0:0|0:0,0:0:0:0:
284,216,23076,1,0,0:0:0:0:
220,268,23259,5,2,0:0:0:0:
220,268,23442,1,2,0:0:0:0:
220,268,23625,2,0,L|52:280,1,140,12|2,0:0|0:0,0:0:0:0:
92,112,24356,6,0,L|178:118,1,70,8|0,0:0|0:0,0:0:0:0:
244,140,24722,1,2,0:0:0:0:
328,124,24905,1,2,0:0:0:0:
372,52,25088,2,0,P|408:40|464:56,1,70,8|2,0:0|0:0,0:0:0:0:
416,124,25454,2,0,P|408:180|416:220,1,70,2|0,0:0|0:0,0:0:0:0:
452,268,25820,2,0,P|412:280|364:268,1,70,8|2,0:0|0:0,0:0:0:0:
304,256,26186,6,0,P|208:240|160:256,1,140,2|8,0:0|0:0,0:0:0:0:
88,272,26734,1,2,0:0:0:0:
116,192,26917,2,0,P|132:112|116:40,1,140,2|8,0:0|0:0,0:0:0:0:
288,76,27649,5,2,0:0:0:0:
288,76,27832,1,2,0:0:0:0:
288,76,28015,2,0,L|276:172,2,70,8|0|2,0:0|0:0|0:0,0:0:0:0:
372,44,28564,1,2,0:0:0:0:
428,144,28747,6,0,P|432:184|416:248,1,77.0000023498536,12|0,0:0|0:0,0:0:0:0:
364,284,29112,2,0,L|256:292,1,77.0000023498536,4|0,0:0|0:0,0:0:0:0:
204,332,29477,2,0,L|112:324,1,77.0000023498536,12|0,0:0|0:0,0:0:0:0:
52,268,29843,6,0,P|44:220|64:176,1,77.0000023498536,4|0,0:0|0:0,0:0:0:0:
136,156,30209,2,0,P|200:240|224:100,1,308.000009399414,6|0,0:0|1:0,0:0:0:0:
380,52,31307,6,0,L|304:60,1,70,6|0,0:0|0:0,0:0:0:0:
244,108,31672,1,8,0:0:0:0:
280,184,31855,1,2,0:0:0:0:
364,168,32038,2,0,L|456:176,1,70,8|2,0:0|0:0,0:0:0:0:
484,244,32404,1,8,0:0:0:0:
428,308,32587,1,2,0:0:0:0:
344,296,32770,6,0,B|308:296|308:296|256:280,1,70,8|2,0:0|0:0,0:0:0:0:
192,276,33136,2,0,P|152:276|96:296,1,70,8|2,0:0|0:0,0:0:0:0:
160,360,33502,2,0,P|200:360|256:340,1,70,8|2,0:0|0:0,0:0:0:0:
272,280,33867,2,0,P|276:232|296:184,1,70,8|2,0:0|0:0,0:0:0:0:
356,268,34233,5,14,0:0:0:0:
352,260,34416,1,2,0:0:0:0:
348,252,34599,2,0,P|316:140|208:228,1,280,8|4,0:0|3:0,0:0:0:0:
360,336,35697,6,0,P|408:312|432:212,1,140,6|8,0:0|0:0,0:0:0:0:
416,152,36246,1,0,0:0:0:0:
364,84,36428,2,0,B|312:92|312:92|272:84|272:84|200:96,1,140,2|8,0:0|0:0,0:0:0:0:
100,180,37160,6,0,B|152:172|152:172|192:180|192:180|264:168,1,140,2|8,0:0|0:0,0:0:0:0:
316,136,37709,1,0,0:0:0:0:
400,144,37892,2,0,P|452:192|444:276,1,140,2|8,0:0|0:0,0:0:0:0:
404,328,38441,1,0,0:0:0:0:
320,332,38624,6,0,P|268:284|276:200,1,140,2|8,0:0|0:0,0:0:0:0:
344,252,39172,1,0,0:0:0:0:
320,332,39355,2,0,B|224:348|224:348|160:332,1,140,2|8,0:0|0:0,0:0:0:0:
48,216,40087,6,0,P|72:140|152:108,1,140,2|8,0:0|0:0,0:0:0:0:
204,120,40636,1,0,0:0:0:0:
284,88,40819,2,0,L|360:100,1,70,2|2,0:0|0:0,0:0:0:0:
436,84,41185,1,8,0:0:0:0:
444,340,41551,6,0,B|464:312|464:312|488:260,1,70,6|0,0:0|0:0,0:0:0:0:
420,188,41917,6,0,P|404:224|396:256,1,72.0999993949127,6|0,0:0|0:0,0:0:0:0:
328,332,42283,6,0,P|316:296|316:232,1,74.2000001132202,6|0,0:0|0:0,0:0:0:0:
280,132,42649,6,0,P|268:176|244:212,1,76.3000008149719,6|0,0:0|0:0,0:0:0:0:
116,172,43015,6,0,P|148:160|196:156,1,78.4000009570313,6|0,0:0|0:0,0:0:0:0:
252,292,43381,6,0,B|213:282|213:282|166:258,1,80.5000015354157,6|0,0:0|0:0,0:0:0:0:
340,292,43746,6,0,P|404:160|332:80,1,241.500004606247
280,64,44477,2,0,P|293:42|312:27,2,46.6666666666667,8|8|8,0:0|0:3|0:3,0:0:0:0:
196,72,44843,2,0,P|198:46|208:24,2,46.6666666666667,8|8|8,0:0|0:3|0:3,0:0:0:0:
116,112,45210,2,0,P|108:88|108:64,2,46.6666666666667,8|8|8,0:0|0:3|0:3,0:0:0:0:
72,184,45576,2,4,P|48:160|36:128,2,46.6666666666667,8|8|8,0:3|0:3|0:3,0:0:0:0:
128,256,45941,6,0,L|280:276,1,140,4|0,0:0|0:0,0:0:0:0:
352,268,46489,1,0,0:0:0:0:
428,308,46672,2,0,B|436:260|436:260|424:216|424:216|428:140,1,140,0|0,0:0|0:0,0:0:0:0:
336,28,47404,6,0,L|192:40,1,140
116,60,47953,1,0,0:0:0:0:
92,136,48136,2,0,B|144:160|144:160|192:152|192:152|260:160,1,140,0|0,0:0|0:0,0:0:0:0:
308,144,48684,1,0,0:0:0:0:
384,184,48866,6,0,L|396:272,1,70,2|0,0:0|0:0,0:0:0:0:
360,332,49232,2,0,P|308:340|272:316,1,70,0|0,0:0|0:0,0:0:0:0:
252,260,49598,2,0,L|260:176,1,70,0|0,0:0|0:0,0:0:0:0:
200,128,49963,6,0,P|136:144|108:240,1,140,2|0,0:0|0:0,0:0:0:0:
108,292,50512,1,0,0:0:0:0:
188,324,50695,2,0,L|336:336,1,140,0|0,0:0|0:0,0:0:0:0:
448,184,51427,6,0,L|308:195,1,140,0|0,0:0|0:0,0:0:0:0:
244,252,51976,1,0,0:0:0:0:
168,288,52159,2,0,P|128:292|80:272,1,70,0|0,0:0|0:0,0:0:0:0:
64,208,52524,2,0,L|80:84,1,105,0|8,0:0|0:0,0:0:0:0:
104,68,52890,2,0,P|144:64|192:84,1,70,8|8,0:0|0:0,0:0:0:0:
248,112,53256,6,0,P|286:122|337:109,1,70,4|0,0:0|0:0,0:0:0:0:
400,120,53621,2,0,L|384:268,1,140,0|0,0:0|0:0,0:0:0:0:
304,284,54170,1,0,0:0:0:0:
240,340,54352,2,0,P|220:268|280:204,1,140,0|0,0:0|0:0,0:0:0:0:
312,152,54901,1,0,0:0:0:0:
264,84,55084,6,0,L|176:92,1,70,0|0,0:0|0:0,0:0:0:0:
120,128,55450,2,0,P|85:186|106:251,1,140,4|0,3:0|0:0,0:0:0:0:
332,304,56182,6,0,L|232:312,1,77.0000023498536,0|0,0:0|0:0,0:0:0:0:
280,220,56547,2,0,L|464:232,1,154.000004699707,0|0,0:0|0:0,0:0:0:0:
208,248,57278,6,0,P|204:204|224:168,1,77.0000023498536,0|0,0:0|0:0,0:0:0:0:
284,112,57644,2,0,B|300:56|204:28|180:96|180:96|132:64|84:140|20:76,1,308.000009399414
68,244,58741,5,2,0:0:0:0:
68,244,58924,2,0,P|116:240|148:244,1,56,2|4,0:0|0:0,0:0:0:0:
264,192,59473,2,0,P|312:196|336:192,2,56,8|8|4,0:0|0:0|0:0,0:0:0:0:
128,136,60205,6,0,P|120:96|108:76,2,56,4|4|8,3:0|3:0|3:0,0:0:0:0:
112,208,60754,1,8,3:0:0:0:
128,280,60937,1,8,0:0:0:0:
192,320,61120,1,8,0:0:0:0:
264,320,61303,1,4,0:0:0:0:
396,308,61668,6,0,P|404:256|384:180,1,112,6|2,0:0|0:0,0:0:0:0:
372,128,62217,1,0,0:0:0:0:
300,124,62400,2,0,L|184:132,1,112,8|2,0:0|0:0,0:0:0:0:
128,172,62949,1,0,0:0:0:0:
168,232,63132,6,0,P|208:240|244:256,1,56,2|0,0:0|0:0,0:0:0:0:
268,180,63498,2,0,P|296:208|312:232,1,56,2|0,0:0|0:0,0:0:0:0:
380,168,63864,2,0,P|384:192|384:236,1,56,8|0,0:0|0:0,0:0:0:0:
472,236,64229,2,0,P|456:272|432:296,1,56,2|0,0:0|0:0,0:0:0:0:
368,320,64595,5,4,0:0:0:0:
272,24,67888,6,0,P|234:20|196:32,1,70,2|2,0:0|0:0,0:0:0:0:
248,108,68254,2,0,P|304:120|344:104,1,70,6|0,0:0|0:0,0:0:0:0:
396,100,68619,1,2,0:0:0:0:
460,156,68801,1,0,0:0:0:0:
464,240,68985,2,0,L|448:340,1,70,2|0,0:0|0:0,0:0:0:0:
356,360,69351,6,0,L|348:260,1,70,2|0,0:0|0:0,0:0:0:0:
276,252,69717,2,0,L|288:152,1,70,2|0,0:0|0:0,0:0:0:0:
356,136,70083,1,2,0:0:0:0:
340,52,70266,1,0,0:0:0:0:
216,24,70449,6,0,L|204:120,1,70,2|0,0:0|0:0,0:0:0:0:
148,152,70814,2,0,P|120:208|148:296,1,140,2|2,0:0|0:0,0:0:0:0:
200,336,71363,1,0,0:0:0:0:
284,320,71546,6,0,B|366:331,1,70,4|8,0:0|3:0,0:0:0:0:
425,285,71912,2,0,L|489:293,6,35,8|8|8|0|4|4|4,3:0|3:0|3:0|0:0|3:0|3:0|3:0,0:0:0:0:
328,308,72644,6,0,L|268:312,3,35,4|4|4|4,3:0|3:0|3:0|3:0,0:0:0:0:
260,276,73010,2,0,L|200:268,3,35,4|4|4|4,3:0|3:0|3:0|3:0,0:0:0:0:
192,312,73376,2,0,L|132:320,3,35,4|4|4|4,3:0|3:0|3:0|3:0,0:0:0:0:
116,304,73742,6,4,P|76:232|96:152,1,140,6|2,0:0|0:0,0:0:0:0:
116,100,74290,1,0,0:0:0:0:
196,76,74473,2,4,L|296:84,1,70,2|0,0:0|0:0,0:0:0:0:
360,104,74838,6,0,L|396:124,3,35,4|8|8|8,0:0|3:0|3:0|3:0,0:0:0:0:
424,160,75204,2,0,L|440:204,3,35,8|8|8|8,3:0|3:0|3:0|3:0,0:0:0:0:
440,240,75570,2,0,L|424:288,3,35,8|8|8|8,3:0|3:0|3:0|3:0,0:0:0:0:
400,312,75936,6,0,L|352:336,3,35,4|4|4|4,3:0|3:0|3:0|3:0,0:0:0:0:
320,336,76302,2,0,L|256:320,3,35,4|4|4|4,3:0|3:0|3:0|3:0,0:0:0:0:
232,328,76668,2,0,L|180:336,3,35,4|4|4|4,3:0|3:0|3:0|3:0,0:0:0:0:
148,320,77034,6,0,B|156:256|156:256|148:224|148:224|156:156,1,154.000004699707,6|0,0:0|0:0,0:0:0:0:
236,56,77583,6,0,B|252:124|252:124|236:168|236:168|248:240,1,161.000003070831,0|0,0:0|0:0,0:0:0:0:
344,300,78132,6,0,P|360:228|352:188,1,80.5000015354157,8|0,0:0|0:0,0:0:0:0:
332,140,78498,1,8,3:0:0:0:
332,140,78589,1,8,3:0:0:0:
332,140,78681,1,4,3:0:0:0:
244,100,78864,2,0,P|260:72|284:52,2,40.2500007677078,8|8|4,3:0|3:0|3:0,0:0:0:0:
144,144,79229,1,8,0:0:0:0:
144,144,79321,1,8,0:0:0:0:
144,144,79412,1,8,0:0:0:0:
92,224,79595,6,0,L|24:232,2,40.2500007677078,8|4|4,0:0|3:0|3:0,0:0:0:0:
156,288,79961,2,0,L|196:288,3,40.2500007677078,8|8|4|4,0:0|0:0|3:0|3:0,0:0:0:0:
240,308,80327,6,0,B|304:284|360:308|360:308|392:304|404:264,1,161.000003070831,6|2,0:0|0:0,0:0:0:0:
404,192,80875,1,8,0:0:0:0:
312,220,81058,2,0,P|284:220|240:232,2,40.2500007677078,2|2|8,0:0|0:0|0:0,0:0:0:0:
403,191,81424,2,0,P|400:144|384:104,1,80.5000015354157,2|8,0:0|0:0,0:0:0:0:
296,80,81790,5,2,0:0:0:0:
208,120,81973,1,8,0:0:0:0:
116,96,82156,2,0,P|128:64|128:28,2,40.2500007677078,2|2|8,0:0|0:0|0:0,0:0:0:0:
60,176,82522,2,0,P|52:224|60:264,1,80.5000015354157,2|8,0:0|0:0,0:0:0:0:
132,316,82887,2,0,P|116:340|84:356,2,40.2500007677078,2|2|8,0:0|0:0|0:0,0:0:0:0:
228,304,83253,6,0,B|276:296|276:296|340:308,1,80.5000015354157,6|8,0:0|0:0,0:0:0:0:
404,312,83619,2,0,P|436:316|448:312,2,40.2500007677078,2|2|8,0:0|0:0|0:0,0:0:0:0:
416,216,83985,2,0,L|424:124,1,80.5000015354157,2|8,0:0|0:0,0:0:0:0:
324,124,84351,2,0,L|328:168,2,40.2500007677078,2|2|8,0:0|0:0|0:0,0:0:0:0:
244,72,84717,6,0,L|152:84,1,80.5000015354157,2|8,0:0|0:0,0:0:0:0:
92,148,85083,1,2,0:0:0:0:
92,148,85175,1,2,0:0:0:0:
92,148,85266,1,8,0:0:0:0:
28,220,85448,2,0,P|56:240|116:236,1,80.5000015354157,0|8,0:0|0:0,0:0:0:0:
192,204,85814,2,0,P|264:196|300:216,1,80.5000015354157,2|8,0:0|0:0,0:0:0:0:
360,240,86180,6,0,P|372:192|348:144,2,80.5000015354157,2|8|2,0:0|0:0|0:0,0:0:0:0:
344,260,86637,1,2,0:0:0:0:
328,272,86728,1,8,0:0:0:0:
236,292,86912,2,0,L|144:296,1,80.5000015354157,2|8,3:0|0:0,0:0:0:0:
64,268,87278,2,0,L|72:220,3,40.2500007677078,8|8|8|8,0:0|0:0|0:0|0:0,0:0:0:0:
104,196,87643,6,0,B|112:148|112:148|104:84,1,80.5000015354157,6|8,0:0|0:0,0:0:0:0:
164,36,88009,2,0,P|212:32|264:56,1,80.5000015354157,2|8,0:0|0:0,0:0:0:0:
288,128,88375,6,0,L|284:224,1,80.5000015354157,2|8,0:0|0:0,0:0:0:0:
388,164,88741,2,0,L|380:76,1,80.5000015354157,2|8,0:0|0:0,0:0:0:0:
488,144,89107,6,0,P|508:212|504:256,1,80.5000015354157,6|8,0:0|0:0,0:0:0:0:
468,308,89473,2,0,L|376:340,1,80.5000015354157,2|8,0:0|0:0,0:0:0:0:
296,320,89839,5,2,0:0:0:0:
328,228,90022,1,8,0:0:0:0:
316,132,90205,2,0,P|296:72|260:36,1,80.5000015354157,2|8,0:0|0:0,0:0:0:0:
204,108,90570,6,0,B|160:100|160:100|144:84|144:84|48:68,1,161.000003070831,6|2,0:0|0:0,0:0:0:0:
0,144,91119,1,8,0:0:0:0:
64,216,91302,2,0,L|56:316,1,80.5000015354157,2|8,0:0|0:0,0:0:0:0:
144,344,91667,1,2,0:0:0:0:
144,344,91759,1,0,0:0:0:0:
144,344,91850,1,8,0:0:0:0:
228,292,92034,6,0,B|336:300|336:300|400:328,1,161.000003070831,6|2,0:0|0:0,0:0:0:0:
480,304,92583,1,8,0:0:0:0:
460,208,92766,2,0,P|364:188|312:244,1,161.000003070831,4|4,3:0|3:0,0:0:0:0:
400,280,93314,1,4,3:0:0:0:
428,368,93497,6,0,P|384:372|328:332,1,80.5000015354157,4|0,0:0|0:0,0:0:0:0:
268,308,93864,2,0,L|220:316,3,40.2500007677078,8|8|8|0,3:0|3:0|3:0|0:0,0:0:0:0:
204,356,94229,2,0,L|144:352,3,40.2500007677078,8|8|8|8,0:0|0:0|0:0|0:0,0:0:0:0:
124,328,94595,2,0,P|120:308|120:288,3,40.2500007677078,8|8|8|8,0:0|0:0|0:0|0:0,0:0:0:0:
152,252,94961,6,0,P|200:240|252:252,1,80.5000015354157,6|8,0:0|0:0,0:0:0:0:
320,280,95326,1,2,0:0:0:0:
412,252,95509,1,8,0:0:0:0:
448,164,95692,2,0,P|432:108|404:84,1,80.5000015354157,2|8,0:0|0:0,0:0:0:0:
324,64,96058,2,0,L|232:72,1,80.5000015354157,2|8,0:0|0:0,0:0:0:0:
188,152,96425,5,2,0:0:0:0:
92,168,96608,1,8,0:0:0:0:
52,256,96790,2,0,P|100:264|136:252,1,80.5000015354157,2|8,0:0|0:0,0:0:0:0:
216,216,97156,2,0,L|304:220,1,80.5000015354157,2|8,0:0|0:0,0:0:0:0:
360,120,97522,2,0,L|268:124,1,80.5000015354157,2|8,0:0|0:0,0:0:0:0:
184,108,97887,5,2,0:0:0:0:
184,108,97978,1,0,2:0:0:0:
184,108,98070,2,0,P|124:196|156:268,1,161.000003070831,8|8,0:0|0:0,0:0:0:0:
208,308,98619,2,0,L|320:316,1,80.5000015354157,2|8,0:0|0:0,0:0:0:0:
368,220,98985,2,0,L|264:228,1,80.5000015354157,2|8,0:0|0:0,0:0:0:0:
192,236,99351,6,0,P|144:228|108:200,1,80.5000015354157,2|8,0:0|0:0,0:0:0:0:
100,116,99717,2,0,P|130:78|173:61,1,80.5000015354157,2|8,0:0|0:0,0:0:0:0:
252,96,100083,2,0,P|269:141|262:186,1,80.5000015354157,8|8,0:0|0:0,0:0:0:0:
284,264,100448,2,0,P|316:296|372:296,1,80.5000015354157,8|8,0:0|0:0,0:0:0:0:
356,212,100814,6,0,L|372:124,1,80.5000015354157,6|8,0:0|0:0,0:0:0:0:
296,72,101180,1,2,0:0:0:0:
212,120,101363,1,8,0:0:0:0:
124,80,101546,2,0,P|116:136|136:172,1,80.5000015354157,2|8,0:0|0:0,0:0:0:0:
204,204,101911,1,2,0:0:0:0:
300,204,102095,6,0,B|340:196|340:196|396:200,2,80.5000015354157,8|2|8,0:0|0:0|0:0,0:0:0:0:
232,272,102643,2,0,P|188:276|140:240,1,80.5000015354157,2|8,0:0|0:0,0:0:0:0:
124,168,103009,1,2,0:0:0:0:
156,76,103192,1,8,0:0:0:0:
252,64,103375,2,0,L|348:80,1,80.5000015354157,2|12,0:0|0:0,0:0:0:0:
416,128,103742,6,0,P|432:168|432:228,1,80.5000015354157,2|8,0:0|0:0,0:0:0:0:
420,300,104108,1,2,0:0:0:0:
324,288,104290,1,8,0:0:0:0:
236,328,104473,2,0,L|148:336,1,80.5000015354157,2|8,0:0|0:0,0:0:0:0:
96,224,104839,2,0,L|192:232,1,80.5000015354157,2|8,0:0|0:0,0:0:0:0:
268,200,105204,5,2,0:0:0:0:
360,224,105387,1,8,0:0:0:0:
436,168,105570,2,0,B|436:116|436:116|420:80,1,80.5000015354157,2|8,0:0|0:0,0:0:0:0:
336,56,105936,6,0,B|288:76|228:52|228:52|196:48|160:80,1,161.000003070831,2|8,0:0|3:0,0:0:0:0:
120,228,106669,6,0,B|176:212|176:212|228:252|308:252|364:196,1,231.000007049561,4|8,3:0|0:0,0:0:0:0:
356,184,107309,1,8,0:0:0:0:
360,152,107400,6,0,P|360:128|344:100,3,38.5000011749268,8|8|8|8,3:0|3:0|3:0|3:0,0:0:0:0:
324,80,107766,2,0,P|308:64|280:56,3,38.5000011749268,4|4|4|4,3:0|3:0|3:0|3:0,0:0:0:0:
244,56,108131,6,0,L|132:64,1,80.5000015354157,6|8,0:0|0:0,0:0:0:0:
76,108,108498,2,0,P|60:152|80:208,1,80.5000015354157,2|8,0:0|0:0,0:0:0:0:
112,272,108864,6,0,B|176:260|176:260|216:276|216:276|300:264,1,161.000003070831,2|2,0:0|0:0,0:0:0:0:
356,312,109412,1,8,0:0:0:0:
448,276,109595,6,0,B|440:248|416:228|396:216|396:216|416:168|408:104,1,161.000003070831,2|2,0:0|0:0,0:0:0:0:
368,52,110143,1,8,0:0:0:0:
272,68,110326,6,0,L|160:80,1,80.5000015354157,2|8,0:0|0:0,0:0:0:0:
100,180,110692,2,0,L|184:188,1,80.5000015354157,2|8,0:0|0:0,0:0:0:0:
256,248,111058,6,0,P|292:328|368:348,1,161.000003070831,2|2,0:0|0:0,0:0:0:0:
352,252,111606,1,8,0:0:0:0:
448,256,111790,6,0,P|412:176|336:156,1,161.000003070831,2|2,0:0|0:0,0:0:0:0:
252,168,112339,1,8,0:0:0:0:
204,252,112522,6,0,B|163:250|163:250|94:226,1,80.5000015354157,2|8,0:0|0:0,0:0:0:0:
34,209,112887,2,0,P|9:227|-27:244,2,40.2500007677078,2|2|8,0:0|0:0|0:0,0:0:0:0:
109,148,113253,2,0,P|159:143|219:112,1,80.5000015354157,2|8,0:0|0:0,0:0:0:0:
232,47,113619,2,0,P|210:33|167:23,2,40.2500007677078,2|0|8,0:0|0:0|0:0,0:0:0:0:
300,116,113985,5,6,0:0:0:0:
