osu file format v14

[General]
AudioFilename: Rise Against - Making Christmas.mp3
AudioLeadIn: 0
PreviewTime: 80325
Countdown: 0
SampleSet: Soft
StackLeniency: 0.7
Mode: 0
LetterboxInBreaks: 0
WidescreenStoryboard: 0

[Editor]
Bookmarks: 41131,45156,63814,67473,79546,86863,91985,94180,105339,107351,113205
DistanceSpacing: 0.9
BeatDivisor: 2
GridSize: 4
TimelineZoom: 1.44

[Metadata]
Title:Making Christmas
TitleUnicode:Making Christmas
Artist:Rise Against
ArtistUnicode:Rise Against
Creator:BOUYAAA
Version:Easy
Source:
Tags:The Nightmare Revisited pishifat the nightmare before christmas
BeatmapID:709269
BeatmapSetID:247165

[Difficulty]
HPDrainRate:3
CircleSize:3
OverallDifficulty:3
ApproachRate:3
SliderMultiplier:1
SliderTickRate:2

[Events]
//Background and Video events
0,0,"Nightmare Revisited.png",0,0
//Break Periods
2,64795,66814
//Storyboard Layer 0 (Background)
//Storyboard Layer 1 (Fail)
//Storyboard Layer 2 (Pass)
//Storyboard Layer 3 (Foreground)
//Storyboard Sound Samples

[TimingPoints]
1308,365.853658536585,4,2,2,60,1,0
7161,-100,4,2,2,50,0,0
8625,-100,4,2,2,40,0,0
8807,-100,4,2,2,45,0,0
8990,-100,4,2,2,50,0,0
9173,-100,4,2,2,55,0,0
9356,-100,4,2,2,60,0,0
9722,-100,4,2,2,70,0,0
10454,-100,4,2,2,60,0,0
29112,365.853658536585,3,2,2,60,1,0
31307,365.853658536585,4,2,2,60,1,0
41550,-100,4,2,2,40,0,0
41916,-100,4,2,2,45,0,0
42282,-100,4,2,2,50,0,0
42648,-100,4,2,2,55,0,0
43014,-100,4,2,2,60,0,0
43380,-100,4,2,2,65,0,0
43746,-100,4,2,2,70,0,0
45941,-100,4,2,2,60,0,0
48867,365.853658536585,3,2,2,60,1,0
49964,365.853658536585,4,2,2,60,1,0
53621,365.853658536585,4,2,2,60,1,0
56547,365.853658536585,3,2,2,60,1,0
58742,365.853658536585,4,2,2,60,1,0
66059,365.853658536585,3,2,2,60,1,0
78132,-100,3,2,2,70,0,0
80327,365.853658536585,4,2,2,60,1,0
80509,-100,4,2,3,40,0,0
80692,-100,4,2,2,60,0,0
80875,-100,4,2,3,40,0,0
81058,-100,4,2,2,60,0,0
81241,-100,4,2,3,40,0,0
81424,-100,4,2,2,60,0,0
81973,-100,4,2,3,40,0,0
82156,-100,4,2,2,60,0,0
82705,-100,4,2,3,40,0,0
82887,-100,4,2,2,60,0,0
83802,-100,4,2,3,40,0,0
83985,-100,4,2,2,60,0,0
84168,-100,4,2,3,40,0,0
84351,-100,4,2,2,60,0,0
85266,-100,4,2,3,40,0,0
85448,-100,4,2,2,60,0,0
85631,-100,4,2,3,40,0,0
85814,-100,4,2,2,60,0,0
86363,-100,4,2,3,40,0,0
86546,-100,4,2,2,60,0,0
87644,-100,4,2,2,70,0,0
87826,-100,4,2,3,50,0,0
88009,-100,4,2,2,70,0,0
88192,-100,4,2,3,50,0,0
88375,-100,4,2,2,70,0,0
89290,-100,4,2,3,50,0,0
89473,-100,4,2,2,70,0,0
89656,-100,4,2,3,50,0,0
89839,-100,4,2,2,70,0,0
90753,-100,4,2,3,50,0,0
90936,-100,4,2,2,70,0,0
91119,-100,4,2,3,50,0,0
91302,-100,4,2,2,70,0,0
92217,-100,4,2,3,50,0,0
92400,-100,4,2,2,70,0,0
92583,-100,4,2,3,50,0,0
92766,-100,4,2,3,70,0,0
93497,-100,4,2,2,60,0,0
94961,-100,4,2,2,60,0,1
95144,-100,4,2,3,40,0,1
95326,-100,4,2,2,60,0,1
95509,-100,4,2,3,40,0,1
95692,-100,4,2,2,60,0,1
96607,-100,4,2,3,40,0,1
96790,-100,4,2,2,60,0,1
96973,-100,4,2,3,40,0,1
97156,-100,4,2,2,60,0,1
98070,-100,4,2,3,40,0,1
98253,-100,4,2,2,60,0,1
98436,-100,4,2,3,40,0,1
98619,-100,4,2,2,60,0,1
99534,-100,4,2,3,40,0,1
99717,-100,4,2,2,60,0,1
99900,-100,4,2,3,40,0,1
100083,-100,4,2,2,60,0,1
100997,-100,4,2,3,40,0,1
101180,-100,4,2,2,60,0,1
101363,-100,4,2,3,40,0,1
101546,-100,4,2,2,60,0,1
102461,-100,4,2,3,40,0,1
102644,-100,4,2,2,60,0,1
102826,-100,4,2,3,40,0,1
103009,-100,4,2,2,60,0,1
103924,-100,4,2,3,40,0,1
104107,-100,4,2,2,60,0,1
104290,-100,4,2,3,40,0,1
104473,-100,4,2,2,60,0,1
105387,-100,4,2,3,40,0,1
105570,-100,4,2,2,60,0,1
105753,-100,4,2,3,40,0,1
105936,-100,4,2,2,60,0,1
106302,-100,4,2,2,60,0,0
106668,-100,4,2,2,60,0,0
108131,-100,4,2,2,70,0,1
108314,-100,4,2,3,50,0,1
108497,-100,4,2,2,70,0,1
109046,-100,4,2,3,50,0,1
109229,-100,4,2,2,70,0,1
109778,-100,4,2,3,50,0,1
109961,-100,4,2,2,70,0,1
110509,-100,4,2,3,50,0,1
110692,-100,4,2,2,70,0,1
111241,-100,4,2,3,50,0,1
111424,-100,4,2,2,70,0,1
111973,-100,4,2,3,50,0,1
112156,-100,4,2,2,70,0,1
112705,-100,4,2,3,50,0,1
112887,-100,4,2,2,70,0,1
113436,-100,4,2,3,50,0,1
113619,-100,4,2,2,70,0,1
113985,-100,4,2,2,60,0,0

[Colours]
Combo1 : 116,108,136
Combo2 : 170,64,64
Combo3 : 82,96,150
Combo4 : 196,141,87

[HitObjects]
160,136,4234,6,0,B|216:112|216:112|296:160|376:112,1,200,6|2,0:0|0:0,0:0:0:0:
416,184,5332,1,8,0:0:0:0:
352,248,5698,2,0,B|296:272|296:272|216:224|136:272,1,200,2|2,0:0|0:0,0:0:0:0:
84,304,6795,1,8,0:0:0:0:
72,216,7161,6,0,P|112:128|216:112,1,200,6|8,0:0|0:0,0:0:0:0:
280,160,8259,1,8,3:0:0:0:
276,248,8625,2,0,P|204:313|102:287,1,200,12|8,0:0|0:0,0:0:0:0:
64,220,9722,5,2,0:0:0:0:
88,132,10088,2,0,B|136:116|136:116|228:112,1,100,6|8,0:0|0:0,0:0:0:0:
272,140,10820,1,2,0:0:0:0:
452,136,11551,2,0,L|444:240,1,100,2|8,0:0|0:0,0:0:0:0:
400,312,12283,1,2,0:0:0:0:
312,324,12649,1,8,0:0:0:0:
232,284,13015,2,0,B|240:208|240:208|224:144|224:144|232:48,1,200,2|2,0:0|0:0,0:0:0:0:
408,76,14478,6,0,B|424:124|424:124|416:208,1,100,2|8,0:0|0:0,0:0:0:0:
380,256,15210,2,0,L|396:376,1,100,2|8,0:0|0:0,0:0:0:0:
304,364,15942,2,0,L|292:260,1,100,2|8,0:0|0:0,0:0:0:0:
244,188,16673,2,0,P|200:184|148:208,1,100,2|8,0:0|0:0,0:0:0:0:
76,260,17405,6,0,P|8:192|24:84,1,200,2|2,0:0|0:0,0:0:0:0:
184,32,18868,2,0,B|192:84|192:84|180:144,1,100,2|8,0:0|0:0,0:0:0:0:
192,220,19600,2,0,P|244:224|288:200,1,100,2|8,0:0|0:0,0:0:0:0:
352,140,20332,6,0,P|396:248|352:328,1,200,2|2,0:0|0:0,0:0:0:0:
184,328,21795,2,0,P|140:220|184:140,1,200,2|2,0:0|0:0,0:0:0:0:
352,148,23259,1,2,0:0:0:0:
440,160,23625,2,0,P|400:72|292:84,1,200,8|8,0:0|0:0,0:0:0:0:
244,136,24722,6,0,B|252:216|252:216|236:284|236:284|244:360,1,200,2|2,0:0|0:0,0:0:0:0:
60,332,26186,2,0,B|65:282|65:282|49:214|49:214|57:134,1,200,2|2,0:0|0:0,0:0:0:0:
116,68,27283,1,8,0:0:0:0:
200,36,27649,2,0,P|256:36|296:52,1,100,2|8,0:0|0:0,0:0:0:0:
448,148,28747,5,12,0:0:0:0:
496,224,29112,2,0,B|496:276|496:276|464:352,1,100,4|12,0:0|0:0,0:0:0:0:
400,364,29844,1,4,0:0:0:0:
308,364,30210,2,0,P|248:312|240:184,1,200,8|0,0:0|1:0,0:0:0:0:
244,108,31307,6,0,P|202:49|74:25,1,200,6|8,0:0|0:0,0:0:0:0:
0,184,32771,2,0,P|41:242|169:266,1,200,8|8,0:0|0:0,0:0:0:0:
332,216,34234,5,14,0:0:0:0:
372,296,34600,2,0,B|428:296|428:296|496:308,2,100,8|2|4,0:0|0:0|3:0,0:0:0:0:
284,312,35698,5,4,0:0:0:0:
200,348,36064,1,8,0:0:0:0:
212,260,36429,1,2,0:0:0:0:
344,140,37161,5,2,0:0:0:0:
420,92,37527,1,8,0:0:0:0:
339,52,37893,1,2,0:0:0:0:
164,96,38625,6,0,B|108:104|108:104|44:92,2,100,2|8|2,0:0|0:0|0:0,0:0:0:0:
344,76,40088,5,2,0:0:0:0:
420,124,40453,1,8,0:0:0:0:
452,208,40819,2,0,L|448:320,1,100,2|8,0:0|0:0,0:0:0:0:
368,348,41550,6,0,L|360:244,1,100,6|6,0:0|0:0,0:0:0:0:
324,168,42282,6,0,L|200:180,1,100,6|6,0:0|0:0,0:0:0:0:
148,224,43014,6,0,L|156:336,1,100,6|6,0:0|0:0,0:0:0:0:
72,356,43746,6,0,P|24:280|80:140,1,200,6|8,0:0|0:3,0:0:0:0:
224,176,45209,1,0,0:0:0:0:
316,20,45941,6,0,P|400:44|456:156,1,200,6|0,0:0|0:0,0:0:0:0:
348,280,47404,2,0,B|294:276|254:252|254:252|222:276|158:284,1,200
72,128,48867,6,2,B|136:108|136:108|208:116|208:116|268:88,1,200,2|0,0:0|0:0,0:0:0:0:
352,72,49964,1,2,0:0:0:0:
424,128,50329,1,0,0:0:0:0:
432,216,50695,2,0,P|392:288|352:300,1,100
292,316,51427,6,0,L|188:324,1,100,0|0,0:0|0:0,0:0:0:0:
160,240,52159,2,0,L|280:232,1,100,0|0,0:0|0:0,0:0:0:0:
420,148,53255,5,4,0:0:0:0:
376,72,53621,2,0,B|312:60|312:60|280:68|280:68|180:52,1,200
92,76,54718,1,0,0:0:0:0:
56,156,55084,2,0,B|56:208|56:208|80:268,1,100,0|4,0:0|3:0,0:0:0:0:
228,148,56181,5,0,0:0:0:0:
300,96,56547,2,0,P|392:100|428:200,1,200,0|0,0:0|0:0,0:0:0:0:
436,280,57644,2,0,P|344:276|308:176,1,200,0|0,0:0|0:0,0:0:0:0:
300,96,58742,6,0,L|100:104,1,200,2|8,0:0|0:0,0:0:0:0:
64,188,59839,1,4,0:0:0:0:
156,192,60205,6,0,L|364:208,1,200,4|8,3:0|0:0,0:0:0:0:
444,232,61303,1,4,0:0:0:0:
384,300,61669,6,0,L|176:308,1,200,6|8,0:0|0:0,0:0:0:0:
104,264,62766,1,2,0:0:0:0:
132,180,63132,6,0,B|144:136|144:136|148:64,2,100,2|2|8,0:0|0:0|0:0,0:0:0:0:
104,264,64229,1,2,0:0:0:0:
136,348,64595,5,4,0:0:0:0:
128,112,68254,6,0,B|192:88|192:88|272:128|352:80,1,200,6|2,0:0|0:0,0:0:0:0:
408,108,69351,2,4,P|432:200|392:300,1,200,2|2,0:0|0:0,0:0:0:0:
316,336,70449,2,4,L|204:344,1,100,2|2,0:0|0:0,0:0:0:0:
128,344,71180,1,0,0:0:0:0:
68,276,71547,5,4,0:0:0:0:
128,208,71912,2,8,L|236:220,1,100,8|8,3:0|3:0,3:0:0:0:
312,252,72644,1,4,3:0:0:0:
400,236,73010,1,4,3:0:0:0:
436,152,73376,1,4,3:0:0:0:
376,84,73741,6,4,B|320:68|272:84|272:84|208:108|132:56,1,200,6|2,0:0|0:0,0:0:0:0:
104,128,74839,2,0,P|164:260|340:212,1,300,8|4,3:0|3:0,0:0:0:0:
372,88,76669,5,4,3:0:0:0:
444,140,77034,2,0,B|428:204|428:204|452:308|452:308|436:364,1,200,6|2,0:0|0:0,0:0:0:0:
360,304,78132,6,0,L|240:296,1,100,8|8,0:0|3:0,0:0:0:0:
240,208,78863,2,0,L|352:216,1,100,8|8,3:0|0:0,0:0:0:0:
348,124,79595,2,0,L|220:116,1,100,8|8,0:0|0:0,0:0:0:0:
168,80,80327,22,0,B|152:136|104:168|104:168|112:232|144:280|144:280|112:360,1,300,6|2,0:0|0:0,0:0:0:0:
208,340,81790,2,0,B|256:328|256:328|352:340,1,100,2|2,0:0|0:0,0:0:0:0:
396,320,82521,2,0,P|412:272|404:200,1,100,2|2,0:0|0:0,0:0:0:0:
384,136,83253,5,6,0:0:0:0:
312,84,83619,2,0,B|240:108|240:108|184:96|184:96|88:124,1,200,2|2,0:0|0:0,0:0:0:0:
60,180,84716,5,2,0:0:0:0:
80,264,85082,2,0,B|152:240|152:240|248:256|248:256|304:224,1,200,2|2,0:0|0:0,0:0:0:0:
332,176,86180,2,0,P|276:152|228:168,1,100,2|2,0:0|0:0,0:0:0:0:
64,128,87277,5,8,0:0:0:0:
124,64,87644,2,0,B|204:56|204:56|276:64|276:64|340:56,1,200,6|2,0:0|0:0,0:0:0:0:
412,80,88741,1,2,0:0:0:0:
480,140,89107,6,0,P|500:244|448:332,1,200,6|2,0:0|0:0,0:0:0:0:
372,352,90205,1,2,0:0:0:0:
296,304,90570,6,0,B|204:296|204:296|88:320,1,200,6|2,0:0|0:0,0:0:0:0:
16,352,91668,1,2,0:0:0:0:
28,264,92034,6,0,B|36:192|36:192|24:140|24:140|40:28,1,200,6|4,0:0|3:0,0:0:0:0:
212,40,93497,6,0,B|196:152|196:152|164:201|164:201|155:330,1,300,4|8,3:0|0:0,0:0:0:0:
244,332,94960,6,4,B|348:316|348:316|448:320,1,200,6|2,0:0|0:0,0:0:0:0:
476,236,96058,1,2,0:0:0:0:
416,168,96424,6,0,P|308:120|192:144,1,200,2|2,0:0|0:0,0:0:0:0:
152,176,97521,1,2,0:0:0:0:
96,248,97887,6,0,P|64:144|168:84,1,200,2|2,0:0|0:0,0:0:0:0:
212,84,98985,1,2,0:0:0:0:
264,156,99351,6,0,B|344:148|344:148|416:108|416:108|496:124,1,200,2|8,0:0|0:0,0:0:0:0:
452,204,100448,1,8,0:0:0:0:
404,280,100814,6,0,L|176:276,1,200,6|2,0:0|0:0,0:0:0:0:
116,264,101911,1,2,0:0:0:0:
56,196,102277,6,0,B|116:152|176:196|176:196|280:200,1,200,2|2,0:0|0:0,0:0:0:0:
336,200,103375,1,2,0:0:0:0:
388,272,103741,6,0,P|424:204|324:116,1,200,2|2,0:0|0:0,0:0:0:0:
268,144,104838,1,2,0:0:0:0:
268,236,105204,6,0,B|188:228|176:156|176:156|68:144,1,200,2|2,0:0|0:0,0:0:0:0:
268,64,106668,6,0,P|372:96|396:288,1,300,4|4,3:0|3:0,0:0:0:0:
332,312,108131,6,0,L|228:320,1,100,6|2,0:0|0:0,0:0:0:0:
144,308,108863,2,0,P|112:228|120:164,1,100,2|2,0:0|0:0,0:0:0:0:
144,132,109595,6,0,L|272:148,1,100,2|2,0:0|0:0,0:0:0:0:
252,236,110326,2,0,P|324:196|324:132,1,100,2|2,0:0|0:0,0:0:0:0:
324,96,111058,6,0,P|276:56|204:64,1,100,2|2,0:0|0:0,0:0:0:0:
164,100,111790,2,0,P|148:148|180:212,1,100,2|2,0:0|0:0,0:0:0:0:
212,268,112521,6,0,L|340:316,1,100,2|2,0:0|0:0,0:0:0:0:
320,216,113253,2,0,L|456:264,1,100,2|2,0:0|0:0,0:0:0:0:
460,328,113985,5,6,0:0:0:0:
