osu file format v14

[General]
AudioFilename: audio.mp3
AudioLeadIn: 0
PreviewTime: 53527
Countdown: 0
SampleSet: Normal
StackLeniency: 0.7
Mode: 1
LetterboxInBreaks: 0
WidescreenStoryboard: 1

[Editor]
DistanceSpacing: 1.3
BeatDivisor: 2
GridSize: 32
TimelineZoom: 1.9

[Metadata]
Title:Help Is On The Way
TitleUnicode:Help Is On The Way
Artist:Rise Against
ArtistUnicode:Rise Against
Creator:QEpicAce
Version:Futsuu
Source:
Tags:
BeatmapID:1576685
BeatmapSetID:748428

[Difficulty]
HPDrainRate:6
CircleSize:3.5
OverallDifficulty:3.5
ApproachRate:9
SliderMultiplier:1.6
SliderTickRate:1

[Events]
//Background and Video events
0,0,"Konachan.com - 183654 anthropomorphism black_hair bow ddddddd dress goth-loli headdress isolated_island_oni kantai_collection lolita_fashion long_hair red_eyes.jpg",0,0
//Break Periods
//Storyboard Layer 0 (Background)
//Storyboard Layer 1 (Fail)
//Storyboard Layer 2 (Pass)
//Storyboard Layer 3 (Foreground)
//Storyboard Sound Samples

[TimingPoints]
243.929245761781,555.144337527757,4,1,0,100,1,0
53527,-100,4,1,0,100,0,1
72987,-100,4,1,0,100,0,0
73096,555.144337527757,4,1,0,100,1,8
73545,555.144337527757,4,1,0,100,1,0
104623,-100,4,1,0,100,0,1
120175,-100,4,1,0,100,0,0
123849.385443313,402.144772117962,4,1,0,100,1,0
142760,402.144772117962,4,1,0,100,1,8
143554,405.405405405405,4,1,0,100,1,0
182088.976642324,407.52564015486,4,1,0,100,1,0
206520,295.566502463054,4,1,0,100,1,8
208345,550.45871559633,4,1,0,100,1,8
216326,550.45871559633,4,1,0,100,1,8
217172,550.45871559633,4,1,0,100,1,8
223825,277.777777777778,4,1,0,100,1,9
223925,-111.111111111111,4,1,0,100,0,9

[HitObjects]
256,192,8977,5,0,0:0:0:0:
256,192,9393,1,0,0:0:0:0:
256,192,9671,1,0,0:0:0:0:
256,192,10226,1,0,0:0:0:0:
256,192,10781,1,0,0:0:0:0:
256,192,11198,1,8,0:0:0:0:
256,192,11614,1,8,0:0:0:0:
256,192,11891,1,8,0:0:0:0:
256,192,12447,1,8,0:0:0:0:
256,192,13002,1,12,0:0:0:0:
256,192,13418,1,0,0:0:0:0:
256,192,13834,1,8,0:0:0:0:
256,192,14112,1,8,0:0:0:0:
256,192,14667,1,4,0:0:0:0:
256,192,15639,1,8,0:0:0:0:
256,192,16055,1,0,0:0:0:0:
256,192,16333,1,0,0:0:0:0:
256,192,16888,1,12,0:0:0:0:
256,192,17998,5,4,0:0:0:0:
256,192,18553,1,8,0:0:0:0:
256,192,19108,1,8,0:0:0:0:
256,192,19663,1,0,0:0:0:0:
256,192,20219,1,8,0:0:0:0:
256,192,20774,1,8,0:0:0:0:
256,192,21329,1,0,0:0:0:0:
256,192,21884,1,0,0:0:0:0:
256,192,22439,1,12,0:0:0:0:
256,192,23549,5,0,0:0:0:0:
256,192,23827,1,0,0:0:0:0:
256,192,24105,1,0,0:0:0:0:
256,192,24660,1,8,0:0:0:0:
256,192,24937,1,8,0:0:0:0:
256,192,25215,1,8,0:0:0:0:
256,192,25770,1,0,0:0:0:0:
256,192,26048,1,8,0:0:0:0:
256,192,26325,1,0,0:0:0:0:
256,192,26880,1,8,0:0:0:0:
256,192,27158,1,0,0:0:0:0:
256,192,27436,1,8,0:0:0:0:
256,192,27991,1,0,0:0:0:0:
256,192,28268,1,0,0:0:0:0:
256,192,28546,1,8,0:0:0:0:
256,192,29101,1,0,0:0:0:0:
256,192,29379,1,8,0:0:0:0:
256,192,29656,1,0,0:0:0:0:
256,192,30766,5,0,0:0:0:0:
256,192,31044,1,0,0:0:0:0:
256,192,31322,1,12,0:0:0:0:
256,192,31877,1,0,0:0:0:0:
256,192,32432,1,4,0:0:0:0:
256,192,32987,1,8,0:0:0:0:
256,192,33542,1,4,0:0:0:0:
256,192,34097,1,4,0:0:0:0:
256,192,34652,1,8,0:0:0:0:
256,192,35208,1,8,0:0:0:0:
256,192,35763,1,0,0:0:0:0:
256,192,36318,1,12,0:0:0:0:
256,192,36873,1,8,0:0:0:0:
256,192,37428,1,8,0:0:0:0:
256,192,37983,1,4,0:0:0:0:
256,192,39094,5,0,0:0:0:0:
256,192,39371,1,8,0:0:0:0:
256,192,39649,1,0,0:0:0:0:
256,192,39926,1,8,0:0:0:0:
256,192,40204,1,4,0:0:0:0:
256,192,41869,5,0,0:0:0:0:
256,192,42147,1,0,0:0:0:0:
256,192,42424,1,0,0:0:0:0:
256,192,42980,1,8,0:0:0:0:
256,192,43257,1,8,0:0:0:0:
256,192,43535,1,8,0:0:0:0:
256,192,44090,1,8,0:0:0:0:
256,192,44367,1,8,0:0:0:0:
256,192,44645,1,12,0:0:0:0:
256,192,45200,1,0,0:0:0:0:
256,192,45478,1,0,0:0:0:0:
256,192,45755,1,0,0:0:0:0:
256,192,46310,1,0,0:0:0:0:
256,192,46588,1,0,0:0:0:0:
256,192,46866,1,8,0:0:0:0:
256,192,47143,1,8,0:0:0:0:
256,192,47421,1,8,0:0:0:0:
256,192,47698,1,8,0:0:0:0:
256,192,47976,1,4,0:0:0:0:
256,192,49086,5,12,0:0:0:0:
256,192,49641,1,4,0:0:0:0:
256,192,50196,1,4,0:0:0:0:
256,192,50752,1,4,0:0:0:0:
256,192,51307,1,4,0:0:0:0:
0,192,51862,2,0,L|288:192,1,280
256,192,53527,1,0,0:0:0:0:
256,192,54082,1,8,0:0:0:0:
256,192,54638,1,0,0:0:0:0:
256,192,54915,1,0,0:0:0:0:
256,192,55193,1,0,0:0:0:0:
256,192,55470,1,4,0:0:0:0:
256,192,56025,1,0,0:0:0:0:
256,192,56581,1,8,0:0:0:0:
256,192,56858,1,0,0:0:0:0:
256,192,57968,5,8,0:0:0:0:
256,192,58524,1,0,0:0:0:0:
256,192,59079,1,8,0:0:0:0:
256,192,59356,1,8,0:0:0:0:
256,192,59634,1,8,0:0:0:0:
256,192,59911,1,12,0:0:0:0:
256,192,61299,5,0,0:0:0:0:
256,192,61854,1,0,0:0:0:0:
256,192,62410,1,0,0:0:0:0:
256,192,62965,1,8,0:0:0:0:
256,192,63520,1,8,0:0:0:0:
256,192,64075,1,8,0:0:0:0:
256,192,64630,1,0,0:0:0:0:
256,192,65185,1,0,0:0:0:0:
256,192,65740,1,4,0:0:0:0:
256,192,66018,1,12,0:0:0:0:
256,192,66296,1,4,0:0:0:0:
256,192,66851,1,0,0:0:0:0:
256,192,67406,1,0,0:0:0:0:
256,192,67961,1,8,0:0:0:0:
256,192,68239,1,0,0:0:0:0:
256,192,68516,1,8,0:0:0:0:
256,192,68794,1,0,0:0:0:0:
256,192,69071,1,12,0:0:0:0:
256,192,69904,1,0,0:0:0:0:
256,192,70182,1,4,0:0:0:0:
256,192,71014,1,8,0:0:0:0:
256,192,71291,1,0,0:0:0:0:
32,192,72402,6,0,L|192:192,1,140
256,192,73535,1,4,0:0:0:0:
256,192,74091,1,0,0:0:0:0:
256,192,74646,1,0,0:0:0:0:
256,192,75201,1,8,0:0:0:0:
256,192,75756,1,0,0:0:0:0:
256,192,76311,1,0,0:0:0:0:
256,192,76866,1,0,0:0:0:0:
256,192,77421,1,8,0:0:0:0:
256,192,77977,1,0,0:0:0:0:
256,192,78532,1,0,0:0:0:0:
256,192,79087,1,0,0:0:0:0:
256,192,79642,1,8,0:0:0:0:
256,192,80197,1,8,0:0:0:0:
256,192,80752,1,0,0:0:0:0:
256,192,81308,1,0,0:0:0:0:
256,192,81863,1,8,0:0:0:0:
256,192,82140,1,8,0:0:0:0:
256,192,82418,1,12,0:0:0:0:
256,192,83528,5,0,0:0:0:0:
256,192,84083,1,8,0:0:0:0:
256,192,84361,1,0,0:0:0:0:
256,192,84638,1,8,0:0:0:0:
256,192,85194,1,0,0:0:0:0:
256,192,85749,1,0,0:0:0:0:
256,192,86026,1,8,0:0:0:0:
256,192,86304,1,0,0:0:0:0:
256,192,86859,1,8,0:0:0:0:
256,192,87414,1,8,0:0:0:0:
256,192,87969,1,8,0:0:0:0:
256,192,88247,1,8,0:0:0:0:
256,192,88524,1,0,0:0:0:0:
256,192,89080,1,8,0:0:0:0:
256,192,89635,1,0,0:0:0:0:
256,192,90190,1,0,0:0:0:0:
256,192,90467,1,8,0:0:0:0:
256,192,90745,1,8,0:0:0:0:
256,192,91300,1,12,0:0:0:0:
256,192,92133,5,0,0:0:0:0:
256,192,92410,1,0,0:0:0:0:
256,192,93243,1,8,0:0:0:0:
256,192,93521,1,8,0:0:0:0:
256,192,94353,1,0,0:0:0:0:
256,192,94631,1,8,0:0:0:0:
256,192,95464,1,8,0:0:0:0:
256,192,95741,1,0,0:0:0:0:
256,192,96852,5,0,0:0:0:0:
256,192,97684,1,0,0:0:0:0:
256,192,97962,1,0,0:0:0:0:
256,192,98795,1,4,0:0:0:0:
256,192,99072,1,4,0:0:0:0:
256,192,99905,1,12,0:0:0:0:
256,192,100182,1,12,0:0:0:0:
256,192,100738,1,4,0:0:0:0:
256,192,101293,1,4,0:0:0:0:
256,192,101848,1,4,0:0:0:0:
256,192,102403,1,0,0:0:0:0:
256,192,102681,1,8,0:0:0:0:
256,192,102958,1,0,0:0:0:0:
160,192,103513,2,0,L|352:192,1,140
256,192,104624,1,0,0:0:0:0:
256,192,105179,1,0,0:0:0:0:
256,192,105734,1,0,0:0:0:0:
256,192,106289,1,0,0:0:0:0:
256,192,106566,1,4,0:0:0:0:
256,192,107677,5,0,0:0:0:0:
256,192,107955,1,12,0:0:0:0:
256,192,108787,1,8,0:0:0:0:
256,192,109065,1,8,0:0:0:0:
256,192,109620,1,8,0:0:0:0:
256,192,110175,1,8,0:0:0:0:
256,192,110730,1,8,0:0:0:0:
256,192,111008,1,12,0:0:0:0:
256,192,112118,5,8,0:0:0:0:
256,192,112396,1,4,0:0:0:0:
256,192,113228,1,0,0:0:0:0:
256,192,113506,1,0,0:0:0:0:
288,192,114061,1,2,0:0:0:0:
256,192,114616,1,2,0:0:0:0:
256,192,115171,1,0,0:0:0:0:
256,192,115726,1,0,0:0:0:0:
256,192,116282,1,8,0:0:0:0:
256,192,116837,1,0,0:0:0:0:
256,192,117114,1,8,0:0:0:0:
256,192,117392,1,0,0:0:0:0:
256,192,117947,1,0,0:0:0:0:
256,192,118502,1,0,0:0:0:0:
256,192,119057,1,0,0:0:0:0:
256,192,119612,1,8,0:0:0:0:
256,192,119890,1,8,0:0:0:0:
256,192,120168,1,4,0:0:0:0:
256,192,121972,5,12,0:0:0:0:
256,192,123852,5,0,0:0:0:0:
256,192,124251,1,0,0:0:0:0:
256,192,124653,1,0,0:0:0:0:
256,192,125457,1,0,0:0:0:0:
256,192,125860,1,0,0:0:0:0:
256,192,126262,1,0,0:0:0:0:
256,192,127066,1,12,0:0:0:0:
256,192,127468,1,0,0:0:0:0:
256,192,127669,1,0,0:0:0:0:
256,192,127870,1,0,0:0:0:0:
256,192,128675,1,4,0:0:0:0:
256,192,129077,1,8,0:0:0:0:
256,192,129278,1,8,0:0:0:0:
256,192,129479,1,8,0:0:0:0:
256,192,130283,5,0,0:0:0:0:
256,192,130685,1,0,0:0:0:0:
256,192,131087,1,8,0:0:0:0:
256,192,131289,1,8,0:0:0:0:
256,192,131490,1,8,0:0:0:0:
256,192,131892,1,0,0:0:0:0:
256,192,132294,1,0,0:0:0:0:
256,192,132696,1,8,0:0:0:0:
256,192,133098,1,0,0:0:0:0:
256,192,133500,1,4,0:0:0:0:
256,192,133903,1,8,0:0:0:0:
256,192,134104,1,8,0:0:0:0:
256,192,134305,1,8,0:0:0:0:
256,192,135109,5,12,0:0:0:0:
256,192,135511,1,0,0:0:0:0:
256,192,135712,1,0,0:0:0:0:
256,192,135913,1,0,0:0:0:0:
256,192,136516,1,8,0:0:0:0:
256,192,136718,1,8,0:0:0:0:
256,192,137120,1,0,0:0:0:0:
256,192,137522,1,0,0:0:0:0:
256,192,137924,1,0,0:0:0:0:
256,192,138326,1,8,0:0:0:0:
256,192,138728,1,0,0:0:0:0:
256,192,139130,1,0,0:0:0:0:
256,192,139533,1,0,0:0:0:0:
256,192,139935,1,12,0:0:0:0:
256,192,140337,1,0,0:0:0:0:
256,192,140538,1,0,0:0:0:0:
256,192,140739,1,0,0:0:0:0:
256,192,141543,5,4,0:0:0:0:
256,192,141945,1,8,0:0:0:0:
256,192,142146,1,8,0:0:0:0:
256,192,142348,1,8,0:0:0:0:
256,192,142951,1,0,0:0:0:0:
256,192,143152,1,0,0:0:0:0:
256,192,143554,1,8,0:0:0:0:
256,192,143959,1,0,0:0:0:0:
256,192,144364,1,8,0:0:0:0:
256,192,144770,1,0,0:0:0:0:
256,192,145175,1,8,0:0:0:0:
256,192,145581,1,8,0:0:0:0:
256,192,145986,1,8,0:0:0:0:
256,192,146391,1,0,0:0:0:0:
256,192,146797,1,0,0:0:0:0:
256,192,147202,1,8,0:0:0:0:
256,192,147608,1,8,0:0:0:0:
256,192,148013,1,0,0:0:0:0:
256,192,148418,1,0,0:0:0:0:
256,192,148824,1,0,0:0:0:0:
256,192,149229,1,4,0:0:0:0:
256,192,149432,1,12,0:0:0:0:
256,192,149635,1,4,0:0:0:0:
256,192,150445,5,0,0:0:0:0:
256,192,150851,1,0,0:0:0:0:
256,192,151256,1,0,0:0:0:0:
256,192,151662,1,0,0:0:0:0:
256,192,152067,1,0,0:0:0:0:
256,192,152472,1,8,0:0:0:0:
256,192,152675,1,8,0:0:0:0:
256,192,152878,1,8,0:0:0:0:
256,192,153689,5,8,0:0:0:0:
256,192,154094,1,8,0:0:0:0:
256,192,154499,1,8,0:0:0:0:
256,192,154905,1,8,0:0:0:0:
256,192,155310,1,8,0:0:0:0:
256,192,155691,1,0,0:0:0:0:
256,192,155893,1,0,0:0:0:0:
256,192,156096,1,0,0:0:0:0:
256,192,156501,1,0,0:0:0:0:
256,192,156907,1,8,0:0:0:0:
256,192,157312,1,0,0:0:0:0:
256,192,157718,1,8,0:0:0:0:
256,192,158123,1,0,0:0:0:0:
256,192,158529,1,0,0:0:0:0:
256,192,158731,1,8,0:0:0:0:
256,192,158934,1,0,0:0:0:0:
256,192,159137,1,8,0:0:0:0:
256,192,159314,1,12,0:0:0:0:
256,192,160175,5,12,0:0:0:0:
256,192,160986,5,0,0:0:0:0:
256,192,161391,1,0,0:0:0:0:
256,192,161797,1,8,0:0:0:0:
256,192,162202,1,8,0:0:0:0:
256,192,162608,1,0,0:0:0:0:
256,192,163013,1,0,0:0:0:0:
256,192,163418,1,8,0:0:0:0:
256,192,163824,1,8,0:0:0:0:
256,192,164229,1,0,0:0:0:0:
256,192,164635,1,0,0:0:0:0:
256,192,164837,1,0,0:0:0:0:
256,192,165040,1,0,0:0:0:0:
256,192,165445,1,0,0:0:0:0:
256,192,165851,1,4,0:0:0:0:
256,192,166662,5,4,0:0:0:0:
256,192,167472,5,12,0:0:0:0:
256,192,167878,1,0,0:0:0:0:
256,192,168283,1,0,0:0:0:0:
256,192,168486,1,0,0:0:0:0:
256,192,168689,1,0,0:0:0:0:
256,192,169094,1,8,0:0:0:0:
256,192,169905,5,0,0:0:0:0:
256,192,170310,1,0,0:0:0:0:
256,192,170716,1,8,0:0:0:0:
256,192,171121,1,0,0:0:0:0:
256,192,171526,1,8,0:0:0:0:
256,192,171729,1,8,0:0:0:0:
256,192,171932,1,8,0:0:0:0:
256,192,172337,1,0,0:0:0:0:
256,192,173148,5,8,0:0:0:0:
256,192,173553,1,0,0:0:0:0:
256,192,173756,1,0,0:0:0:0:
256,192,173959,1,0,0:0:0:0:
256,192,174364,1,8,0:0:0:0:
256,192,174972,1,8,0:0:0:0:
256,192,175175,1,4,0:0:0:0:
256,192,175581,1,0,0:0:0:0:
256,192,175986,1,0,0:0:0:0:
256,192,176391,1,8,0:0:0:0:
256,192,176594,1,0,0:0:0:0:
256,192,176797,1,8,0:0:0:0:
256,192,177202,1,0,0:0:0:0:
256,192,177608,1,0,0:0:0:0:
256,192,178013,1,0,0:0:0:0:
256,192,178418,1,4,0:0:0:0:
256,192,178621,1,12,0:0:0:0:
256,192,178824,1,4,0:0:0:0:
256,192,179635,5,0,0:0:0:0:
256,192,180040,1,0,0:0:0:0:
256,192,180445,1,0,0:0:0:0:
96,192,180851,2,0,L|544:192,1,420
256,192,182496,1,0,0:0:0:0:
256,192,182904,1,0,0:0:0:0:
256,192,183311,1,8,0:0:0:0:
256,192,183515,1,8,0:0:0:0:
256,192,183719,1,8,0:0:0:0:
256,192,184126,1,8,0:0:0:0:
256,192,184534,1,8,0:0:0:0:
256,192,184941,1,0,0:0:0:0:
256,192,185145,1,0,0:0:0:0:
256,192,185349,1,4,0:0:0:0:
256,192,186164,5,0,0:0:0:0:
256,192,186571,1,0,0:0:0:0:
256,192,186775,1,8,0:0:0:0:
256,192,186979,1,0,0:0:0:0:
256,192,187794,5,0,0:0:0:0:
256,192,188201,1,0,0:0:0:0:
256,192,188405,1,8,0:0:0:0:
256,192,188609,1,0,0:0:0:0:
256,192,189016,1,8,0:0:0:0:
256,192,189424,1,0,0:0:0:0:
256,192,189831,1,8,0:0:0:0:
256,192,190239,1,0,0:0:0:0:
256,192,190647,1,8,0:0:0:0:
256,192,191054,1,0,0:0:0:0:
256,192,191462,1,12,0:0:0:0:
256,192,191665,1,4,0:0:0:0:
256,192,191869,1,12,0:0:0:0:
256,192,192277,1,0,0:0:0:0:
256,192,192684,1,0,0:0:0:0:
256,192,193092,1,0,0:0:0:0:
256,192,193907,5,0,0:0:0:0:
256,192,194314,1,0,0:0:0:0:
256,192,194722,1,0,0:0:0:0:
256,192,195129,1,12,0:0:0:0:
256,192,195741,1,8,0:0:0:0:
256,192,195944,1,0,0:0:0:0:
256,192,196759,5,0,0:0:0:0:
256,192,197371,1,0,0:0:0:0:
256,192,197574,1,8,0:0:0:0:
256,192,198390,5,8,0:0:0:0:
256,192,199001,1,8,0:0:0:0:
256,192,199205,1,0,0:0:0:0:
256,192,199612,1,0,0:0:0:0:
256,192,200020,1,0,0:0:0:0:
256,192,200427,1,8,0:0:0:0:
256,192,200835,1,8,0:0:0:0:
256,192,201242,1,0,0:0:0:0:
256,192,201650,1,0,0:0:0:0:
256,192,202057,1,8,0:0:0:0:
256,192,202465,1,8,0:0:0:0:
256,192,202872,1,0,0:0:0:0:
256,192,203280,1,0,0:0:0:0:
256,192,203687,1,8,0:0:0:0:
256,192,204095,1,0,0:0:0:0:
256,192,204502,1,8,0:0:0:0:
256,192,204910,1,0,0:0:0:0:
256,192,205317,1,8,0:0:0:0:
256,192,205725,1,0,0:0:0:0:
256,192,206132,1,12,0:0:0:0:
256,192,206520,12,0,207997,0:0:0:0:
256,192,208345,5,0,0:0:0:0:
256,192,208895,1,0,0:0:0:0:
256,192,209445,1,0,0:0:0:0:
256,192,209721,1,8,0:0:0:0:
256,192,209996,1,0,0:0:0:0:
256,192,210546,1,12,0:0:0:0:
256,192,211097,1,0,0:0:0:0:
256,192,211647,1,8,0:0:0:0:
256,192,212198,1,0,0:0:0:0:
256,192,212748,1,0,0:0:0:0:
256,192,213299,1,8,0:0:0:0:
256,192,213849,1,8,0:0:0:0:
224,192,214400,1,8,0:0:0:0:
224,192,214675,1,0,0:0:0:0:
224,192,214950,1,12,0:0:0:0:
256,192,215500,1,0,0:0:0:0:
256,192,216051,1,0,0:0:0:0:
256,192,217172,5,0,0:0:0:0:
256,192,217722,1,0,0:0:0:0:
256,192,218273,1,0,0:0:0:0:
256,192,218548,1,0,0:0:0:0:
256,192,218823,1,0,0:0:0:0:
256,192,219374,1,8,0:0:0:0:
224,192,219924,1,8,0:0:0:0:
256,192,220475,1,8,0:0:0:0:
256,192,220750,1,8,0:0:0:0:
256,192,221025,1,8,0:0:0:0:
256,192,221576,1,0,0:0:0:0:
256,192,222126,1,0,0:0:0:0:
256,192,222676,1,0,0:0:0:0:
256,192,223227,1,4,0:0:0:0:
256,192,223502,1,4,0:0:0:0:
256,192,223777,1,4,0:0:0:0:
256,192,224102,1,0,0:0:0:0:
256,192,224380,1,0,0:0:0:0:
256,192,224658,1,0,0:0:0:0:
256,192,224936,1,0,0:0:0:0:
256,192,225213,1,0,0:0:0:0:
256,192,225491,1,0,0:0:0:0:
256,160,226047,5,2,0:0:0:0:
256,160,226325,1,2,0:0:0:0:
256,160,226602,1,2,0:0:0:0:
256,160,226880,1,2,0:0:0:0:
256,160,227158,1,2,0:0:0:0:
256,160,227436,1,2,0:0:0:0:
256,160,227713,1,2,0:0:0:0:
256,160,227852,1,2,0:0:0:0:
256,160,227991,1,2,0:0:0:0:
256,160,228269,1,2,0:0:0:0:
256,160,228825,5,0,0:0:0:0:
256,192,229102,1,0,0:0:0:0:
256,192,229380,1,0,0:0:0:0:
256,192,229658,1,0,0:0:0:0:
256,192,229936,1,0,0:0:0:0:
224,192,230075,1,0,0:0:0:0:
224,192,230213,1,0,0:0:0:0:
256,192,230352,1,0,0:0:0:0:
256,192,230769,1,8,0:0:0:0:
256,192,231047,1,8,0:0:0:0:
256,192,231325,1,8,0:0:0:0:
256,192,231602,1,8,0:0:0:0:
256,192,231880,1,8,0:0:0:0:
256,192,232158,1,0,0:0:0:0:
256,192,232297,1,8,0:0:0:0:
256,192,232436,1,0,0:0:0:0:
256,192,232575,1,8,0:0:0:0:
