osu file format v14

[General]
AudioFilename: audio.mp3
AudioLeadIn: 0
PreviewTime: 9160
Countdown: 0
SampleSet: Normal
StackLeniency: 0.7
Mode: 0
LetterboxInBreaks: 0
WidescreenStoryboard: 1

[Editor]
Bookmarks: 9596,18917,28237,37558,46805,49135,58502,67822,85225,123723,142364,151664,160973
DistanceSpacing: 1.3
BeatDivisor: 4
GridSize: 32
TimelineZoom: 2.5

[Metadata]
Title:Give It All
TitleUnicode:Give It All
Artist:Rise Against
ArtistUnicode:Rise Against
Creator:Milan-
Version:Insane
Source:
Tags:punk metal rock bouyaaa
BeatmapID:1487700
BeatmapSetID:703130

[Difficulty]
HPDrainRate:5
CircleSize:4
OverallDifficulty:8
ApproachRate:9
SliderMultiplier:1.5
SliderTickRate:1

[Events]
//Background and Video events
0,0,"bg.jpg",0,0
//Break Periods
2,47078,47880
2,105282,122249
//Storyboard Layer 0 (Background)
//Storyboard Layer 1 (Fail)
//Storyboard Layer 2 (Pass)
//Storyboard Layer 3 (Foreground)
//Storyboard Sound Samples

[TimingPoints]
9597,291.26213592233,4,1,1,55,1,0
11344,-66.6666666666667,4,1,1,55,0,0
11927,-100,4,1,1,55,0,0
13092,-66.6666666666667,4,1,1,55,0,0
14257,-100,4,1,1,55,0,0
16004,-66.6666666666667,4,1,1,55,0,0
16587,-100,4,1,1,55,0,0
17752,-66.6666666666667,4,1,1,55,0,0
18917,-100,4,1,1,55,0,0
27072,-83.3333333333333,4,1,1,55,0,0
28237,-100,4,1,1,55,0,0
36393,-66.6666666666667,4,1,1,55,0,0
37558,-100,4,1,1,55,0,0
49182,291.26213592233,4,1,1,55,1,0
50929,-66.6666666666667,4,1,1,55,0,0
51512,-100,4,1,1,55,0,0
52677,-66.6666666666667,4,1,1,55,0,0
53842,-100,4,1,1,55,0,0
55589,-66.6666666666667,4,1,1,55,0,0
56172,-100,4,1,1,55,0,0
57337,-66.6666666666667,4,1,1,55,0,0
58502,-100,4,1,1,55,0,0
67240,-83.3333333333333,4,1,1,55,0,0
67822,-100,4,1,1,55,0,0
75978,-66.6666666666667,4,1,1,55,0,0
77143,-100,4,1,1,55,0,0
85283,291.26213592233,4,1,1,55,1,0
86442,582.52427184466,4,1,1,40,1,1
86442,-133.333333333333,4,1,1,40,0,1
105082,-111.111111111111,4,1,1,55,0,0
123703,291.26213592233,4,1,1,55,1,0
131858,-66.6666666666667,4,1,1,55,0,0
133023,-100,4,1,1,55,0,0
142343,-83.3333333333333,4,1,1,55,0,0
155159,-66.6666666666667,4,1,1,55,0,0
156324,-83.3333333333333,4,1,1,55,0,0
158071,-66.6666666666667,4,1,1,55,0,0
158654,-83.3333333333333,4,1,1,55,0,0
160693,-133.333333333333,4,1,1,55,0,0
169139,-133.333333333333,4,1,1,5,0,0

[Colours]
Combo1 : 17,254,176
Combo2 : 173,255,95
Combo3 : 255,88,100
Combo4 : 255,94,55

[HitObjects]
124,88,9160,5,8,0:0:0:0:
327,39,9305,1,8,0:0:0:0:
327,39,9596,6,0,B|318:81|314:124,1,75,6|2,0:0|0:0,0:0:0:0:
430,258,9888,2,0,P|419:183|415:108,1,150,8|6,0:0|0:0,0:0:0:0:
222,113,10325,1,2,0:0:0:0:
329,214,10470,2,0,P|266:210|170:211,1,150,8|6,0:0|0:0,0:0:0:0:
138,54,10907,1,2,0:0:0:0:
162,223,11053,2,0,P|204:229|242:234,1,75,8|0,0:0|0:0,0:0:0:0:
77,284,11344,6,0,P|53:234|65:180,1,112.500004291535,2|2,0:0|0:0,0:0:0:0:
323,174,11635,2,0,P|346:223|334:277,1,112.500004291535,10|2,0:0|0:0,0:0:0:0:
164,343,11927,6,0,P|200:338|244:329,1,75,6|2,0:0|0:0,0:0:0:0:
332,379,12218,1,8,0:0:0:0:
162,223,12509,6,0,P|204:229|242:234,1,75,6|2,0:0|0:0,0:0:0:0:
332,379,12800,1,8,0:0:0:0:
192,72,13092,6,0,P|223:117|276:131,1,112.500004291535,6|2,0:0|0:0,0:0:0:0:
486,59,13383,2,0,P|454:13|401:0,1,112.500004291535,10|2,0:0|0:0,0:0:0:0:
351,193,13674,2,0,B|401:164|401:164|415:93,1,112.500004291535,2|2,0:0|0:0,0:0:0:0:
129,7,13965,2,0,B|79:36|79:36|65:107,1,112.500004291535,14|2,0:0|0:0,0:0:0:0:
276,130,14257,6,0,P|247:114|196:94,1,75,6|2,0:0|0:0,0:0:0:0:
118,246,14548,2,0,P|210:225|297:219,1,150,8|6,0:0|0:0,0:0:0:0:
137,145,14985,1,0,0:0:0:0:
163,335,15130,2,0,P|237:326|310:308,1,150,8|6,0:0|0:0,0:0:0:0:
246,206,15567,1,2,0:0:0:0:
148,349,15713,2,0,P|116:339|62:331,1,75,8|0,0:0|0:0,0:0:0:0:
0,153,16004,6,0,P|44:223|104:220,1,112.500004291535,2|2,0:0|0:0,0:0:0:0:
204,81,16296,2,0,P|248:11|308:14,1,112.500004291535,10|2,0:0|0:0,0:0:0:0:
120,137,16587,5,6,0:0:0:0:
120,137,16732,1,2,0:0:0:0:
262,155,16878,1,8,0:0:0:0:
476,204,17169,5,6,0:0:0:0:
476,204,17315,1,2,0:0:0:0:
334,222,17461,1,8,0:0:0:0:
114,230,17752,6,0,L|232:250,1,112.500004291535,6|2,0:0|0:0,0:0:0:0:
478,295,18043,2,0,L|360:315,1,112.500004291535,10|2,0:0|0:0,0:0:0:0:
121,250,18334,2,0,B|171:279|171:279|185:350,1,112.500004291535,2|2,0:0|0:0,0:0:0:0:
390,288,18626,2,0,B|440:259|440:259|450:205,1,112.500004291535,14|2,0:0|0:0,0:0:0:0:
249,90,18917,6,0,P|255:120|266:193,1,75,6|0,0:0|0:0,0:0:0:0:
404,55,19208,2,0,P|389:108|362:234,1,150,8|2,0:0|0:0,0:0:0:0:
314,26,19645,1,0,0:0:0:0:
233,88,19791,2,0,P|196:83|141:69,1,75,8|0,0:0|0:0,0:0:0:0:
255,263,20082,2,0,P|264:205|270:183,1,75,2|0,0:0|0:0,0:0:0:0:
74,50,20373,2,0,P|65:108|59:130,1,75,10|0,0:0|0:0,0:0:0:0:
142,251,20664,5,2,0:0:0:0:
183,102,20810,1,2,0:0:0:0:
142,251,20956,1,10,0:0:0:0:
183,102,21101,1,2,0:0:0:0:
142,251,21247,6,0,P|109:257|47:263,1,75,6|0,0:0|0:0,0:0:0:0:
204,350,21538,2,0,P|246:352|296:357,1,75,8|0,0:0|0:0,0:0:0:0:
483,147,21830,2,0,P|450:153|388:159,1,75,2|0,0:0|0:0,0:0:0:0:
360,302,22121,2,0,P|352:263|342:219,1,75,8|0,0:0|0:0,0:0:0:0:
167,68,22412,5,6,0:0:0:0:
320,138,22558,1,2,0:0:0:0:
167,68,22703,1,10,0:0:0:0:
320,138,22849,1,2,0:0:0:0:
241,178,22995,5,6,0:0:0:0:
299,20,23140,1,2,0:0:0:0:
241,178,23286,1,10,0:0:0:0:
299,20,23431,1,2,0:0:0:0:
387,60,23577,6,0,P|393:90|404:163,1,75,6|0,0:0|0:0,0:0:0:0:
502,257,23868,2,0,P|450:246|349:231,1,150,8|0,0:0|0:0,0:0:0:0:
271,296,24305,1,0,0:0:0:0:
206,212,24451,2,0,P|169:207|114:193,1,75,8|0,0:0|0:0,0:0:0:0:
31,331,24742,2,0,P|36:294|45:258,1,75,2|0,0:0|0:0,0:0:0:0:
83,44,25033,2,0,P|74:102|68:124,1,75,10|0,0:0|0:0,0:0:0:0:
281,157,25325,5,2,0:0:0:0:
132,198,25470,1,2,0:0:0:0:
281,157,25616,1,10,0:0:0:0:
132,198,25762,1,2,0:0:0:0:
281,157,25907,6,0,P|287:189|293:252,1,75,6|0,0:0|0:0,0:0:0:0:
414,346,26198,2,0,P|456:348|506:353,1,75,8|0,0:0|0:0,0:0:0:0:
308,334,26490,2,0,P|275:340|213:346,1,75,2|0,0:0|0:0,0:0:0:0:
399,239,26781,2,0,P|391:200|381:156,1,75,8|0,0:0|0:0,0:0:0:0:
206,258,27072,5,4,0:0:0:0:
169,264,27145,1,0,0:0:0:0:
132,271,27218,1,0,0:0:0:0:
95,277,27291,1,0,0:0:0:0:
73,298,27363,1,0,0:0:0:0:
73,298,27436,1,0,0:0:0:0:
73,298,27509,1,0,0:0:0:0:
73,298,27582,1,0,0:0:0:0:
73,298,27655,6,0,P|67:279|64:227,1,44.999998626709,6|0,0:0|0:0,0:0:0:0:
73,85,27800,2,0,P|66:107|62:129,1,44.999998626709,2|0,0:0|0:0,0:0:0:0:
187,268,27946,2,0,P|170:213|171:193,1,44.999998626709,2|0,0:0|0:0,0:0:0:0:
211,71,28092,2,0,P|194:126|195:146,1,44.999998626709,2|0,0:0|0:0,0:0:0:0:
311,194,28237,6,0,P|378:174|466:153,2,150,6|8|0,0:0|0:0|0:0,0:0:0:0:
223,363,28965,1,0,0:0:0:0:
217,205,29111,2,0,P|241:275|247:301,1,75,8|0,0:0|0:0,0:0:0:0:
417,364,29402,6,0,P|427:328|437:284,1,75,2|0,0:2|0:0,0:0:0:0:
311,194,29694,2,0,P|318:154|326:102,1,75,10|0,0:2|0:0,0:0:0:0:
481,50,29985,1,2,0:2:0:0:
481,50,30130,1,0,0:0:0:0:
391,19,30276,2,0,P|351:25|297:36,1,75,10|0,0:2|0:0,0:0:0:0:
150,104,30567,6,0,P|92:98|-17:80,2,150,4|8|0,0:0|0:0|0:0,0:0:0:0:
217,32,31296,1,0,0:0:0:0:
149,124,31441,2,0,P|112:126|68:134,1,75,8|0,0:0|0:0,0:0:0:0:
238,193,31732,5,0,0:0:0:0:
291,111,31878,1,0,0:0:0:0:
238,193,32024,2,0,P|247:228|253:274,1,75,10|0,0:2|0:0,0:0:0:0:
373,153,32315,2,0,P|382:118|388:72,1,75,2|0,0:2|0:0,0:0:0:0:
160,244,32606,2,0,P|169:279|175:325,1,75,10|0,0:2|0:0,0:0:0:0:
363,243,32897,6,0,P|445:232|515:227,2,150,4|8|0,0:0|0:0|0:0,0:0:0:0:
460,112,33626,1,0,0:0:0:0:
373,153,33771,2,0,P|347:151|280:147,1,75,8|0,0:0|0:0,0:0:0:0:
442,274,34063,6,0,P|450:308|461:355,1,75,2|0,0:2|0:0,0:0:0:0:
196,234,34354,2,0,P|204:197|213:160,1,75,10|0,0:2|0:0,0:0:0:0:
363,243,34645,1,2,0:2:0:0:
284,300,34791,2,0,P|292:334|303:381,1,75,0|10,0:2|0:2,0:0:0:0:
363,243,35082,1,0,0:0:0:0:
189,331,35228,5,6,0:0:0:0:
111,272,35373,2,0,P|78:277|22:285,2,75,2|8|0,0:0|0:0|0:0,0:0:0:0:
275,90,35810,1,2,0:0:0:0:
138,149,35956,2,0,P|170:154|227:162,2,75,2|8|0,0:0|0:0|0:0,0:0:0:0:
305,182,36393,6,0,P|325:233|316:288,1,112.500004291535,6|2,0:0|0:0,0:0:0:0:
43,202,36684,2,0,P|22:150|31:95,1,112.500004291535,10|2,0:0|0:0,0:0:0:0:
225,302,36975,2,0,P|177:330|122:323,1,112.500004291535,10|2,0:0|0:0,0:0:0:0:
121,59,37266,2,0,P|168:30|223:37,1,112.500004291535,10|2,0:0|0:0,0:0:0:0:
305,182,37558,6,0,P|372:162|460:141,2,150,6|8|0,0:0|0:0|0:0,0:0:0:0:
416,251,38286,1,0,0:0:0:0:
295,195,38431,2,0,P|319:265|325:291,1,75,8|0,0:0|0:0,0:0:0:0:
175,323,38723,6,0,P|211:333|255:343,1,75,2|0,0:2|0:0,0:0:0:0:
201,156,39014,2,0,P|161:163|109:171,1,75,10|0,0:2|0:0,0:0:0:0:
87,287,39305,1,2,0:2:0:0:
219,243,39451,1,0,0:0:0:0:
87,287,39596,2,0,P|47:293|-7:304,1,75,10|0,0:2|0:0,0:0:0:0:
127,168,39888,6,0,P|114:94|106:19,2,150,4|8|0,0:0|0:0|0:0,0:0:0:0:
17,93,40616,1,0,0:0:0:0:
115,182,40762,2,0,P|78:184|34:192,1,75,8|0,0:0|0:0,0:0:0:0:
196,69,41053,5,0,0:0:0:0:
297,182,41198,1,0,0:0:0:0:
196,69,41344,2,0,P|205:104|211:150,1,75,10|0,0:2|0:0,0:0:0:0:
377,136,41635,2,0,P|386:101|392:55,1,75,2|0,0:2|0:0,0:0:0:0:
221,235,41927,2,0,P|230:270|236:316,1,75,10|0,0:2|0:0,0:0:0:0:
363,156,42218,6,0,P|445:167|515:172,2,150,4|8|0,0:0|0:0|0:0,0:0:0:0:
210,142,42946,1,0,0:0:0:0:
354,58,43092,2,0,P|325:69|273:87,1,75,8|0,0:0|0:0,0:0:0:0:
118,30,43383,6,0,P|159:43|209:57,1,75,2|0,0:2|0:0,0:0:0:0:
90,198,43674,2,0,P|98:161|107:124,1,75,10|0,0:2|0:0,0:0:0:0:
274,216,43965,1,2,0:2:0:0:
158,301,44111,2,0,P|166:264|175:227,1,75,0|10,0:2|0:2,0:0:0:0:
274,216,44402,1,0,0:0:0:0:
232,361,44548,5,6,0:0:0:0:
232,361,44694,1,2,0:0:0:0:
316,312,44839,2,0,P|356:314|390:317,1,75,10|2,0:0|0:0,0:0:0:0:
278,138,45130,1,2,0:0:0:0:
278,138,45276,1,2,0:0:0:0:
432,202,45422,2,0,P|392:204|357:207,1,75,10|2,0:0|0:0,0:0:0:0:
167,115,45713,5,6,0:0:0:0:
269,238,45859,1,8,0:0:0:0:
269,238,45931,1,8,0:0:0:0:
269,238,46004,1,8,0:0:0:0:
171,236,46150,1,8,0:0:0:0:
73,233,46296,5,8,0:0:0:0:
27,103,46441,1,8,0:0:0:0:
157,57,46587,1,8,0:0:0:0:
203,186,46732,1,8,0:0:0:0:
115,145,46878,5,4,0:0:0:0:
388,296,48480,5,2,0:2:0:0:
272,368,48626,1,8,0:0:0:0:
388,296,48771,5,2,0:2:0:0:
185,345,48917,1,4,0:0:0:0:
185,345,49182,6,0,B|194:303|198:260,1,75,6|2,0:0|0:0,0:0:0:0:
82,126,49473,2,0,P|93:201|97:276,1,150,8|6,0:0|0:0,0:0:0:0:
290,271,49910,1,2,0:0:0:0:
183,170,50055,2,0,P|246:174|342:173,1,150,8|6,0:0|0:0,0:0:0:0:
374,330,50492,1,2,0:0:0:0:
350,161,50638,2,0,P|308:155|270:150,1,75,8|0,0:0|0:0,0:0:0:0:
435,100,50929,6,0,P|459:150|447:204,1,112.500004291535,2|2,0:0|0:0,0:0:0:0:
189,210,51220,2,0,P|166:161|178:107,1,112.500004291535,10|2,0:0|0:0,0:0:0:0:
348,41,51512,6,0,P|312:46|268:55,1,75,6|2,0:0|0:0,0:0:0:0:
180,5,51803,1,8,0:0:0:0:
350,161,52094,6,0,P|308:155|270:150,1,75,6|2,0:0|0:0,0:0:0:0:
180,5,52385,1,8,0:0:0:0:
320,312,52677,6,0,P|289:267|236:253,1,112.500004291535,6|2,0:0|0:0,0:0:0:0:
26,325,52968,2,0,P|58:371|111:384,1,112.500004291535,10|2,0:0|0:0,0:0:0:0:
161,191,53259,2,0,B|111:220|111:220|97:291,1,112.500004291535,2|2,0:0|0:0,0:0:0:0:
383,377,53550,2,0,B|433:348|433:348|447:277,1,112.500004291535,14|2,0:0|0:0,0:0:0:0:
236,254,53842,6,0,P|265:270|316:290,1,75,6|2,0:0|0:0,0:0:0:0:
394,138,54133,2,0,P|302:159|215:165,1,150,8|6,0:0|0:0,0:0:0:0:
375,239,54570,1,2,0:0:0:0:
349,49,54715,2,0,P|275:58|202:76,1,150,8|6,0:0|0:0,0:0:0:0:
266,178,55152,1,2,0:0:0:0:
364,35,55298,2,0,P|396:45|450:53,1,75,8|0,0:0|0:0,0:0:0:0:
512,231,55589,6,0,P|468:161|408:164,1,112.500004291535,2|2,0:0|0:0,0:0:0:0:
308,303,55881,2,0,P|264:373|204:370,1,112.500004291535,10|2,0:0|0:0,0:0:0:0:
392,247,56172,5,6,0:0:0:0:
392,247,56317,1,2,0:0:0:0:
250,229,56463,1,8,0:0:0:0:
36,180,56754,5,6,0:0:0:0:
36,180,56900,1,2,0:0:0:0:
178,162,57046,1,8,0:0:0:0:
398,154,57337,6,0,L|280:134,1,112.500004291535,6|2,0:0|0:0,0:0:0:0:
34,89,57628,2,0,L|152:69,1,112.500004291535,10|2,0:0|0:0,0:0:0:0:
391,134,57919,2,0,B|341:105|341:105|327:34,1,112.500004291535,2|2,0:0|0:0,0:0:0:0:
122,96,58211,2,0,B|72:125|72:125|62:179,1,112.500004291535,14|2,0:0|0:0,0:0:0:0:
263,294,58502,6,0,P|257:264|246:191,1,75,6|0,0:0|0:0,0:0:0:0:
153,208,58793,2,0,P|159:238|170:311,1,75,8|0,0:0|0:0,0:0:0:0:
194,375,59084,2,0,P|158:368|105:363,1,75
263,294,59376,2,0,P|299:287|352:282,1,75,8|0,0:0|0:0,0:0:0:0:
354,117,59667,2,0,P|318:110|265:105,1,75
409,204,59958,2,0,P|445:197|498:192,1,75,8|0,0:0|0:0,0:0:0:0:
354,117,60249,5,2,0:0:0:0:
337,282,60395,1,2,0:0:0:0:
354,117,60541,1,10,0:0:0:0:
337,282,60686,1,2,0:0:0:0:
354,117,60832,6,0,P|360:60|358:27,1,75,6|0,0:0|0:0,0:0:0:0:
267,7,61123,2,0,P|225:5|175:0,1,75,8|0,0:0|0:0,0:0:0:0:
175,98,61415,2,0,P|217:100|267:105,1,75
91,56,61706,2,0,P|85:113|87:146,1,75,8|0,0:0|0:0,0:0:0:0:
39,258,61997,5,6,0:0:0:0:
169,189,62143,1,2,0:0:0:0:
39,258,62288,1,10,0:0:0:0:
169,189,62434,1,2,0:0:0:0:
174,276,62580,5,6,0:0:0:0:
342,309,62725,1,2,0:0:0:0:
174,276,62871,1,10,0:0:0:0:
342,309,63016,1,2,0:0:0:0:
270,242,63162,6,0,P|264:212|253:139,1,75,6|0,0:0|0:0,0:0:0:0:
435,137,63453,2,0,P|441:167|452:240,1,75,8|0,0:0|0:0,0:0:0:0:
353,182,63745,2,0,P|347:152|336:79,1,75
234,2,64036,2,0,P|241:38|247:75,1,75,8|0,0:0|0:0,0:0:0:0:
168,134,64327,2,0,P|131:142|95:151,1,75
270,242,64618,2,0,P|306:250|342:259,1,75,8|0,0:0|0:0,0:0:0:0:
174,237,64910,5,2,0:0:0:0:
247,75,65055,1,2,0:0:0:0:
174,237,65201,1,10,0:0:0:0:
247,75,65347,1,2,0:0:0:0:
174,237,65492,6,0,P|178:274|184:311,1,75,6|0,0:0|0:0,0:0:0:0:
107,370,65783,2,0,P|65:368|15:363,1,75,8|0,0:0|0:0,0:0:0:0:
175,149,66075,2,0,P|208:143|270:137,1,75
66,266,66366,2,0,P|73:229|81:192,1,75,8|0,0:0|0:0,0:0:0:0:
116,62,66657,5,4,0:0:0:0:
174,237,66803,1,0,0:0:0:0:
211,231,66876,1,0,0:0:0:0:
263,240,66948,1,0,0:0:0:0:
263,240,67021,1,0,0:0:0:0:
263,240,67094,1,0,0:0:0:0:
263,240,67167,1,0,0:0:0:0:
263,240,67240,6,0,P|269:259|272:311,1,44.999998626709,6|0,0:0|0:0,0:0:0:0:
419,353,67385,2,0,P|452:346|489:337,1,44.999998626709,2|0,0:0|0:0,0:0:0:0:
340,202,67531,2,0,P|346:221|349:273,1,44.999998626709,2|0,0:0|0:0,0:0:0:0:
444,260,67677,2,0,P|477:253|514:244,1,44.999998626709,2|0,0:0|0:0,0:0:0:0:
433,166,67822,6,0,P|422:91|408:10,2,150,6|8|0,0:0|0:0|0:0,0:0:0:0:
320,24,68550,1,0,0:0:0:0:
339,115,68696,2,0,P|308:106|262:97,1,75,8|0,0:0|0:0,0:0:0:0:
95,20,68987,6,0,P|85:56|75:100,1,75,2|0,0:2|0:0,0:0:0:0:
172,114,69279,2,0,P|182:78|192:34,1,75,10|0,0:2|0:0,0:0:0:0:
103,194,69570,1,2,0:2:0:0:
103,194,69715,1,0,0:0:0:0:
193,225,69861,2,0,P|233:219|287:208,1,75,10|0,0:2|0:0,0:0:0:0:
139,315,70152,6,0,P|197:321|306:339,2,150,4|8|0,0:0|0:0|0:0,0:0:0:0:
193,225,70881,1,0,0:0:0:0:
103,194,71026,2,0,P|99:157|91:105,1,75,8|0,0:0|0:0,0:0:0:0:
266,212,71317,5,0,0:0:0:0:
175,79,71463,1,0,0:0:0:0:
266,212,71609,2,0,P|257:177|251:131,1,75,10|0,0:2|0:0,0:0:0:0:
348,259,71900,2,0,P|339:294|333:340,1,75,2|0,0:2|0:0,0:0:0:0:
326,106,72191,2,0,P|317:71|311:25,1,75,10|0,0:2|0:0,0:0:0:0:
363,180,72482,6,0,P|445:191|515:196,2,150,4|8|0,0:0|0:0|0:0,0:0:0:0:
456,98,73211,1,0,0:0:0:0:
345,190,73356,2,0,P|307:187|270:184,1,75,8|0,0:0|0:0,0:0:0:0:
216,326,73648,6,0,P|208:292|197:245,1,75,2|0,0:2|0:0,0:0:0:0:
121,347,73939,2,0,P|113:310|104:273,1,75,10|0,0:2|0:0,0:0:0:0:
15,218,74230,1,2,0:2:0:0:
106,174,74376,2,0,P|98:140|87:93,1,75,0|10,0:2|0:2,0:0:0:0:
15,218,74667,1,0,0:0:0:0:
193,223,74813,5,6,0:0:0:0:
271,164,74958,2,0,P|304:169|360:177,2,75,2|8|0,0:0|0:0|0:0,0:0:0:0:
385,264,75395,1,2,0:0:0:0:
283,369,75541,2,0,P|288:337|296:280,2,75,2|8|0,0:0|0:0|0:0,0:0:0:0:
193,223,75978,6,0,P|169:276|182:329,1,112.500004291535,6|2,0:0|0:0,0:0:0:0:
429,203,76269,2,0,P|453:150|440:97,1,112.500004291535,10|2,0:0|0:0,0:0:0:0:
294,358,76560,2,0,L|417:335,1,112.500004291535,10|2,0:0|0:0,0:0:0:0:
313,72,76851,2,0,L|202:92,1,112.500004291535,10|2,0:0|0:0,0:0:0:0:
193,223,77143,6,0,P|260:205|349:187,2,150,6|8|0,0:0|0:0|0:0,0:0:0:0:
87,109,77871,1,0,0:0:0:0:
179,239,78016,2,0,P|155:169|149:143,1,75,8|0,0:0|0:0,0:0:0:0:
130,311,78308,6,0,P|94:321|50:331,1,75,2|0,0:2|0:0,0:0:0:0:
87,109,78599,2,0,P|123:99|167:89,1,75,10|0,0:2|0:0,0:0:0:0:
286,124,78890,1,2,0:2:0:0:
154,168,79036,1,0,0:0:0:0:
286,124,79181,2,0,P|326:118|380:107,1,75,10|0,0:2|0:0,0:0:0:0:
248,216,79473,6,0,P|261:290|269:365,2,150,4|8|0,0:0|0:0|0:0,0:0:0:0:
353,312,80201,1,0,0:0:0:0:
270,228,80347,2,0,P|307:226|351:218,1,75,8|0,0:0|0:0,0:0:0:0:
506,248,80638,5,0,0:0:0:0:
405,135,80783,1,0,0:0:0:0:
506,248,80929,2,0,P|497:213|491:167,1,75,10|0,0:2|0:0,0:0:0:0:
311,140,81220,2,0,P|316:102|325:66,1,75,2|0,0:2|0:0,0:0:0:0:
408,227,81512,2,0,P|413:264|423:301,1,75,10|0,0:2|0:0,0:0:0:0:
248,216,81803,6,0,P|166:205|96:200,2,150,4|8|0,0:0|0:0|0:0,0:0:0:0:
194,115,82531,1,0,0:0:0:0:
237,234,82677,2,0,P|201:246|166:259,1,75,8|0,0:0|0:0,0:0:0:0:
94,111,82968,6,0,P|51:100|3:84,1,75,2|0,0:2|0:0,0:0:0:0:
98,200,83259,2,0,P|90:237|81:274,1,75,10|0,0:2|0:0,0:0:0:0:
126,23,83550,1,2,0:2:0:0:
194,115,83696,2,0,P|202:78|210:41,1,75,0|10,0:2|0:2,0:0:0:0:
126,23,83987,1,0,0:0:0:0:
198,212,84133,5,6,0:0:0:0:
198,212,84279,1,2,0:0:0:0:
282,163,84424,2,0,P|322:165|356:168,1,75,10|2,0:0|0:0,0:0:0:0:
437,324,84715,5,2,0:0:0:0:
437,324,84861,1,2,0:0:0:0:
283,260,85007,2,0,P|323:258|358:255,1,75,10|2,0:0|0:0,0:0:0:0:
494,112,85283,5,4,0:0:0:0:
494,112,85865,1,4,0:0:0:0:
494,112,86442,6,0,P|461:109|415:108,1,56.2500021457673,4|0,0:0|0:0,0:0:0:0:
84,0,87024,2,0,L|154:6,1,56.2500021457673,8|8,0:0|0:0,0:0:0:0:
173,76,87461,2,0,P|181:139|186:184,1,84.3750032186509,4|0,0:0|0:0,0:0:0:0:
437,108,88189,2,0,P|465:110|494:112,1,56.2500021457673,8|4,0:0|0:2,0:0:0:0:
349,174,88772,6,0,B|275:183,1,56.2500021457673,4|0,0:0|0:0,0:0:0:0:
0,316,89354,2,0,L|75:319,1,56.2500021457673,8|0,0:0|0:0,0:0:0:0:
88,252,89791,2,0,B|77:155,1,84.3750032186509,4|0,0:0|0:0,0:0:0:0:
293,180,90519,2,0,B|349:174,2,56.2500021457673,8|4|4,0:0|0:2|0:0,0:0:0:0:
484,230,91393,5,0,0:0:0:0:
193,278,91684,2,0,B|226:275|278:271,1,84.3750032186509,8|4,0:0|0:0,0:0:0:0:
340,318,92267,1,0,0:0:0:0:
427,125,92558,2,0,B|483:119,2,56.2500021457673,0|8|4,0:0|0:0|0:2,0:0:0:0:
36,55,93432,6,0,P|35:86|37:120,1,56.2500021457673,4|0,0:0|0:0,0:0:0:0:
377,382,94014,2,0,P|378:348|376:313,1,56.2500021457673,8|4,0:0|0:0,0:0:0:0:
283,286,94451,2,0,P|285:311|292:355,1,56.2500021457673,4|0,0:0|0:0,0:0:0:0:
357,242,94888,2,0,P|360:214|361:171,1,56.2500021457673,0|8,0:0|0:0,0:0:0:0:
36,55,95471,1,4,0:2:0:0:
305,37,95762,5,4,0:0:0:0:
175,114,96053,1,0,0:0:0:0:
278,224,96344,1,8,0:0:0:0:
408,147,96636,1,0,0:0:0:0:
408,147,96781,2,0,L|415:243,1,84.3750032186509,4|0,0:0|0:0,0:0:0:0:
200,312,97509,2,0,B|274:305,1,56.2500021457673,8|4,0:0|0:2,0:0:0:0:
74,158,98092,6,0,B|0:164,1,56.2500021457673,4|0,0:0|0:0,0:0:0:0:
214,23,98675,2,0,B|309:33,1,84.3750032186509,8|4,0:0|0:0,0:0:0:0:
360,68,99257,1,0,0:0:0:0:
17,162,99548,2,0,B|74:158,1,56.2500021457673,0|8,0:0|0:0,0:0:0:0:
294,103,100131,1,4,0:2:0:0:
124,324,100422,6,0,B|113:250,1,56.2500021457673,4|0,0:0|0:0,0:0:0:0:
474,117,101005,2,0,P|473:159|468:209,1,84.3750032186509,8|4,0:0|0:0,0:0:0:0:
424,260,101587,1,0,0:0:0:0:
115,268,101878,2,0,B|124:324,1,56.2500021457673,0|8,0:0|0:0,0:0:0:0:
396,189,102461,1,4,0:2:0:0:
138,165,102752,5,4,0:0:0:0:
286,199,103043,1,0,0:0:0:0:
212,333,103335,1,8,0:0:0:0:
360,367,103626,1,0,0:0:0:0:
360,367,103772,2,0,P|357:334|352:292,1,56.2500021457673,4|0,0:0|0:0,0:0:0:0:
418,266,104208,2,0,B|489:254,2,56.2500021457673,4|8|4,0:0|0:0|0:2,0:0:0:0:
129,316,105082,5,4,0:0:0:0:
79,218,122849,5,0,2:0:0:0:
79,218,123141,1,0,2:0:0:0:
79,218,123432,1,0,2:0:0:0:
79,218,123703,6,0,P|90:293|104:374,1,150,6|8,0:0|0:0,0:0:0:0:
192,360,124139,1,0,0:0:0:0:
156,160,124285,2,0,P|187:169|233:178,1,75
191,274,124576,2,0,P|222:265|268:256,1,75,8|0,0:0|0:0,0:0:0:0:
476,211,124868,6,0,P|486:175|496:131,1,75,2|0,0:2|0:0,0:0:0:0:
342,303,125159,2,0,P|332:339|322:383,1,75,10|0,0:2|0:0,0:0:0:0:
390,222,125450,1,2,0:2:0:0:
390,222,125596,1,0,0:0:0:0:
437,304,125741,2,0,P|473:296|510:291,1,75,10|0,0:2|0:0,0:0:0:0:
404,130,126033,6,0,P|346:124|237:106,1,150,4|8,0:0|0:0,0:0:0:0:
313,41,126469,1,0,0:0:0:0:
170,87,126615,2,0,P|161:50|156:13,1,75
255,109,126906,2,0,P|259:146|267:198,1,75,8|0,0:0|0:0,0:0:0:0:
103,144,127198,5,0,0:0:0:0:
238,269,127343,1,0,0:0:0:0:
103,144,127489,2,0,P|112:179|118:225,1,75,10|0,0:2|0:0,0:0:0:0:
331,254,127780,2,0,P|325:291|316:327,1,75,2|0,0:2|0:0,0:0:0:0:
49,271,128071,2,0,P|58:306|64:352,1,75,10|0,0:2|0:0,0:0:0:0:
264,183,128363,6,0,P|346:172|416:167,1,150,4|8,0:0|0:0,0:0:0:0:
364,82,128800,1,0,0:0:0:0:
422,184,128945,2,0,P|382:191|330:209,1,75
272,90,129236,2,0,P|238:88|190:79,1,75,8|0,0:0|0:0,0:0:0:0:
264,183,129528,6,0,P|272:217|283:264,1,75,2|0,0:2|0:0,0:0:0:0:
123,155,129819,2,0,P|114:118|106:81,1,75,10|0,0:2|0:0,0:0:0:0:
181,225,130110,1,2,0:2:0:0:
93,248,130256,2,0,P|56:238|20:228,1,75,0|10,0:2|0:2,0:0:0:0:
210,309,130547,6,0,P|216:345|224:404,1,75,0|6,0:0|0:0,0:0:0:0:
311,252,130838,1,2,0:0:0:0:
126,353,130984,1,8,0:0:0:0:
126,353,131130,2,0,P|129:313|128:266,1,75,0|2,0:0|0:0,0:0:0:0:
336,334,131421,1,2,0:0:0:0:
194,205,131567,1,8,0:0:0:0:
194,205,131712,1,0,0:0:0:0:
336,334,131858,6,0,P|381:313|388:234,1,112.500004291535,6|2,0:0|0:0,0:0:0:0:
94,104,132149,2,0,P|49:125|42:204,1,112.500004291535,10|2,0:0|0:0,0:0:0:0:
436,179,132440,2,0,P|440:129|375:83,1,112.500004291535,10|2,0:0|0:0,0:0:0:0:
71,257,132732,2,0,P|66:306|131:352,1,112.500004291535,10|2,0:0|0:0,0:0:0:0:
354,185,133023,6,0,P|287:203|198:221,1,150,6|8,0:0|0:0,0:0:0:0:
127,164,133460,1,0,0:0:0:0:
274,119,133605,2,0,P|215:118|185:112,1,75
212,9,133897,2,0,P|164:35|116:51,1,75,8|0,0:0|0:0,0:0:0:0:
337,49,134188,6,0,P|373:39|417:29,1,75,2|0,0:2|0:0,0:0:0:0:
460,207,134479,2,0,P|424:217|380:227,1,75,10|0,0:2|0:0,0:0:0:0:
402,128,134770,1,2,0:2:0:0:
448,300,134916,1,0,0:0:0:0:
402,128,135062,2,0,P|360:141|313:152,1,75,10|0,0:2|0:0,0:0:0:0:
150,44,135353,6,0,P|76:31|1:23,1,150,4|8,0:0|0:0,0:0:0:0:
100,112,135790,1,0,0:0:0:0:
3,41,135936,2,0,P|13:79|16:117,1,75
158,178,136227,2,0,P|148:216|145:254,1,75,8|0,0:0|0:0,0:0:0:0:
34,205,136518,5,0,0:0:0:0:
188,102,136664,1,0,0:0:0:0:
34,205,136809,2,0,P|43:240|49:286,1,75,10|0,0:2|0:0,0:0:0:0:
248,360,137101,2,0,P|283:342|323:313,1,75,2|0,0:2|0:0,0:0:0:0:
145,251,137392,2,0,P|154:287|159:324,1,75,10|0,0:2|0:0,0:0:0:0:
335,238,137683,6,0,P|417:249|487:254,1,150,4|8,0:0|0:0,0:0:0:0:
428,333,138120,1,0,0:0:0:0:
473,240,138266,2,0,P|470:164|478:133,1,75
360,155,138557,2,0,P|382:91|382:62,1,75,8|0,0:0|0:0,0:0:0:0:
196,152,138848,6,0,P|239:163|287:179,1,75,2|0,0:2|0:0,0:0:0:0:
318,311,139139,2,0,P|326:274|335:237,1,75,10|0,0:2|0:0,0:0:0:0:
285,90,139431,1,2,0:2:0:0:
285,90,139576,1,0,0:0:0:0:
350,251,139722,2,0,P|342:288|334:325,1,75,10|0,0:2|0:2,0:0:0:0:
246,265,140013,5,6,0:0:0:0:
246,265,140159,1,2,0:0:0:0:
414,190,140304,1,10,0:0:0:0:
414,190,140450,1,2,0:0:0:0:
427,102,140596,5,2,0:0:0:0:
427,102,140741,1,2,0:0:0:0:
259,27,140887,1,10,0:0:0:0:
259,27,141033,1,2,0:0:0:0:
210,98,141178,5,4,0:0:0:0:
334,88,141324,1,8,0:0:0:0:
334,88,141397,1,8,0:0:0:0:
334,88,141469,1,8,0:0:0:0:
281,187,141615,1,8,0:0:0:0:
222,284,141761,5,8,0:0:0:0:
196,148,141906,1,8,0:0:0:0:
61,172,142052,1,8,0:0:0:0:
85,307,142197,1,8,0:0:0:0:
222,284,142343,6,0,P|272:289|353:302,1,89.9999972534181,4|0,0:0|0:0,0:0:0:0:
173,63,142635,2,0,P|128:69|83:74,1,89.9999972534181,8|0,0:0|0:0,0:0:0:0:
386,247,142926,2,0,P|393:204|402:145,1,89.9999972534181,8|0,0:0|0:0,0:0:0:0:
61,172,143217,2,0,P|67:216|75:260,1,89.9999972534181,8|8,0:0|0:0,0:0:0:0:
124,322,143436,1,8,0:0:0:0:
124,322,143508,6,0,P|93:341|42:369,1,89.9999972534181,12|0,0:0|0:0,0:0:0:0:
223,133,143800,2,0,P|254:114|305:86,1,89.9999972534181,8|0,0:0|0:0,0:0:0:0:
249,366,144091,2,0,P|227:324|193:256,1,89.9999972534181,8|0,0:0|0:0,0:0:0:0:
383,29,144382,2,0,P|404:70|439:139,1,89.9999972534181,8|8,0:0|0:0,0:0:0:0:
488,160,144601,1,8,0:0:0:0:
488,160,144673,6,0,P|479:202|469:250,1,89.9999972534181,12|0,0:0|0:0,0:0:0:0:
137,117,144965,2,0,P|146:75|156:27,1,89.9999972534181,8|0,0:0|0:0,0:0:0:0:
367,191,145256,2,0,P|358:233|348:281,1,89.9999972534181,8|0,0:0|0:0,0:0:0:0:
16,148,145548,2,0,P|25:106|35:58,1,89.9999972534181,8|8,0:0|0:0,0:0:0:0:
108,27,145766,1,8,0:0:0:0:
108,27,145838,6,0,P|154:20|223:11,1,89.9999972534181,12|0,0:0|0:0,0:0:0:0:
273,336,146130,2,0,P|227:343|158:352,1,89.9999972534181,8|0,0:0|0:0,0:0:0:0:
276,57,146421,2,0,P|319:73|383:100,1,89.9999972534181,8|0,0:0|0:0,0:0:0:0:
175,259,146713,2,0,P|131:242|67:215,1,89.9999972534181,8|8,0:0|0:0,0:0:0:0:
120,153,146931,1,8,0:0:0:0:
120,153,147003,6,0,P|157:146|220:132,1,89.9999972534181,12|0,0:0|0:0,0:0:0:0:
392,231,147295,2,0,P|354:237|292:252,1,89.9999972534181,8|0,0:0|0:0,0:0:0:0:
36,160,147586,2,0,P|27:89|24:46,1,89.9999972534181,8|0,0:0|0:0,0:0:0:0:
476,224,147877,2,0,P|485:295|488:338,1,89.9999972534181,8|8,0:0|0:0,0:0:0:0:
421,354,148096,1,8,0:0:0:0:
421,354,148169,6,0,P|373:332|332:313,1,89.9999972534181,12|0,0:0|0:0,0:0:0:0:
375,66,148460,2,0,P|327:88|286:107,1,89.9999972534181,8|0,0:0|0:0,0:0:0:0:
266,370,148751,2,0,P|235:326|209:289,1,89.9999972534181,8|0,0:0|0:0,0:0:0:0:
228,29,149042,2,0,P|197:72|171:109,1,89.9999972534181,8|8,0:0|0:0,0:0:0:0:
109,139,149261,1,8,0:0:0:0:
109,139,149334,6,0,P|64:131|7:122,1,89.9999972534181,12|0,0:0|0:0,0:0:0:0:
108,245,149625,2,0,P|64:252|20:259,1,89.9999972534181,8|0,0:0|0:0,0:0:0:0:
210,79,149916,2,0,P|175:50|130:13,1,89.9999972534181,8|0,0:0|0:0,0:0:0:0:
210,305,150207,2,0,P|175:333|130:370,1,89.9999972534181,8|8,0:0|0:0,0:0:0:0:
236,384,150426,1,8,0:0:0:0:
236,384,150499,6,0,L|361:364,1,89.9999972534181,12|0,0:0|0:0,0:0:0:0:
287,33,150790,2,0,L|412:53,1,89.9999972534181,8|0,0:0|0:0,0:0:0:0:
439,367,151081,2,0,P|431:325|422:251,1,89.9999972534181,8|0,0:0|0:0,0:0:0:0:
140,21,151372,2,0,P|148:62|157:137,1,89.9999972534181,8|8,0:0|0:0,0:0:0:0:
103,170,151591,1,8,0:0:0:0:
103,170,151664,5,12,0:0:0:0:
252,115,151809,1,0,0:0:0:0:
307,264,151955,5,8,0:0:0:0:
158,319,152100,1,0,0:0:0:0:
307,264,152246,1,8,0:0:0:0:
158,319,152392,1,0,0:0:0:0:
385,330,152537,2,0,P|391:288|397:229,1,89.9999972534181,8|8,0:0|0:0,0:0:0:0:
343,186,152756,1,8,0:0:0:0:
343,186,152829,5,12,0:0:0:0:
450,74,152974,1,0,0:0:0:0:
314,10,153120,5,8,0:0:0:0:
207,122,153266,1,0,0:0:0:0:
314,10,153411,1,8,0:0:0:0:
207,122,153557,1,0,0:0:0:0:
343,186,153703,2,0,P|346:224|351:288,1,89.9999972534181,8|8,0:0|0:0,0:0:0:0:
289,340,153921,1,8,0:0:0:0:
289,340,153994,5,12,0:0:0:0:
141,189,154139,1,0,0:0:0:0:
132,350,154285,5,8,0:0:0:0:
261,221,154431,1,0,0:0:0:0:
132,350,154576,1,8,0:0:0:0:
261,221,154722,1,0,0:0:0:0:
2,137,154868,2,0,P|7:196|12:250,1,89.9999972534181,8|8,0:0|0:0,0:0:0:0:
83,264,155086,1,8,0:0:0:0:
83,264,155159,6,0,P|137:258|175:218,1,112.500004291535,14|0,0:0|0:0,0:0:0:0:
416,0,155450,2,0,P|361:5|323:45,1,112.500004291535,10|0,0:0|0:0,0:0:0:0:
336,384,155741,2,0,B|320:331|320:331|355:264,1,112.500004291535,10|0,0:0|0:0,0:0:0:0:
54,0,156033,2,0,B|80:50|80:50|64:103,1,112.500004291535,10|8,0:0|0:0,0:0:0:0:
142,136,156251,1,8,0:0:0:0:
142,136,156324,6,0,P|201:126|244:118,1,89.9999972534181,12|0,0:0|0:0,0:0:0:0:
432,42,156615,1,8,0:0:0:0:
332,6,156761,2,0,P|342:50|355:132,1,89.9999972534181,0|8,0:0|0:0,0:0:0:0:
245,310,157052,2,0,P|235:266|222:184,1,89.9999972534181,0|8,0:0|0:0,0:0:0:0:
336,258,157343,1,8,0:0:0:0:
336,258,157416,1,8,0:0:0:0:
336,258,157489,5,12,0:0:0:0:
143,230,157635,1,0,0:0:0:0:
231,58,157780,1,8,0:0:0:0:
143,230,157926,1,0,0:0:0:0:
423,84,158071,6,0,P|471:157|452:220,1,112.500004291535,10|0,0:0|0:0,0:0:0:0:
95,316,158363,2,0,P|56:276|47:221,1,112.500004291535,10|8,0:0|0:0,0:0:0:0:
91,157,158581,1,8,0:0:0:0:
91,157,158654,6,0,P|136:144|185:127,1,89.9999972534181,12|0,0:0|0:0,0:0:0:0:
347,235,158945,1,8,0:0:0:0:
254,270,159091,2,0,P|257:225|260:180,1,89.9999972534181,0|8,0:0|0:0,0:0:0:0:
512,295,159382,2,0,P|508:339|505:384,1,89.9999972534181,0|8,0:0|0:0,0:0:0:0:
421,332,159673,1,8,0:0:0:0:
421,332,159746,1,8,0:0:0:0:
421,332,159819,5,12,0:0:0:0:
411,145,159965,1,0,0:0:0:0:
281,249,160110,5,8,0:0:0:0:
294,74,160256,1,0,0:0:0:0:
175,189,160402,5,8,0:0:0:0:
171,71,160547,1,0,0:0:0:0:
58,141,160693,6,0,L|86:268,1,112.500004291535,4|4,3:0|0:0,0:0:0:0:
256,192,161057,12,0,169139,2:0:0:0:
