osu file format v14

[General]
AudioFilename: design.mp3
AudioLeadIn: 0
PreviewTime: 37859
Countdown: 1
SampleSet: None
StackLeniency: 0.3
Mode: 0
LetterboxInBreaks: 0
WidescreenStoryboard: 1

[Editor]
Bookmarks: 10984,11176,11272,11561,11849,11945,12138,12330,12522,12715,12811,13099,13388,13484,13676,13869,14061,14253,14349,14638,14926,15022,15215,15407,15599,15888,16176,16369,16561,16657,16753,16945,17042,17138,17426,17715,17811,17907,18099,18292,18484,18676,18965,19253,19349,19445,19638,19830,20022,20215,20503,20792,20888,20984,21176,21369,21561,21753,21945,22138,22234,22330,22522,22715,22907,23099,23292,23580,23869,24061,24349,24638,24830,25119,25407,25599,25792,25888,25984,26080,26176,26272,26369,26657,26945,27138,27330,27426,27619,27715,27907,28195,28484,28676,28869,28965,29157,29253,29445,29638,29734,29926,30022,38676,50984,66417,68676,78292
DistanceSpacing: 1.1
BeatDivisor: 4
GridSize: 4
TimelineZoom: 2.3

[Metadata]
Title:Disparity By Design
TitleUnicode:Disparity By Design
Artist:Rise Against
ArtistUnicode:Rise Against
Creator:pishifat
Version:Normal
Source:
Tags:endgame metal punk dashyy-
BeatmapID:1745023
BeatmapSetID:360325

[Difficulty]
HPDrainRate:3.5
CircleSize:2.5
OverallDifficulty:3.5
ApproachRate:4.5
SliderMultiplier:0.900000005960464
SliderTickRate:1

[Events]
//Background and Video events
0,0,"8761074d-6960-49b9-b523-5fb719dc0015.png",0,0
//Break Periods
2,78876,82032
//Storyboard Layer 0 (Background)
//Storyboard Layer 1 (Fail)
//Storyboard Layer 2 (Pass)
//Storyboard Layer 3 (Foreground)
//Storyboard Sound Samples

[TimingPoints]
9446,384.615384615385,4,3,1,50,1,0
10984,-100,4,3,1,75,0,0
17138,-100,4,3,1,75,0,0
23292,-100,4,3,1,75,0,0
24061,-100,4,3,1,75,0,0
24830,-100,4,3,1,75,0,0
26369,-100,4,3,2,55,0,0
37907,-100,4,3,1,65,0,0
38676,-100,4,3,1,75,0,0
50215,-100,4,3,2,75,0,0
50792,-100,4,3,1,65,0,0
50984,-100,4,3,1,65,0,0
54253,-100,4,3,1,65,0,0
57138,-100,4,3,1,65,0,0
62138,-100,4,3,1,65,0,0
66369,-100,4,3,1,75,0,1
78676,-100,4,3,1,75,0,0
83340,-100,4,3,2,5,0,0
84205,-100,4,3,1,35,0,0
84253,-100,4,3,2,5,0,0
84638,-100,4,3,1,45,0,0
84734,-100,4,3,1,35,0,0
84830,-100,4,3,1,75,0,0
97138,-100,4,3,1,65,0,0
100407,-100,4,3,1,65,0,0
103292,-100,4,3,1,65,0,0
104830,-100,4,3,1,65,0,0
106369,-100,4,3,1,65,0,0
109445,-100,4,3,1,65,0,0
112522,-100,4,3,1,75,0,1
124638,-100,4,3,1,35,0,0
124830,-100,4,3,1,75,0,1
129494,-100,4,3,1,75,0,1
130984,-100,4,3,1,75,0,1
135599,396.039603960396,4,3,1,75,1,0

[Colours]
Combo1 : 167,123,196
Combo2 : 184,84,84
Combo3 : 108,108,189
Combo4 : 255,192,62

[HitObjects]
98,48,9445,6,0,B|63:78|63:78|58:124,1,90.0000011920929,8|8,0:0|0:0,0:0:0:0:
147,166,10215,2,0,B|181:135|181:135|186:89,1,90.0000011920929,8|4,0:0|0:0,0:0:0:0:
256,22,10984,6,0,P|319:28|379:80,1,135.000001788139,4|8,0:1|0:0,0:0:0:0:
285,117,11945,1,8,0:0:0:0:
371,237,12522,2,0,P|334:288|259:314,1,135.000001788139,4|8,0:0|0:0,0:0:0:0:
275,215,13483,1,8,0:0:0:0:
126,228,14061,2,0,P|99:170|114:92,1,135.000001788139,4|8,0:0|0:0,0:0:0:0:
193,156,15022,1,8,0:0:0:0:
256,22,15599,6,0,B|365:38|302:95|403:112,1,180.000002384186,4|4,0:2|0:0,0:0:0:0:
496,79,16753,1,4,0:0:0:0:
496,79,16945,1,8,0:0:0:0:
496,79,17138,6,0,L|513:260,1,180.000002384186,4|4,0:1|0:0,0:0:0:0:
448,333,18292,1,4,0:0:0:0:
370,272,18676,2,0,B|283:260|283:260|209:324,1,180.000002384186,4|4,0:0|0:0,0:0:0:0:
123,277,19830,1,4,0:0:0:0:
194,207,20215,6,0,L|172:25,1,180.000002384186,4|4,0:0|0:0,0:0:0:0:
76,4,21369,1,4,0:0:0:0:
11,78,21753,2,0,B|3:125|3:125|26:166,1,90.0000011920928,4|4,0:2|0:0,0:0:0:0:
97,228,22522,2,0,B|105:275|105:275|82:316,1,90.0000011920928,4|4,0:2|0:0,0:0:0:0:
172,357,23292,6,0,P|208:298|311:249,2,180.000001192093,4|4|4,0:2|0:2|0:2,0:0:0:0:
369,338,25599,2,0,L|466:353,1,90.0000005960464,4|0,0:2|1:0,0:0:0:0:
505,366,26176,1,8,0:0:0:0:
505,366,26369,1,4,0:1:0:0:
421,107,27330,6,0,L|328:131,1,90.0000011920928,8|8,0:0|0:2,0:0:0:0:
285,140,27907,2,0,P|260:87|266:50,1,90.0000011920928,4|0,0:0|0:0,0:0:0:0:
74,117,29061,5,0,0:0:0:0:
133,196,29445,2,0,L|120:290,1,90.0000011920928,4|0,0:0|0:0,0:0:0:0:
217,305,30215,2,0,L|229:215,2,90.0000011920928,4|0|4,0:0|0:0|0:0,0:0:0:0:
372,112,31945,6,0,P|421:119|463:143,1,90.0000011920928,0|0,1:0|1:0,0:0:0:0:
488,175,32522,1,4,0:2:0:0:
240,162,33484,6,0,L|225:69,1,90.0000011920928,8|8,0:0|0:2,0:0:0:0:
218,23,34061,2,0,P|170:4|127:7,1,90.0000011920928,4|0,0:0|0:0,0:0:0:0:
92,34,34638,1,8,0:2:0:0:
36,179,35215,5,0,0:0:0:0:
93,259,35599,2,0,L|191:274,1,90.0000011920928,4|0,0:0|0:0,0:0:0:0:
261,213,36369,2,0,L|350:196,1,90.0000011920928,4|0,0:0|0:0,0:0:0:0:
445,221,37138,2,0,P|498:141|503:93,1,135.00000089407,4|8,0:3|0:2,0:0:0:0:
474,63,37907,5,8,0:0:0:0:
392,118,38292,1,8,0:0:0:0:
392,118,38484,1,8,0:0:0:0:
392,118,38676,1,4,0:1:0:0:
246,88,39253,5,8,0:0:0:0:
246,88,39445,2,0,L|236:21,2,67.5000008940696,4|4|8,0:0|0:0|0:0,0:0:0:0:
254,137,40215,1,4,0:0:0:0:
120,202,40792,5,8,0:0:0:0:
120,202,40984,2,0,L|53:192,2,67.5000008940696,4|4|8,0:0|0:0|0:0,0:0:0:0:
169,210,41754,1,4,0:0:0:0:
298,282,42330,5,8,0:0:0:0:
298,282,42522,2,0,P|346:273|370:263,2,67.5000008940696,4|4|8,0:0|0:0|0:0,0:0:0:0:
261,316,43292,2,0,P|244:362|241:387,2,67.5000008940696,4|4|8,0:0|0:0|0:0,0:0:0:0:
249,267,44061,2,0,P|217:229|138:190,1,135.000001788139,4|4,0:0|0:0,0:0:0:0:
92,195,44830,1,4,0:1:0:0:
197,89,45407,5,8,0:0:0:0:
197,89,45599,2,0,L|205:20,2,67.5000008940696,4|4|8,0:0|0:0|0:0,0:0:0:0:
229,126,46369,1,4,0:0:0:0:
341,222,46945,5,8,0:0:0:0:
341,222,47138,2,0,L|349:291,2,67.5000008940696,4|4|8,0:0|0:0|0:0,0:0:0:0:
373,185,47907,1,4,0:0:0:0:
449,57,48484,5,8,0:0:0:0:
449,57,48676,2,0,P|479:55|517:43,2,67.5000008940696,4|4|8,0:0|0:0|0:0,0:0:0:0:
404,34,49445,1,4,0:0:0:0:
320,87,49830,2,0,P|272:71|234:40,1,90.0000011920928,4|8,0:0|0:0,0:0:0:0:
145,64,50599,1,8,0:0:0:0:
145,64,50792,1,8,0:0:0:0:
145,64,50984,6,0,P|66:131|172:206,1,270.000003576278,4|0,0:1|0:0,0:0:0:0:
258,252,52522,2,0,P|226:291|206:302,2,67.5000008940696,4|4|8,0:0|0:0|0:0,0:0:0:0:
273,204,53292,1,4,0:0:0:0:
356,326,53869,6,0,L|406:319,1,45.0000005960464,8|4,0:0|0:0,0:0:0:0:
449,313,54253,1,12,0:1:0:0:
407,223,54638,2,0,L|437:182,1,45.0000005960464,8|4,0:0|0:0,0:0:0:0:
464,148,55022,1,12,0:1:0:0:
370,114,55407,2,0,L|363:63,1,45.0000005960464,8|4,0:0|0:0,0:0:0:0:
358,21,55791,1,12,0:1:0:0:
267,63,56177,2,0,L|226:32,1,45.0000005960464,8|4,0:0|0:0,0:0:0:0:
193,6,56561,1,12,0:1:0:0:
126,79,56945,1,8,0:0:0:0:
126,79,57138,6,0,P|205:192|330:229,1,270.000003576278,4|0,0:1|0:0,0:0:0:0:
423,202,58676,2,0,L|433:128,2,67.5000008940696,4|4|8,0:0|0:0|0:0,0:0:0:0:
451,242,59445,1,4,0:0:0:0:
335,335,60022,5,8,0:0:0:0:
335,335,60215,2,0,P|294:319|270:302,2,67.5000008940696,4|4|8,0:2|0:0|0:0,0:0:0:0:
384,332,60984,1,4,0:2:0:0:
226,141,61753,5,4,0:0:0:0:
226,141,61945,2,0,B|180:148|180:148|138:125,1,90.0000011920928,8|8,0:0|0:0,0:0:0:0:
117,83,62522,2,0,B|133:39|133:39|174:14,1,90.0000011920928,4|8,0:0|0:0,0:0:0:0:
264,52,63292,5,4,0:1:0:0:
126,194,64061,1,4,0:0:0:0:
316,246,64830,1,4,0:2:0:0:
273,61,65599,1,8,0:0:0:0:
273,61,65792,1,8,0:0:0:0:
273,61,65984,1,8,0:0:0:0:
356,114,66369,5,4,0:1:0:0:
396,23,66753,2,0,P|434:4|483:-1,1,90.0000011920928,4|4,0:0|0:0,0:0:0:0:
479,147,67715,1,8,0:0:0:0:
479,147,67907,2,0,L|469:236,1,90.0000011920928,4|4,0:0|0:0,0:0:0:0:
380,281,68676,2,0,L|370:370,1,90.0000011920928,4|4,0:0|0:0,0:0:0:0:
282,314,69445,2,0,P|187:305|111:355,1,180.000002384186,4|4,0:2|0:0,0:0:0:0:
93,200,70792,5,8,0:0:0:0:
93,200,70984,2,0,L|28:184,2,67.5000008940696,4|4|8,0:0|0:0|0:0,0:0:0:0:
138,180,71753,1,8,0:0:0:0:
222,128,72138,1,8,0:0:0:0:
222,128,72330,1,8,0:0:0:0:
222,128,72522,5,4,0:1:0:0:
320,135,72907,2,0,P|336:76|331:46,1,90.0000011920928,4|4,0:0|0:0,0:0:0:0:
185,20,73869,1,8,0:0:0:0:
185,20,74061,2,0,L|91:38,1,90.0000011920928,4|4,0:0|0:0,0:0:0:0:
30,124,74830,2,0,L|124:142,1,90.0000011920928,4|4,0:0|0:0,0:0:0:0:
179,215,75599,2,0,P|279:195|325:130,1,180.000002384186,4|4,0:2|0:0,0:0:0:0:
386,61,76753,5,4,0:0:0:0:
440,143,77138,2,0,B|422:182|422:182|430:237,1,90.0000011920928,4|8,0:2|0:0,0:0:0:0:
465,320,77907,1,8,0:3:0:0:
373,359,78292,1,4,0:3:0:0:
373,359,78484,1,0,0:0:0:0:
373,359,78676,1,4,0:1:0:0:
256,16,83292,6,0,L|256:336,1,315.000004172325,8|2,0:0|2:0,0:0:0:0:
256,380,84830,6,0,P|205:376|164:356,1,90.0000011920928,4|0,0:1|0:0,0:0:0:0:
110,281,85599,1,4,0:0:0:0:
110,281,85792,2,0,L|123:189,1,90.0000011920928,8|8,0:0|0:0,0:0:0:0:
132,143,86369,2,0,L|224:131,2,90.0000011920928,4|4|4,0:0|0:0|0:0,0:0:0:0:
69,66,87522,1,4,0:0:0:0:
145,2,87907,6,0,P|210:18|233:37,1,90.0000011920928,4|4,0:2|0:0,0:0:0:0:
308,88,88676,2,0,P|373:72|396:53,1,90.0000011920928,4|4,0:0|0:0,0:0:0:0:
478,12,89445,2,0,B|432:64|432:64|452:180,1,180.000002384186,4|4,0:0|0:0,0:0:0:0:
476,279,90599,1,8,0:0:0:0:
476,279,90792,1,8,0:0:0:0:
476,279,90984,6,0,P|409:306|394:319,1,90.0000011920928,4|0,0:1|0:0,0:0:0:0:
312,369,91753,1,4,0:0:0:0:
312,369,91945,2,0,L|304:274,1,90.0000011920928,8|8,0:0|0:0,0:0:0:0:
299,229,92522,2,0,P|255:195|221:188,1,90.0000011920928,4|4,0:0|0:0,0:0:0:0:
126,214,93292,1,4,0:0:0:0:
76,128,93676,1,4,0:0:0:0:
168,91,94061,5,4,0:0:0:0:
168,91,94253,2,0,L|257:79,1,90.0000011920928,8|8,0:0|0:0,0:0:0:0:
445,141,95407,1,8,0:0:0:0:
445,141,95599,1,4,0:0:0:0:
445,141,95792,2,0,L|347:125,1,90.0000011920928,8|8,0:0|0:0,0:0:0:0:
317,157,96369,1,4,0:0:0:0:
392,237,96753,1,4,0:0:0:0:
392,237,96945,1,4,0:0:0:0:
392,237,97138,5,4,0:1:0:0:
170,346,98099,2,0,P|154:296|153:254,1,90.0000011920928,8|8,0:0|0:0,0:0:0:0:
161,210,98676,2,0,L|234:220,2,67.5000008940696,4|4|8,0:0|0:0|0:0,0:0:0:0:
126,174,99445,1,4,0:0:0:0:
210,52,100022,6,0,L|260:59,1,45.0000005960464,8|4,0:0|0:0,0:0:0:0:
303,65,100406,1,4,0:1:0:0:
261,155,100791,2,0,L|291:196,1,45.0000005960464,8|4,0:0|0:0,0:0:0:0:
318,230,101175,1,4,0:1:0:0:
224,264,101560,2,0,L|217:315,1,45.0000005960464,8|4,0:0|0:0,0:0:0:0:
212,357,101946,1,4,0:1:0:0:
121,315,102330,2,0,L|80:346,1,45.0000005960464,8|4,0:0|0:0,0:0:0:0:
48,372,102714,1,4,0:1:0:0:
10,280,103099,1,8,0:0:0:0:
10,280,103292,6,0,P|42:187|115:157,1,180.000002384186,4|4,0:1|0:0,0:0:0:0:
204,191,104445,1,2,0:0:0:0:
278,125,104830,2,0,L|283:72,2,45.0000005960464,8|4|8,0:0|0:0|0:0,0:0:0:0:
376,135,105599,2,0,L|381:82,2,45.0000005960464,8|4|4,0:0|0:0|0:0,0:0:0:0:
464,181,106369,6,0,L|536:168,2,67.5000008940696,4|4|8,0:2|0:0|0:0,0:0:0:0:
433,220,107138,2,0,P|358:295|285:281,1,180.000002384186,4|4,0:0|0:2,0:0:0:0:
224,212,108292,1,2,0:0:0:0:
131,247,108676,2,0,L|120:318,2,67.5000008940696,4|4|8,0:0|0:0|0:0,0:0:0:0:
93,214,109445,5,4,0:1:0:0:
220,65,110215,1,4,0:0:0:0:
407,128,110984,1,4,0:2:0:0:
407,128,111176,1,8,0:0:0:0:
407,128,111369,1,8,0:0:0:0:
335,196,111753,1,8,0:0:0:0:
427,258,112138,1,4,0:0:0:0:
427,258,112330,1,4,0:0:0:0:
427,258,112522,5,4,0:1:0:0:
373,341,112907,2,0,P|325:362|283:357,1,90.0000011920928,4|4,0:0|0:0,0:0:0:0:
155,291,113869,1,8,0:0:0:0:
155,291,114061,2,0,L|140:386,1,90.0000011920928,4|4,0:0|0:0,0:0:0:0:
48,345,114830,2,0,L|62:256,1,90.0000011920928,4|4,0:0|0:0,0:0:0:0:
14,169,115599,2,0,P|8:130|81:17,1,180.000002384186,4|4,0:2|0:0,0:0:0:0:
194,112,116945,5,8,0:0:0:0:
194,112,117138,2,0,L|184:181,2,67.5000008940696,4|4|8,0:0|0:0|0:0,0:0:0:0:
235,84,117907,1,8,0:0:0:0:
325,149,118292,1,4,0:0:0:0:
325,149,118484,1,4,0:0:0:0:
325,149,118676,6,0,P|406:146|461:72,1,180.000002384186,4|4,0:1|0:0,0:0:0:0:
448,23,119638,2,0,L|356:13,1,90.0000011920928,8|8,0:0|0:0,0:0:0:0:
314,35,120215,1,4,0:0:0:0:
216,20,120599,1,4,0:0:0:0:
117,6,120984,2,0,P|88:70|89:94,1,90.0000011920928,4|4,0:0|0:0,0:0:0:0:
162,153,121753,2,0,P|90:134|15:201,1,180.000002384186,4|4,0:2|0:0,0:0:0:0:
65,284,122907,5,4,0:0:0:0:
158,317,123292,2,0,L|164:249,2,67.5000008940696,4|8|4,0:0|0:0|0:0,0:0:0:0:
186,357,124061,2,0,B|232:353|232:353|264:324,1,90.0000011920928,4|8,0:0|0:0,0:0:0:0:
309,235,124830,6,0,B|405:216|384:275|488:248,1,180.000002384186,4|4,0:1|0:0,0:0:0:0:
511,207,125792,2,0,L|502:114,1,90.0000011920928,8|8,0:0|0:0,0:0:0:0:
496,68,126369,1,4,0:0:0:0:
401,97,126753,1,4,0:0:0:0:
322,33,127138,2,0,P|279:34|234:63,1,90.0000011920928,4|4,0:0|0:0,0:0:0:0:
195,143,127907,5,4,0:2:0:0:
108,94,128292,2,0,L|100:1,2,90.0000011920928,4|4|4,0:0|0:0|0:0,0:0:0:0:
60,180,129445,1,8,0:0:0:0:
146,227,129830,1,8,0:0:0:0:
195,143,130215,1,8,0:0:0:0:
108,94,130599,1,4,0:0:0:0:
60,180,130984,5,4,0:1:0:0:
146,227,131369,2,0,P|129:303|120:317,2,90.0000011920928,4|4|4,0:0|0:0|0:0,0:0:0:0:
195,143,132522,2,0,P|243:181|258:210,1,90.0000011920928,4|4,0:2|0:0,0:0:0:0:
306,291,133292,2,0,L|379:303,2,67.5000008940696,4|4|8,0:0|0:3|0:0,0:0:0:0:
270,325,134061,2,0,L|455:354,1,180.000002384186,4|4,0:2|0:0,0:0:0:0:
501,214,135407,5,8,0:0:0:0:
501,214,135599,2,0,B|479:176|479:176|483:123,1,90.0000005960464,4|2,0:2|0:0,0:0:0:0:
385,151,136391,2,0,B|388:105|388:105|366:67,1,90.0000005960464,10|6,0:0|0:0,0:0:0:0:
286,125,137183,1,4,0:2:0:0:
