osu file format v14

[General]
AudioFilename: design.mp3
AudioLeadIn: 0
PreviewTime: 37859
Countdown: 1
SampleSet: None
StackLeniency: 0.2
Mode: 0
LetterboxInBreaks: 0
WidescreenStoryboard: 1

[Editor]
Bookmarks: 10984,11176,11272,11561,11849,11945,12138,12330,12522,12715,12811,13099,13388,13484,13676,13869,14061,14253,14349,14638,14926,15022,15215,15407,15599,15888,16176,16369,16561,16657,16753,16945,17042,17138,17426,17715,17811,17907,18099,18292,18484,18676,18965,19253,19349,19445,19638,19830,20022,20215,20503,20792,20888,20984,21176,21369,21561,21753,21945,22138,22234,22330,22522,22715,22907,23099,23292,23580,23869,24061,24349,24638,24830,25119,25407,25599,25792,25888,25984,26080,26176,26272,26369,26657,26945,27138,27330,27426,27619,27715,27907,28195,28484,28676,28869,28965,29157,29253,29445,29638,29734,29926,30022,38676,50984,66417,68676,78292
DistanceSpacing: 0.5
BeatDivisor: 4
GridSize: 4
TimelineZoom: 2.3

[Metadata]
Title:Disparity By Design
TitleUnicode:Disparity By Design
Artist:Rise Against
ArtistUnicode:Rise Against
Creator:pishifat
Version:Insane
Source:
Tags:endgame metal punk dashyy-
BeatmapID:1714705
BeatmapSetID:360325

[Difficulty]
HPDrainRate:6
CircleSize:4
OverallDifficulty:7.5
ApproachRate:9
SliderMultiplier:2
SliderTickRate:1

[Events]
//Background and Video events
0,0,"8761074d-6960-49b9-b523-5fb719dc0015.png",0,0
//Break Periods
2,78876,82692
//Storyboard Layer 0 (Background)
//Storyboard Layer 1 (Fail)
//Storyboard Layer 2 (Pass)
//Storyboard Layer 3 (Foreground)
//Storyboard Sound Samples

[TimingPoints]
9446,384.615384615385,4,3,1,50,1,0
10984,-66.6666666666667,4,3,1,75,0,0
17138,-58.8235294117647,4,3,1,75,0,0
23292,-66.6666666666667,4,3,1,75,0,0
24061,-62.5,4,3,1,75,0,0
24830,-58.8235294117647,4,3,1,75,0,0
26369,-117.647058823529,4,3,2,55,0,0
37907,-117.647058823529,4,3,1,65,0,0
38676,-71.4285714285714,4,3,1,75,0,0
50215,-71.4285714285714,4,3,2,75,0,0
50792,-71.4285714285714,4,3,1,65,0,0
50984,-90.9090909090909,4,3,1,65,0,0
54253,-66.6666666666667,4,3,1,65,0,0
57138,-90.9090909090909,4,3,1,65,0,0
62138,-76.9230769230769,4,3,1,65,0,0
66369,-66.6666666666667,4,3,1,75,0,1
78676,-100,4,3,1,75,0,0
83340,-100,4,3,2,5,0,0
84205,-100,4,3,1,35,0,0
84253,-100,4,3,2,5,0,0
84638,-100,4,3,1,45,0,0
84734,-100,4,3,1,35,0,0
84830,-76.9230769230769,4,3,1,75,0,0
97138,-90.9090909090909,4,3,1,65,0,0
100407,-66.6666666666667,4,3,1,65,0,0
103292,-90.9090909090909,4,3,1,65,0,0
104830,-133.333333333333,4,3,1,65,0,0
106369,-90.9090909090909,4,3,1,65,0,0
109445,-76.9230769230769,4,3,1,65,0,0
112522,-66.6666666666667,4,3,1,75,0,1
124638,-100,4,3,1,35,0,0
124830,-62.5,4,3,1,75,0,1
129494,-76.9230769230769,4,3,1,75,0,1
130984,-62.5,4,3,1,75,0,1
135599,396.039603960396,4,3,1,75,1,0

[Colours]
Combo1 : 167,123,196
Combo2 : 184,84,84
Combo3 : 108,108,189
Combo4 : 255,192,62

[HitObjects]
18,62,9445,5,8,0:0:0:0:
18,62,9542,1,4,0:0:0:0:
74,206,9734,1,8,0:0:0:0:
74,206,9830,1,8,0:0:0:0:
74,206,9926,1,4,0:0:0:0:
228,178,10119,1,8,0:0:0:0:
228,178,10215,1,8,0:0:0:0:
228,178,10311,1,8,0:0:0:0:
228,178,10407,2,0,L|298:190,1,50,4|4,0:0|0:0,0:0:0:0:
191,258,10599,2,0,L|261:270,1,50,4|4,0:0|0:0,0:0:0:0:
153,337,10792,2,0,L|223:349,1,50,4|4,0:0|0:0,0:0:0:0:
325,329,10984,6,0,P|371:306|382:204,1,150.000005722046,4|8,0:1|0:0,0:0:0:0:
435,145,11272,2,0,P|412:99|310:88,1,150.000005722046,4|4,0:0|0:0,0:0:0:0:
250,36,11561,2,0,P|204:59|193:161,1,150.000005722046,8|0,0:0|0:0,0:0:0:0:
237,219,11849,1,4,0:0:0:0:
237,219,11945,1,8,0:0:0:0:
40,153,12138,1,4,0:0:0:0:
237,219,12330,1,8,0:0:0:0:
67,384,12522,6,0,L|49:224,1,150.000005722046,4|8,0:0|0:0,0:0:0:0:
128,184,12811,2,0,L|144:333,1,150.000005722046,4|4,0:0|0:0,0:0:0:0:
227,292,13099,2,0,L|210:142,1,150.000005722046,8|0,0:0|0:0,0:0:0:0:
204,61,13388,1,4,0:0:0:0:
204,61,13484,1,8,0:0:0:0:
341,161,13676,1,4,0:0:0:0:
357,4,13869,2,0,L|347:97,1,75.0000028610231,8|0,0:0|0:0,0:0:0:0:
341,161,14061,6,0,P|368:218|461:230,1,150.000005722046,4|8,0:0|0:0,0:0:0:0:
512,286,14349,2,0,P|449:280|392:355,1,150.000005722046,4|4,0:0|0:0,0:0:0:0:
318,371,14638,2,0,P|353:319|317:232,1,150.000005722046,8|0,0:0|0:0,0:0:0:0:
263,194,14926,1,4,0:0:0:0:
263,194,15022,1,8,0:0:0:0:
105,274,15215,1,4,0:0:0:0:
61,105,15407,1,8,0:0:0:0:
207,11,15599,6,0,L|194:99,1,75.0000028610231,4|0,0:2|0:0,0:0:0:0:
138,150,15792,1,8,0:0:0:0:
138,150,15888,2,0,P|230:153|268:213,1,150.000005722046,4|4,0:0|0:0,0:0:0:0:
288,272,16176,1,8,0:0:0:0:
382,58,16369,2,0,L|395:146,1,75.0000028610231,4|0,0:0|0:0,0:0:0:0:
471,176,16561,1,8,0:0:0:0:
475,159,16657,1,8,0:0:0:0:
479,141,16753,1,4,0:0:0:0:
391,326,16945,1,8,0:0:0:0:
420,309,17042,1,8,0:0:0:0:
453,289,17138,6,0,B|371:245|365:312|262:260,1,170.000003242493,4|8,0:1|0:0,0:0:0:0:
236,197,17426,2,0,P|254:258|259:368,1,170.000003242493,4|4,0:0|0:0,0:0:0:0:
118,244,17715,1,8,0:0:0:0:
155,264,17811,1,2,0:0:0:0:
170,303,17907,2,0,P|130:340|89:339,1,85.0000016212464,4|0,0:0|0:0,0:0:0:0:
26,270,18099,1,8,0:0:0:0:
97,65,18292,1,4,0:0:0:0:
26,270,18484,1,8,0:0:0:0:
97,65,18676,6,0,P|196:91|247:134,1,170.000003242493,4|8,0:0|0:0,0:0:0:0:
267,218,18965,2,0,B|248:115|312:152|291:37,1,170.000003242493,4|4,0:0|0:0,0:0:0:0:
350,182,19253,1,8,0:0:0:0:
384,206,19349,1,2,0:0:0:0:
426,209,19445,2,0,P|484:184|503:151,1,85.0000016212464,4|0,0:0|0:0,0:0:0:0:
477,80,19638,1,8,0:0:0:0:
488,346,19830,1,4,0:0:0:0:
255,235,20022,2,0,P|296:243|327:271,1,85.0000016212464,8|0,0:0|0:0,0:0:0:0:
370,350,20215,6,0,B|281:379|287:312|176:345,1,170.000003242493,4|8,0:0|0:0,0:0:0:0:
58,375,20503,2,0,P|116:321|145:236,1,170.000003242493,4|4,0:0|0:0,0:0:0:0:
18,56,20792,1,8,0:0:0:0:
0,94,20888,1,2,0:0:0:0:
14,134,20984,2,0,P|53:161|102:157,1,85.0000016212464,4|0,0:0|0:0,0:0:0:0:
192,104,21176,5,8,0:0:0:0:
54,250,21369,1,4,0:0:0:0:
192,104,21561,1,8,0:0:0:0:
330,300,21753,6,0,L|316:186,1,85.0000016212464,4|0,0:2|0:0,0:0:0:0:
354,137,21945,1,8,0:0:0:0:
287,379,22138,2,0,P|237:318|211:206,1,170.000003242493,4|8,0:0|0:0,0:0:0:0:
255,157,22426,1,0,0:0:0:0:
255,157,22522,1,4,0:2:0:0:
450,267,22715,1,8,0:0:0:0:
354,137,22907,1,4,0:0:0:0:
409,350,23099,1,8,0:0:0:0:
474,148,23292,6,0,L|461:62,1,75.0000028610231,4|0,0:2|0:0,0:0:0:0:
386,23,23484,1,8,0:0:0:0:
386,23,23580,2,0,P|283:58|219:42,1,150.000005722046,4|4,0:0|0:0,0:0:0:0:
170,13,23869,1,8,0:0:0:0:
66,257,24061,6,0,L|75:159,1,80,4|0,0:2|0:0,0:0:0:0:
154,144,24253,1,8,0:0:0:0:
154,144,24349,2,0,P|257:179|324:164,1,160,4|4,0:0|0:0,0:0:0:0:
382,132,24638,1,8,0:0:0:0:
467,347,24830,6,0,L|458:249,1,85.0000016212464,4|0,0:2|0:0,0:0:0:0:
378,241,25022,1,8,0:0:0:0:
378,241,25119,2,0,P|275:276|204:257,1,170.000003242493,4|0,0:0|0:0,0:0:0:0:
137,234,25407,1,8,0:0:0:0:
49,384,25599,5,4,0:2:0:0:
16,91,25792,1,8,0:0:0:0:
20,133,25888,1,8,0:0:0:0:
24,175,25984,1,8,0:0:0:0:
28,217,26080,1,8,0:0:0:0:
32,259,26176,1,8,0:0:0:0:
37,301,26272,1,8,0:0:0:0:
48,290,26369,6,0,P|102:292|139:312,1,85.0000016212464,4|8,0:1|0:0,0:0:0:0:
184,359,26657,2,0,P|238:357|275:337,1,85.0000016212464,4|4,0:0|0:0,0:0:0:0:
305,283,26945,2,0,L|316:186,1,85.0000016212464,8|4,0:2|0:0,0:0:0:0:
473,365,27330,1,8,0:0:0:0:
473,365,27426,2,0,L|455:226,1,127.50000243187,4|8,0:0|0:2,0:0:0:0:
451,0,27907,6,0,P|421:38|411:75,1,85.0000016212464,4|8,0:0|0:0,0:0:0:0:
403,152,28195,1,4,0:0:0:0:
403,152,28292,2,0,L|310:138,1,85.0000016212464,0|8,0:0|0:2,0:0:0:0:
154,179,28676,1,4,0:0:0:0:
42,298,28869,1,8,0:0:0:0:
42,298,28965,1,4,0:0:0:0:
0,148,29157,1,4,0:0:0:0:
0,148,29253,1,10,0:2:0:0:
154,179,29445,5,4,0:0:0:0:
113,39,29638,1,8,0:0:0:0:
113,39,29734,1,4,0:0:0:0:
113,39,29830,2,0,P|89:79|89:121,1,85.0000016212464,0|8,0:0|0:2,0:0:0:0:
168,268,30215,1,4,0:0:0:0:
322,202,30407,1,8,0:0:0:0:
322,202,30503,1,4,0:0:0:0:
322,202,30599,2,0,P|345:242|345:284,1,85.0000016212464,0|8,0:0|0:2,0:0:0:0:
234,146,30984,6,0,L|248:57,1,85.0000016212464,4|8,0:0|0:0,0:0:0:0:
316,10,31272,2,0,L|329:93,1,85.0000016212464,4|4,0:0|0:0,0:0:0:0:
390,141,31561,2,0,P|436:157|484:146,1,85.0000016212464,8|4,0:2|0:0,0:0:0:0:
495,317,31945,1,0,1:0:0:0:
493,292,32041,1,0,1:0:0:0:
483,269,32137,1,0,1:0:0:0:
466,252,32233,1,0,0:0:0:0:
443,241,32329,1,0,1:0:0:0:
419,240,32425,1,0,0:0:0:0:
395,246,32522,6,0,L|303:260,1,85.0000016212464,4|8,0:2|0:0,0:0:0:0:
251,215,32811,2,0,L|166:202,1,85.0000016212464,4|4,0:0|0:0,0:0:0:0:
94,220,33099,2,0,P|75:269|79:315,1,85.0000016212464,8|4,0:2|0:0,0:0:0:0:
218,131,33484,1,8,0:0:0:0:
218,131,33580,2,0,P|183:84|103:70,1,127.50000243187,4|8,0:0|0:2,0:0:0:0:
308,158,34061,6,0,L|404:145,1,85.0000016212464,4|8,0:0|0:0,0:0:0:0:
459,106,34349,1,4,0:0:0:0:
459,106,34445,2,0,P|490:148|495:191,1,85.0000016212464,0|8,0:0|0:2,0:0:0:0:
446,341,34830,2,0,L|354:331,1,85.0000016212464,4|8,0:0|0:0,0:0:0:0:
295,295,35119,1,4,0:0:0:0:
295,295,35215,1,0,0:0:0:0:
165,360,35407,1,10,0:2:0:0:
65,250,35599,5,4,0:0:0:0:
246,131,35792,1,8,0:0:0:0:
246,131,35888,1,4,0:0:0:0:
246,131,35984,2,0,P|212:188|185:200,1,85.0000016212464,0|8,0:0|0:0,0:0:0:0:
104,44,36369,1,4,0:0:0:0:
347,92,36561,1,8,0:0:0:0:
347,92,36657,1,4,0:0:0:0:
347,92,36753,2,0,P|296:65|275:28,1,85.0000016212464,0|8,0:0|0:2,0:0:0:0:
456,38,37138,6,0,L|468:128,1,85.0000016212464,4|8,0:0|0:0,0:0:0:0:
503,188,37426,2,0,L|491:273,1,85.0000016212464,4|4,0:0|0:0,0:0:0:0:
512,348,37715,1,8,0:2:0:0:
357,215,37907,5,8,0:0:0:0:
258,380,38099,1,8,0:0:0:0:
289,351,38195,1,8,0:0:0:0:
302,311,38291,1,8,0:0:0:0:
294,270,38387,1,8,0:0:0:0:
266,238,38483,1,8,0:0:0:0:
227,224,38579,1,8,0:0:0:0:
186,231,38676,6,0,B|106:244|106:244|32:206,1,139.999995727539,4|8,0:1|0:0,0:0:0:0:
53,49,38965,2,0,B|62:128|62:128|117:156,1,139.999995727539,4|4,0:0|0:0,0:0:0:0:
115,155,39253,1,8,0:0:0:0:
227,37,39445,2,0,L|317:52,1,69.9999978637696,4|0,0:0|0:0,0:0:0:0:
380,64,39638,1,8,0:0:0:0:
380,64,39734,2,0,B|412:112|412:112|364:202,1,139.999995727539,4|4,0:0|0:0,0:0:0:0:
332,253,40022,1,8,0:0:0:0:
506,355,40215,6,0,B|471:312|471:312|355:323,1,139.999995727539,4|8,0:0|0:0,0:0:0:0:
315,356,40503,2,0,B|230:363|230:363|195:320,1,139.999995727539,4|4,0:0|0:0,0:0:0:0:
195,320,40792,1,8,0:0:0:0:
51,366,40984,2,0,L|43:297,1,69.9999978637696,4|0,0:0|0:0,0:0:0:0:
35,217,41176,1,8,0:0:0:0:
35,217,41272,2,0,B|87:190|87:190|100:94,1,139.999995727539,4|4,0:0|0:0,0:0:0:0:
104,28,41561,2,0,L|192:12,1,69.9999978637696,8|0,0:0|0:0,0:0:0:0:
252,77,41753,6,0,B|336:95|336:95|379:55,1,139.999995727539,4|8,0:0|0:0,0:0:0:0:
459,90,42042,2,0,B|401:153|401:153|416:215,1,139.999995727539,4|4,0:0|0:0,0:0:0:0:
413,206,42330,1,8,0:0:0:0:
260,163,42522,2,0,B|243:193|243:193|255:250,1,69.9999978637696,4|0,0:3|0:0,0:0:0:0:
305,329,42715,1,8,0:0:0:0:
305,329,42811,2,0,B|347:290|347:290|327:201,1,139.999995727539,4|4,0:0|0:0,0:0:0:0:
260,163,43099,1,8,0:0:0:0:
113,316,43292,6,0,L|198:304,1,69.9999978637696,4|0,0:0|0:0,0:0:0:0:
251,258,43484,1,8,0:0:0:0:
251,258,43580,2,0,B|209:297|209:297|229:386,1,139.999995727539,4|4,0:0|0:0,0:0:0:0:
227,377,43869,1,8,0:0:0:0:
469,226,44061,5,4,0:0:0:0:
393,355,44253,1,8,0:0:0:0:
381,322,44349,1,8,0:0:0:0:
368,289,44445,2,0,P|371:251|391:217,1,69.9999978637696,4|4,0:0|0:0,0:0:0:0:
497,140,44638,2,0,L|422:151,1,69.9999978637696,4|4,0:0|0:0,0:0:0:0:
314,184,44830,6,0,B|255:161|255:161|234:78,1,139.999995727539,4|8,0:1|0:0,0:0:0:0:
274,10,45119,2,0,B|333:33|333:33|354:116,1,139.999995727539,4|4,0:0|0:0,0:0:0:0:
351,107,45407,1,8,0:0:0:0:
145,57,45599,2,0,L|68:67,1,69.9999978637696,4|0,0:0|0:0,0:0:0:0:
15,139,45792,1,8,0:0:0:0:
15,139,45888,2,0,B|102:153|102:153|125:205,1,139.999995727539,4|4,0:0|0:0,0:0:0:0:
47,226,46176,1,8,0:0:0:0:
259,344,46369,6,0,B|172:330|172:330|151:282,1,139.999995727539,4|8,0:0|0:0,0:0:0:0:
207,219,46657,2,0,B|257:191|257:191|272:85,1,139.999995727539,4|4,0:0|0:0,0:0:0:0:
268,109,46945,1,8,0:0:0:0:
334,308,47138,2,0,L|421:299,1,69.9999978637696,4|0,0:0|0:0,0:0:0:0:
478,249,47330,1,8,0:0:0:0:
478,249,47426,2,0,B|428:221|428:221|413:115,1,139.999995727539,4|4,0:0|0:0,0:0:0:0:
471,77,47715,1,8,0:0:0:0:
403,300,47907,6,0,B|386:352|386:352|294:377,1,139.999995727539,4|8,0:0|0:0,0:0:0:0:
223,343,48195,2,0,B|206:291|206:291|114:266,1,139.999995727539,4|4,0:0|0:0,0:0:0:0:
123,268,48484,1,8,0:0:0:0:
318,281,48676,2,0,B|334:248|334:248|327:191,1,69.9999978637696,4|0,0:0|0:0,0:0:0:0:
272,132,48869,1,8,0:0:0:0:
272,132,48965,2,0,B|238:177|238:177|138:194,1,139.999995727539,4|4,0:0|0:0,0:0:0:0:
73,205,49253,1,8,0:0:0:0:
67,14,49445,6,0,B|113:38|113:38|103:152,1,139.999995727539,4|8,0:0|0:0,0:0:0:0:
77,209,49734,1,4,0:0:0:0:
77,209,49830,2,0,L|89:290,1,69.9999978637696,4|4,0:0|0:0,0:0:0:0:
101,360,50022,1,8,0:0:0:0:
315,174,50215,5,8,0:0:0:0:
289,164,50311,1,8,0:0:0:0:
261,165,50407,1,8,0:0:0:0:
236,177,50503,1,8,0:0:0:0:
218,198,50599,1,8,0:0:0:0:
210,225,50695,1,8,0:0:0:0:
245,253,50792,5,8,0:0:0:0:
228,293,50888,1,8,0:0:0:0:
213,331,50984,6,0,L|331:348,1,110.000003356934,4|8,0:1|0:0,0:0:0:0:
404,356,51272,1,4,0:0:0:0:
382,104,51465,1,4,0:0:0:0:
342,120,51561,2,0,P|329:143|327:170,1,55.0000016784668,8|0,0:0|0:0,0:0:0:0:
435,169,51753,2,0,P|461:126|448:51,1,110.000003356934,4|8,0:0|0:0,0:0:0:0:
385,23,52042,2,0,L|257:11,1,110.000003356934,4|4,0:0|0:0,0:0:0:0:
234,83,52330,2,0,P|218:105|193:116,1,55.0000016784668,8|0,0:0|0:0,0:0:0:0:
112,107,52522,5,4,0:0:0:0:
207,226,52715,1,8,0:0:0:0:
252,240,52811,1,4,0:0:0:0:
60,257,53003,1,4,0:0:0:0:
25,288,53099,1,8,0:0:0:0:
125,195,53292,2,0,L|143:326,1,110.000003356934,4|8,0:0|0:0,0:0:0:0:
188,368,53580,1,4,0:0:0:0:
386,246,53772,1,0,0:0:0:0:
346,225,53869,2,0,P|298:242|285:262,1,55.0000016784668,8|0,0:0|0:0,0:0:0:0:
348,314,54061,5,4,0:0:0:0:
348,314,54253,2,0,B|419:113|211:275|285:39,1,300.000011444092,12|8,0:1|0:0,0:0:0:0:
278,62,54830,5,4,0:0:0:0:
441,167,55022,2,0,B|514:98|509:83|503:67|420:11|401:18|381:24|357:134,1,300.000011444092,12|8,0:1|0:0,0:0:0:0:
363,112,55599,5,4,0:0:0:0:
274,264,55792,2,0,B|222:263|216:256|210:249|193:203|188:189|176:180|112:197|107:209|110:219|120:285|118:294|114:303|68:329,1,300.000011444092,12|8,0:1|0:0,0:0:0:0:
75,324,56369,5,4,0:0:0:0:
127,120,56561,2,0,B|62:326|268:168|198:363,1,300.000011444092,12|8,0:1|0:0,0:0:0:0:
199,363,57138,6,0,L|330:346,1,110.000003356934,4|8,0:1|0:0,0:0:0:0:
391,337,57426,1,4,0:0:0:0:
300,117,57619,1,4,0:0:0:0:
285,158,57715,2,0,P|326:185|351:184,1,55.0000016784668,8|0,0:0|0:0,0:0:0:0:
474,199,57907,2,0,P|418:214|392:273,1,110.000003356934,4|8,0:0|0:0,0:0:0:0:
391,337,58195,2,0,L|281:351,1,110.000003356934,4|4,0:0|0:0,0:0:0:0:
215,304,58484,1,8,0:0:0:0:
55,384,58676,5,4,0:0:0:0:
134,270,58869,1,8,0:0:0:0:
143,227,58965,1,4,0:0:0:0:
23,152,59157,1,4,0:0:0:0:
13,109,59253,1,8,0:0:0:0:
150,5,59445,2,0,P|180:47|174:108,1,110.000003356934,4|8,0:0|0:0,0:0:0:0:
108,151,59734,1,4,0:0:0:0:
335,90,59926,1,4,0:0:0:0:
313,128,60022,2,0,P|278:148|247:145,1,55.0000016784668,8|0,0:0|0:0,0:0:0:0:
176,103,60215,6,0,L|192:229,1,110.000003356934,4|8,0:2|0:0,0:0:0:0:
122,295,60503,2,0,P|209:315|230:346,1,110.000003356934,4|4,0:0|0:0,0:0:0:0:
294,361,60792,1,8,0:0:0:0:
490,187,60984,2,0,P|433:201|402:249,1,110.000003356934,4|8,0:2|0:0,0:0:0:0:
313,280,61272,2,0,L|328:165,1,110.000003356934,4|4,0:0|0:0,0:0:0:0:
336,91,61561,1,8,0:0:0:0:
155,126,61753,5,4,0:0:0:0:
257,61,61945,1,8,0:0:0:0:
257,61,62042,1,8,0:0:0:0:
257,61,62138,2,0,B|228:42|228:42|183:38,1,64.9999970245363,8|8,0:0|0:0,0:0:0:0:
122,8,62330,2,0,B|94:29|94:29|77:71,1,64.9999970245363,8|8,0:0|0:0,0:0:0:0:
29,120,62522,2,0,B|41:152|41:152|75:182,1,64.9999970245363,8|8,0:0|0:0,0:0:0:0:
107,242,62715,2,0,B|141:240|141:240|180:217,1,64.9999970245363,8|8,0:0|0:0,0:0:0:0:
248,206,62907,2,0,B|257:172|257:172|247:128,1,64.9999970245363,8|8,0:0|0:0,0:0:0:0:
155,126,63099,1,8,0:0:0:0:
155,126,63195,1,8,0:0:0:0:
155,126,63292,6,0,L|286:110,1,129.999994049073,4|8,0:1|0:0,0:0:0:0:
402,15,63580,2,0,L|272:30,1,129.999994049073,4|4,0:0|0:0,0:0:0:0:
248,206,63869,2,0,P|272:227|303:235,1,64.9999970245363,8|0,0:0|0:0,0:0:0:0:
399,147,64061,2,0,L|382:279,1,129.999994049073,4|8,0:0|0:0,0:0:0:0:
453,371,64349,2,0,L|469:242,1,129.999994049073,4|4,0:0|0:0,0:0:0:0:
303,235,64638,2,0,P|280:284|288:313,1,64.9999970245363,8|0,0:0|0:0,0:0:0:0:
349,369,64830,6,0,L|206:385,1,129.999994049073,4|8,0:2|0:0,0:0:0:0:
42,327,65119,2,0,L|171:312,1,129.999994049073,4|4,0:0|0:0,0:0:0:0:
303,235,65407,2,0,P|299:203|280:177,1,64.9999970245363,8|0,0:0|0:0,0:0:0:0:
57,181,65599,5,8,0:0:0:0:
107,192,65695,1,8,0:0:0:0:
157,177,65792,1,8,0:0:0:0:
196,143,65888,1,8,0:0:0:0:
215,94,65984,1,8,0:0:0:0:
215,94,66369,6,0,P|276:68|370:62,1,150.000005722046,4|8,0:1|0:0,0:0:0:0:
440,32,66657,1,4,0:0:0:0:
440,32,66753,2,0,P|483:81|518:169,1,150.000005722046,4|8,0:0|0:0,0:0:0:0:
263,270,67138,1,4,0:0:0:0:
415,139,67330,1,8,0:0:0:0:
415,139,67426,1,4,0:0:0:0:
452,336,67619,1,4,0:0:0:0:
452,336,67715,1,8,0:0:0:0:
263,270,67907,6,0,P|232:193|223:98,1,150.000005722046,4|8,0:0|0:0,0:0:0:0:
163,38,68195,1,4,0:0:0:0:
163,38,68292,2,0,P|134:107|122:180,1,150.000005722046,4|8,0:0|0:0,0:0:0:0:
481,289,68676,2,0,P|419:255|337:241,1,150.000005722046,4|8,0:0|0:0,0:0:0:0:
361,379,68965,1,4,0:0:0:0:
361,379,69061,2,0,P|426:364|456:343,1,75.0000028610231,4|0,0:0|0:0,0:0:0:0:
481,289,69253,1,8,0:0:0:0:
263,270,69445,6,0,P|215:240|155:151,1,150.000005722046,4|8,0:2|0:0,0:0:0:0:
123,79,69734,2,0,P|121:135|73:232,1,150.000005722046,4|4,0:0|0:0,0:0:0:0:
27,295,70022,2,0,P|76:268|184:260,2,150.000005722046,8|4|8,0:0|0:0|0:0,0:0:0:0:
54,379,70503,2,0,P|128:374|195:342,1,150.000005722046,4|4,0:0|0:0,0:0:0:0:
251,279,70792,1,8,0:0:0:0:
77,69,70984,6,0,P|126:134|189:178,1,150.000005722046,4|8,0:0|0:0,0:0:0:0:
262,201,71272,2,0,P|306:140|366:96,1,150.000005722046,4|4,0:0|0:0,0:0:0:0:
448,108,71561,2,0,P|476:149|486:200,1,75.0000028610231,8|0,0:0|0:0,0:0:0:0:
453,253,71753,5,8,0:0:0:0:
205,92,71945,1,8,0:0:0:0:
242,91,72041,1,8,0:0:0:0:
279,97,72137,1,8,0:0:0:0:
314,110,72233,1,8,0:0:0:0:
346,130,72329,1,8,0:0:0:0:
374,154,72425,1,8,0:0:0:0:
398,184,72522,6,0,P|330:225|250:232,1,150.000005722046,4|8,0:1|0:0,0:0:0:0:
177,223,72811,1,4,0:0:0:0:
177,223,72907,2,0,P|148:291|150:366,1,150.000005722046,4|8,0:0|0:0,0:0:0:0:
299,144,73292,1,4,0:0:0:0:
117,43,73484,1,8,0:0:0:0:
117,43,73580,1,4,0:0:0:0:
62,239,73772,1,4,0:0:0:0:
62,239,73869,1,8,0:0:0:0:
299,144,74061,6,0,P|339:77|365:-9,1,150.000005722046,4|8,0:0|0:0,0:0:0:0:
271,46,74349,1,4,0:0:0:0:
271,46,74446,2,0,P|330:79|426:105,1,150.000005722046,4|8,0:0|0:0,0:0:0:0:
288,337,74830,2,0,P|248:270|222:184,1,150.000005722046,4|8,0:0|0:0,0:0:0:0:
316,239,75118,1,4,0:0:0:0:
316,239,75215,2,0,P|256:272|160:298,1,150.000005722046,4|8,0:0|0:0,0:0:0:0:
31,77,75599,6,0,P|102:97|168:133,1,150.000005722046,4|8,0:2|0:0,0:0:0:0:
225,201,75888,2,0,P|207:128|204:53,1,150.000005722046,4|4,0:0|0:0,0:0:0:0:
290,113,76176,2,0,P|361:92|427:56,2,150.000005722046,8|4|8,0:0|0:0|0:0,0:0:0:0:
209,57,76657,1,4,0:0:0:0:
209,57,76753,2,0,P|163:37|121:32,1,75.0000028610231,4|0,0:0|0:0,0:0:0:0:
31,77,76945,1,8,0:0:0:0:
216,301,77138,5,4,0:2:0:0:
61,166,77330,1,8,0:0:0:0:
61,166,77426,1,8,0:0:0:0:
61,166,77522,2,0,B|71:200|71:200|104:234,1,75.0000028610231,8|8,0:0|0:0,0:0:0:0:
216,301,77715,2,0,B|205:266|205:266|172:232,1,75.0000028610231,2|2,0:0|0:0,0:0:0:0:
28,275,77907,5,8,0:3:0:0:
277,122,78099,1,8,0:3:0:0:
277,122,78195,1,8,0:3:0:0:
277,122,78292,2,0,B|252:148|252:148|239:194,1,75.0000028610231,4|4,0:3|0:0,0:0:0:0:
298,338,78484,2,0,B|324:363|324:363|370:376,1,75.0000028610231,4|4,0:3|0:0,0:0:0:0:
475,204,78676,5,4,0:1:0:0:
256,192,83292,12,2,84638,2:0:0:0:
114,52,84830,6,0,B|74:88|74:88|93:181,1,129.999994049073,4|8,0:1|0:0,0:0:0:0:
195,245,85119,2,0,L|165:115,1,129.999994049073,4|4,0:0|0:0,0:0:0:0:
197,42,85407,1,8,0:0:0:0:
416,167,85599,2,0,L|329:145,1,64.9999970245363,4|0,0:0|0:0,0:0:0:0:
291,96,85792,1,8,0:0:0:0:
291,96,85888,2,0,B|334:64|334:64|423:84,1,129.999994049073,4|4,0:0|0:0,0:0:0:0:
485,119,86176,1,8,0:0:0:0:
304,219,86369,6,0,B|268:257|268:257|285:354,1,129.999994049073,4|8,0:0|0:0,0:0:0:0:
359,373,86657,1,4,0:0:0:0:
359,373,86753,2,0,B|395:335|395:335|378:238,1,129.999994049073,4|8,0:0|0:0,0:0:0:0:
224,109,87138,1,4,0:0:0:0:
97,253,87330,1,8,0:0:0:0:
97,253,87426,1,4,0:0:0:0:
97,253,87522,2,0,L|186:243,1,64.9999970245363,4|0,0:0|0:0,0:0:0:0:
226,194,87715,1,8,0:0:0:0:
25,303,87907,6,0,B|58:340|58:340|163:331,1,129.999994049073,4|8,0:2|0:0,0:0:0:0:
226,326,88195,1,4,0:0:0:0:
226,326,88292,2,0,L|375:350,1,129.999994049073,4|8,0:0|0:0,0:0:0:0:
469,106,88676,2,0,B|418:128|418:128|405:222,1,129.999994049073,4|8,0:0|0:0,0:0:0:0:
337,253,88965,1,4,0:0:0:0:
337,253,89061,2,0,L|317:111,1,129.999994049073,4|8,0:0|0:0,0:0:0:0:
36,50,89445,6,0,L|119:63,1,64.9999970245363,4|0,0:0|0:0,0:0:0:0:
173,28,89638,1,8,0:0:0:0:
173,28,89734,2,0,B|255:16|255:16|302:63,1,129.999994049073,4|4,0:0|0:0,0:0:0:0:
318,124,90022,1,8,0:0:0:0:
78,169,90215,5,4,0:0:0:0:
271,193,90407,1,8,0:0:0:0:
262,229,90503,1,8,0:0:0:0:
243,262,90599,1,8,0:0:0:0:
216,288,90695,1,8,0:0:0:0:
182,305,90791,1,8,0:0:0:0:
145,311,90887,1,8,0:0:0:0:
108,307,90984,6,0,B|146:283|146:283|257:304,1,129.999994049073,4|8,0:1|0:0,0:0:0:0:
298,349,91272,2,0,L|429:334,1,129.999994049073,4|4,0:0|0:0,0:0:0:0:
481,276,91561,1,8,0:0:0:0:
253,93,91753,2,0,L|265:185,1,64.9999970245363,4|0,0:0|0:0,0:0:0:0:
323,220,91945,1,8,0:0:0:0:
323,220,92042,2,0,B|404:230|404:230|459:188,1,129.999994049073,4|4,0:0|0:0,0:0:0:0:
505,147,92330,1,8,0:0:0:0:
307,19,92522,6,0,B|226:9|226:9|171:51,1,129.999994049073,4|8,0:0|0:0,0:0:0:0:
176,124,92811,1,4,0:0:0:0:
176,124,92907,2,0,L|84:109,1,64.9999970245363,4|4,0:0|0:3,0:0:0:0:
32,100,93099,1,8,0:0:0:0:
73,319,93292,1,4,0:3:0:0:
86,199,93484,1,8,0:0:0:0:
86,199,93580,1,4,0:0:0:0:
86,199,93676,2,0,B|112:242|112:242|202:254,1,129.999994049073,4|8,0:0|0:0,0:0:0:0:
473,193,94061,6,0,L|396:202,1,64.9999970245363,4|0,0:0|0:0,0:0:0:0:
331,231,94253,1,8,0:0:0:0:
331,231,94349,2,0,B|370:203|370:203|383:111,1,129.999994049073,4|4,0:3|0:0,0:0:0:0:
394,42,94638,1,8,0:0:0:0:
286,154,94830,2,0,L|265:10,1,129.999994049073,4|8,0:0|0:0,0:0:0:0:
185,5,95118,2,0,B|148:33|148:33|158:115,1,129.999994049073,4|4,0:0|0:0,0:0:0:0:
208,182,95407,1,8,0:0:0:0:
21,249,95599,6,0,L|102:264,1,64.9999970245363,4|0,0:0|0:0,0:0:0:0:
157,306,95792,1,8,0:0:0:0:
157,306,95888,2,0,B|238:292|238:292|264:249,1,129.999994049073,4|4,0:3|0:0,0:0:0:0:
292,176,96176,1,8,0:0:0:0:
409,344,96369,5,4,0:0:0:0:
469,208,96561,1,8,0:0:0:0:
450,234,96657,1,8,0:0:0:0:
420,247,96753,2,0,P|390:233|369:208,1,64.9999970245363,4|4,0:0|0:0,0:0:0:0:
367,63,96945,2,0,P|369:95|358:125,1,64.9999970245363,4|4,0:0|0:0,0:0:0:0:
292,176,97138,6,0,L|161:157,1,110.000003356934,4|8,0:1|0:0,0:0:0:0:
103,148,97426,1,4,0:0:0:0:
193,327,97619,1,4,0:0:0:0:
225,297,97715,2,0,P|216:249|197:230,1,55.0000016784668,8|0,0:0|0:0,0:0:0:0:
131,227,97907,2,0,P|74:258|9:245,1,110.000003356934,4|8,0:0|0:0,0:0:0:0:
1,179,98195,1,4,0:0:0:0:
1,179,98292,2,0,L|9:109,1,55.0000016784668,4|0,0:0|0:0,0:0:0:0:
16,42,98484,1,8,0:0:0:0:
183,160,98676,5,4,0:0:0:0:
356,141,98869,1,8,0:0:0:0:
364,97,98965,1,4,0:0:0:0:
211,319,99157,1,4,0:0:0:0:
203,274,99253,2,0,P|238:233|263:226,1,55.0000016784668,8|0,0:0|0:0,0:0:0:0:
318,220,99445,2,0,L|433:238,1,110.000003356934,4|8,0:0|0:0,0:0:0:0:
505,204,99734,2,0,P|531:157|523:91,1,110.000003356934,4|4,0:0|0:0,0:0:0:0:
477,36,100022,2,0,P|441:53|429:74,1,55.0000016784668,8|0,0:0|0:0,0:0:0:0:
411,145,100215,5,4,0:0:0:0:
411,145,100407,2,0,B|365:25|354:24|341:22|263:108|256:112|250:115|186:93,1,300.000011444092,4|8,0:1|0:0,0:0:0:0:
191,95,100984,5,4,0:0:0:0:
425,228,101176,2,0,B|401:325|386:328|369:331|279:287|275:267|271:247|354:171,1,300.000011444092,4|8,0:1|0:0,0:0:0:0:
337,187,101753,5,4,0:0:0:0:
196,384,101945,2,0,B|263:171|55:333|126:132,1,300.000011444092,4|8,0:1|0:0,0:0:0:0:
124,140,102522,5,4,0:0:0:0:
53,313,102715,2,0,B|157:318|165:306|171:295|242:109,1,300.000011444092,4|8,0:1|0:0,0:0:0:0:
236,125,103292,6,0,L|363:108,1,110.000003356934,4|8,0:1|0:0,0:0:0:0:
425,98,103580,1,4,0:0:0:0:
301,203,103772,1,4,0:0:0:0:
289,245,103869,2,0,P|306:289|327:305,1,55.0000016784668,8|0,0:0|0:0,0:0:0:0:
485,361,104061,2,0,P|438:320|373:327,1,110.000003356934,4|8,0:0|0:0,0:0:0:0:
332,377,104349,1,4,0:0:0:0:
332,377,104445,2,0,P|296:377|261:359,1,55.0000016784668,2|0,0:0|0:0,0:0:0:0:
222,306,104638,1,8,0:0:0:0:
48,341,104830,5,8,0:0:0:0:
48,341,104926,1,4,0:0:0:0:
48,341,105022,2,0,L|96:329,1,37.5000014305115,4|4,0:0|0:0,0:0:0:0:
149,261,105215,1,8,0:0:0:0:
149,261,105311,1,4,0:0:0:0:
149,261,105407,2,0,L|101:249,1,37.5000014305115,4|4,0:0|0:0,0:0:0:0:
23,184,105599,1,8,0:0:0:0:
23,184,105695,1,8,0:0:0:0:
23,184,105791,2,0,L|71:172,1,37.5000014305115,4|4,0:0|0:0,0:0:0:0:
139,152,105984,2,0,L|187:140,1,37.5000014305115,4|4,0:0|0:0,0:0:0:0:
257,121,106176,2,0,L|305:109,1,37.5000014305115,4|4,0:0|0:0,0:0:0:0:
374,92,106369,6,0,P|438:109|468:152,1,110.000003356934,4|8,0:2|0:0,0:0:0:0:
477,219,106657,2,0,L|464:334,1,110.000003356934,4|4,0:0|0:0,0:0:0:0:
399,373,106945,1,8,0:0:0:0:
153,212,107138,2,0,P|189:172|243:162,1,110.000003356934,4|8,0:0|0:0,0:0:0:0:
320,202,107426,1,4,0:0:0:0:
320,202,107522,2,0,L|338:315,1,110.000003356934,2|8,0:0|0:0,0:0:0:0:
28,375,107907,5,4,0:2:0:0:
141,296,108099,1,8,0:0:0:0:
141,296,108195,1,4,0:0:0:0:
141,296,108292,2,0,L|252:309,1,110.000003356934,2|8,0:0|0:0,0:0:0:0:
410,153,108676,2,0,P|350:166|312:225,1,110.000003356934,4|8,0:0|0:0,0:0:0:0:
238,223,108965,2,0,P|188:212|141:168,1,110.000003356934,4|4,0:0|0:0,0:0:0:0:
123,94,109253,1,8,0:0:0:0:
397,23,109445,6,0,L|410:161,1,129.999994049073,4|8,0:1|0:0,0:0:0:0:
483,187,109734,2,0,L|470:325,1,129.999994049073,4|4,0:0|0:0,0:0:0:0:
405,364,110022,2,0,P|363:349|337:322,1,64.9999970245363,8|0,0:0|0:0,0:0:0:0:
292,231,110215,6,0,L|157:246,1,129.999994049073,4|8,0:0|0:0,0:0:0:0:
37,177,110503,2,0,L|166:162,1,129.999994049073,4|4,0:0|0:0,0:0:0:0:
113,31,110792,2,0,P|88:67|88:107,1,64.9999970245363,8|0,0:0|0:0,0:0:0:0:
162,245,110984,5,4,0:2:0:0:
319,97,111176,1,8,0:0:0:0:
319,97,111272,1,8,0:0:0:0:
319,97,111369,2,0,B|289:78|289:78|253:79,1,64.9999970245363,8|8,0:0|0:0,0:0:0:0:
236,165,111561,2,0,B|266:184|266:184|302:183,1,64.9999970245363,8|8,0:0|0:0,0:0:0:0:
427,166,111753,5,8,0:0:0:0:
427,166,111849,1,8,0:0:0:0:
427,166,111945,2,0,B|450:190|450:190|458:243,1,64.9999970245363,4|4,0:0|0:0,0:0:0:0:
338,280,112138,2,0,B|347:248|347:248|389:214,1,64.9999970245363,4|4,0:0|0:0,0:0:0:0:
484,303,112330,2,0,B|451:310|451:310|401:291,1,64.9999970245363,4|4,0:0|0:0,0:0:0:0:
263,232,112522,6,0,P|214:242|122:311,1,150.000005722046,4|8,0:1|0:0,0:0:0:0:
61,353,112811,1,4,0:0:0:0:
61,353,112907,2,0,P|27:265|23:193,1,150.000005722046,4|8,0:0|0:0,0:0:0:0:
135,0,113292,1,4,0:0:0:0:
286,117,113484,1,8,0:0:0:0:
286,117,113580,1,4,0:0:0:0:
108,191,113772,1,4,0:0:0:0:
108,191,113868,1,8,0:0:0:0:
333,45,114061,6,0,P|403:64|468:124,1,150.000005722046,4|8,0:0|0:0,0:0:0:0:
504,192,114349,1,4,0:0:0:0:
504,192,114445,2,0,P|475:250|466:356,1,150.000005722046,4|8,0:0|0:0,0:0:0:0:
206,360,114830,2,0,P|155:275|147:200,1,150.000005722046,4|8,0:0|0:0,0:0:0:0:
213,164,115119,1,4,0:0:0:0:
213,164,115215,2,0,P|303:204|369:206,1,150.000005722046,4|8,0:0|0:0,0:0:0:0:
496,13,115599,6,0,P|473:43|459:87,1,75.0000028610231,4|0,0:2|0:0,0:0:0:0:
456,164,115792,1,8,0:0:0:0:
456,164,115888,2,0,P|429:89|369:18,1,150.000005722046,4|4,0:0|0:0,0:0:0:0:
303,10,116176,2,0,P|228:36|157:96,2,150.000005722046,8|4|8,0:0|0:0|0:0,0:0:0:0:
386,33,116657,2,0,P|431:93|456:164,1,150.000005722046,4|4,0:0|0:0,0:0:0:0:
443,245,116945,1,8,0:0:0:0:
172,79,117138,6,0,P|251:85|317:114,1,150.000005722046,4|8,0:0|0:0,0:0:0:0:
341,194,117426,2,0,P|361:271|401:330,1,150.000005722046,4|4,0:0|0:0,0:0:0:0:
475,362,117715,1,8,0:0:0:0:
259,174,117907,5,8,0:0:0:0:
469,231,118099,1,8,0:0:0:0:
484,196,118195,1,8,0:0:0:0:
484,158,118292,2,0,L|393:146,1,75.0000028610231,4|4,0:0|0:0,0:0:0:0:
282,258,118484,2,0,L|207:267,1,75.0000028610231,4|4,0:0|0:0,0:0:0:0:
6,176,118676,6,0,P|83:214|131:284,1,150.000005722046,4|8,0:1|0:0,0:0:0:0:
164,337,118965,2,0,P|228:373|302:379,1,150.000005722046,4|4,0:0|0:0,0:0:0:0:
379,338,119253,2,0,P|400:281|395:176,2,150.000005722046,8|4|8,0:0|0:0|0:0,0:0:0:0:
306,383,119734,1,0,0:0:0:0:
306,383,119830,2,0,P|252:359|215:328,1,75.0000028610231,4|0,0:0|0:0,0:0:0:0:
185,285,120022,2,0,P|208:231|240:194,1,75.0000028610231,8|0,0:0|0:0,0:0:0:0:
289,168,120215,6,0,P|273:94|212:5,1,150.000005722046,4|8,0:0|0:0,0:0:0:0:
155,6,120503,1,4,0:0:0:0:
155,6,120599,2,0,P|95:37|2:59,1,150.000005722046,4|8,0:0|0:0,0:0:0:0:
235,305,120984,2,0,P|273:241|289:168,1,150.000005722046,4|8,0:0|0:0,0:0:0:0:
336,71,121272,1,4,0:0:0:0:
336,71,121369,2,0,P|374:151|379:234,1,150.000005722046,4|8,0:0|0:0,0:0:0:0:
476,28,121753,6,0,P|439:18|385:18,1,75.0000028610231,4|0,0:2|0:0,0:0:0:0:
336,71,121945,1,8,0:0:0:0:
336,71,122042,2,0,P|255:102|175:100,1,150.000005722046,4|4,0:0|0:0,0:0:0:0:
109,70,122330,2,0,P|157:115|193:221,2,150.000005722046,8|4|8,0:0|0:0|0:0,0:0:0:0:
37,115,122811,1,4,0:0:0:0:
37,115,122907,2,0,P|64:184|77:197,1,75.0000028610231,4|0,0:0|0:0,0:0:0:0:
126,240,123099,2,0,P|98:309|86:322,1,75.0000028610231,8|0,0:0|0:0,0:0:0:0:
26,344,123292,5,4,0:0:0:0:
206,302,123484,1,8,0:0:0:0:
242,310,123580,1,8,0:0:0:0:
277,322,123676,1,4,0:0:0:0:
309,340,123772,1,4,0:0:0:0:
339,362,123869,2,0,L|350:272,1,75.0000028610231,4|4,0:0|0:0,0:0:0:0:
236,184,124061,2,0,L|308:238,1,75.0000028610231,4|4,0:0|0:0,0:0:0:0:
441,185,124253,2,0,L|357:220,1,75.0000028610231,4|4,0:0|0:0,0:0:0:0:
339,362,124445,1,8,0:0:0:0:
339,362,124830,6,0,P|259:355|185:324,1,160,4|8,0:1|0:0,0:0:0:0:
100,320,125119,2,0,P|82:270|75:210,1,80,4|0,0:0|0:0,0:0:0:0:
25,176,125311,1,4,0:0:0:0:
25,176,125407,2,0,P|46:96|90:22,2,160,8|4|8,0:0|0:0|0:0,0:0:0:0:
81,247,125888,1,0,0:0:0:0:
81,247,125984,2,0,P|144:215|176:212,1,80,4|0,0:0|0:0,0:0:0:0:
225,175,126176,2,0,P|263:186|296:208,1,80,8|0,0:0|0:0,0:0:0:0:
362,259,126369,6,0,P|414:206|442:107,1,160,4|8,0:0|0:0,0:0:0:0:
385,60,126657,1,4,0:0:0:0:
385,60,126753,2,0,P|300:94|222:87,1,160,4|8,0:0|0:0,0:0:0:0:
22,197,127138,2,0,P|81:207|121:233,1,80,4|0,0:0|0:0,0:0:0:0:
171,181,127330,2,0,P|217:219|238:261,1,80,8|0,0:0|0:0,0:0:0:0:
249,313,127522,2,0,P|340:346|420:351,1,160,4|8,0:0|0:0,0:0:0:0:
512,84,127907,6,0,P|437:105|367:156,1,160,4|8,0:2|0:0,0:0:0:0:
302,200,128195,1,4,0:0:0:0:
302,200,128292,2,0,P|266:107|266:15,1,160,4|8,0:0|0:0,0:0:0:0:
474,187,128676,2,0,P|465:266|434:339,1,160,4|8,0:0|0:0,0:0:0:0:
356,372,128965,1,4,0:0:0:0:
356,372,129061,2,0,P|288:346|255:344,1,80,4|0,0:0|0:0,0:0:0:0:
202,367,129253,1,8,0:0:0:0:
355,222,129445,5,8,0:0:0:0:
355,222,129542,2,0,L|367:292,2,64.9999970245363,4|4|4,0:0|0:3|0:0,0:0:0:0:
296,161,129830,1,8,0:0:0:0:
296,161,129927,2,0,L|308:91,2,64.9999970245363,4|4|4,0:0|0:3|0:0,0:0:0:0:
274,244,130215,1,8,0:0:0:0:
274,244,130311,1,8,0:0:0:0:
274,244,130407,2,0,P|250:265|220:278,1,64.9999970245363,4|4,0:0|0:0,0:0:0:0:
139,285,130599,2,0,P|108:275|82:256,1,64.9999970245363,4|4,0:0|0:0,0:0:0:0:
35,188,130792,2,0,P|27:156|31:124,1,64.9999970245363,4|4,0:0|0:0,0:0:0:0:
69,49,130984,6,0,P|152:57|233:100,1,160,4|8,0:1|0:0,0:0:0:0:
286,149,131272,1,4,0:0:0:0:
286,149,131369,2,0,P|369:141|450:98,1,160,4|8,0:0|0:0,0:0:0:0:
126,137,131753,2,0,P|143:220|190:293,1,160,4|8,0:0|0:0,0:0:0:0:
255,337,132042,1,4,0:0:0:0:
255,337,132138,2,0,P|320:296|421:281,1,160,4|8,0:0|0:0,0:0:0:0:
113,337,132522,6,0,P|55:301|33:263,1,80,4|0,0:2|0:0,0:0:0:0:
22,213,132715,1,8,0:0:0:0:
22,213,132811,1,4,0:0:0:0:
22,213,132907,2,0,P|36:152|110:80,1,160,4|8,0:0|0:0,0:0:0:0:
343,164,133292,2,0,P|288:188|243:190,1,80,4|0,0:0|0:0,0:0:0:0:
182,203,133484,1,8,0:0:0:0:
182,203,133580,2,0,P|253:220|325:274,1,160,4|4,0:3|0:0,0:0:0:0:
357,348,133869,1,8,0:0:0:0:
501,191,134061,6,0,P|480:104|436:34,1,160,4|8,0:2|0:0,0:0:0:0:
363,31,134349,2,0,P|298:74|199:101,1,160,4|4,0:0|0:0,0:0:0:0:
146,60,134638,2,0,P|58:11|-18:5,2,160,8|4|8,0:0|0:0|0:0,0:0:0:0:
148,144,135119,2,0,P|119:183|78:211,1,80,4|0,0:0|0:0,0:0:0:0:
16,231,135311,1,4,0:0:0:0:
16,231,135407,2,0,P|41:283|77:314,1,80,8|8,0:0|0:0,0:0:0:0:
133,337,135599,5,4,0:2:0:0:
263,205,135797,1,2,0:0:0:0:
445,240,135995,1,2,0:0:0:0:
263,205,136193,1,2,0:0:0:0:
413,161,136391,5,10,0:0:0:0:
263,205,136589,1,6,0:0:0:0:
222,345,136787,5,6,0:0:0:0:
263,205,136985,1,6,0:0:0:0:
209,150,137183,5,4,0:2:0:0:
