osu file format v14

[General]
AudioFilename: design.mp3
AudioLeadIn: 0
PreviewTime: 37859
Countdown: 1
SampleSet: None
StackLeniency: 0.3
Mode: 0
LetterboxInBreaks: 0
WidescreenStoryboard: 1

[Editor]
Bookmarks: 10984,11176,11272,11561,11849,11945,12138,12330,12522,12715,12811,13099,13388,13484,13676,13869,14061,14253,14349,14638,14926,15022,15215,15407,15599,15888,16176,16369,16561,16657,16753,16945,17042,17138,17426,17715,17811,17907,18099,18292,18484,18676,18965,19253,19349,19445,19638,19830,20022,20215,20503,20792,20888,20984,21176,21369,21561,21753,21945,22138,22234,22330,22522,22715,22907,23099,23292,23580,23869,24061,24349,24638,24830,25119,25407,25599,25792,25888,25984,26080,26176,26272,26369,26657,26945,27138,27330,27426,27619,27715,27907,28195,28484,28676,28869,28965,29157,29253,29445,29638,29734,29926,30022,38676,50984,66417,68676,78292
DistanceSpacing: 0.4
BeatDivisor: 4
GridSize: 4
TimelineZoom: 2.3

[Metadata]
Title:Disparity By Design
TitleUnicode:Disparity By Design
Artist:Rise Against
ArtistUnicode:Rise Against
Creator:pishifat
Version:Hard
Source:
Tags:endgame metal punk dashyy-
BeatmapID:1720401
BeatmapSetID:360325

[Difficulty]
HPDrainRate:5
CircleSize:4
OverallDifficulty:6.5
ApproachRate:8
SliderMultiplier:2
SliderTickRate:1

[Events]
//Background and Video events
0,0,"8761074d-6960-49b9-b523-5fb719dc0015.png",0,0
//Break Periods
2,78876,82542
//Storyboard Layer 0 (Background)
//Storyboard Layer 1 (Fail)
//Storyboard Layer 2 (Pass)
//Storyboard Layer 3 (Foreground)
//Storyboard Sound Samples

[TimingPoints]
9446,384.615384615385,4,3,1,50,1,0
10984,-100,4,3,1,75,0,0
17138,-100,4,3,1,75,0,0
23292,-100,4,3,1,75,0,0
24061,-100,4,3,1,75,0,0
24830,-100,4,3,1,75,0,0
26369,-133.333333333333,4,3,2,55,0,0
37907,-100,4,3,1,65,0,0
38676,-100,4,3,1,75,0,0
50215,-100,4,3,2,75,0,0
50792,-100,4,3,1,65,0,0
50984,-114.285714285714,4,3,1,65,0,0
54253,-100,4,3,1,65,0,0
57138,-114.285714285714,4,3,1,65,0,0
62138,-100,4,3,1,65,0,0
66369,-100,4,3,1,75,0,1
78676,-100,4,3,1,75,0,0
83340,-100,4,3,2,5,0,0
84205,-100,4,3,1,35,0,0
84253,-100,4,3,2,5,0,0
84638,-100,4,3,1,45,0,0
84734,-100,4,3,1,35,0,0
84830,-100,4,3,1,75,0,0
97138,-114.285714285714,4,3,1,65,0,0
100407,-100,4,3,1,65,0,0
103292,-114.285714285714,4,3,1,65,0,0
104830,-100,4,3,1,65,0,0
106369,-114.285714285714,4,3,1,65,0,0
109445,-100,4,3,1,65,0,0
112522,-100,4,3,1,75,0,1
124638,-100,4,3,1,35,0,0
124830,-100,4,3,1,75,0,1
129494,-100,4,3,1,75,0,1
130984,-100,4,3,1,75,0,1
135599,396.039603960396,4,3,1,75,1,0

[Colours]
Combo1 : 167,123,196
Combo2 : 184,84,84
Combo3 : 108,108,189
Combo4 : 255,192,62

[HitObjects]
308,286,9445,6,0,L|274:228,1,50,8|8,0:0|0:0,0:0:0:0:
141,178,9734,1,8,0:0:0:0:
141,178,9830,2,0,L|208:177,1,50,8|4,0:0|0:0,0:0:0:0:
318,87,10119,1,8,0:0:0:0:
318,87,10215,2,0,L|284:145,1,50,8|8,0:0|0:0,0:0:0:0:
278,156,10407,2,0,B|380:128|340:238|471:208,1,200,4|4,0:0|0:0,0:0:0:0:
503,348,10984,6,0,P|464:315|416:301,1,100,4|8,0:1|0:0,0:0:0:0:
393,306,11272,1,4,0:0:0:0:
296,328,11465,1,4,0:0:0:0:
271,334,11561,2,0,L|101:364,1,150,8|4,0:0|0:0,0:0:0:0:
103,363,11945,2,0,P|34:335|7:307,2,100,8|4|8,0:0|0:0|0:0,0:0:0:0:
183,259,12522,6,0,L|164:150,1,100,4|8,0:0|0:0,0:0:0:0:
161,140,12811,1,4,0:0:0:0:
61,125,13003,1,4,0:0:0:0:
70,108,13099,2,0,P|147:50|221:50,1,150,8|4,0:0|0:0,0:0:0:0:
216,53,13484,1,8,0:0:0:0:
302,13,13676,1,4,0:0:0:0:
370,78,13869,1,8,0:0:0:0:
323,161,14061,6,0,P|326:207|366:263,1,100,4|8,0:0|0:0,0:0:0:0:
367,266,14349,1,4,0:0:0:0:
455,296,14542,1,4,0:0:0:0:
457,276,14638,2,0,L|475:103,1,150,8|4,0:0|0:0,0:0:0:0:
476,107,15022,2,0,P|505:53|538:30,2,100,8|4|8,0:0|0:0|0:0,0:0:0:0:
378,144,15599,6,0,P|313:88|302:55,1,100,4|8,0:2|0:0,0:0:0:0:
300,58,15888,2,0,L|136:89,1,150,4|8,0:0|0:0,0:0:0:0:
55,104,16369,1,4,0:0:0:0:
119,175,16561,2,0,L|111:226,2,50,8|8|4,0:0|0:0|0:0,0:0:0:0:
225,232,16945,1,8,0:0:0:0:
225,232,17042,1,8,0:0:0:0:
225,232,17138,6,0,P|272:236|354:309,2,150,4|4|8,0:1|0:0|0:0,0:0:0:0:
207,242,17811,1,2,0:0:0:0:
196,258,17907,1,4,0:0:0:0:
109,204,18099,2,0,L|95:95,2,100,8|4|8,0:0|0:0|0:0,0:0:0:0:
106,305,18676,6,0,P|63:285|11:188,2,150,4|4|8,0:0|0:0|0:0,0:0:0:0:
135,310,19349,1,2,0:0:0:0:
164,304,19445,1,4,0:0:0:0:
236,361,19638,1,8,0:0:0:0:
319,320,19830,1,4,0:0:0:0:
390,378,20022,1,8,0:0:0:0:
472,343,20215,6,0,L|484:228,1,100,4|8,0:0|0:0,0:0:0:0:
484,223,20503,1,4,0:0:0:0:
412,159,20695,1,4,0:0:0:0:
424,143,20792,2,0,P|468:116|481:114,2,50,8|2|4,0:0|0:0|0:0,0:0:0:0:
316,179,21176,1,8,0:0:0:0:
237,103,21369,2,0,P|220:39|236:-13,1,100,4|8,0:0|0:0,0:0:0:0:
341,79,21753,5,4,0:2:0:0:
316,179,21945,1,8,0:0:0:0:
292,278,22138,2,0,L|269:384,1,100,4|8,0:0|0:0,0:0:0:0:
183,296,22522,2,0,P|147:255|92:233,1,100,4|8,0:2|0:0,0:0:0:0:
47,314,22907,2,0,P|83:355|138:377,1,100,4|8,0:0|0:0,0:0:0:0:
183,296,23292,6,0,L|195:177,1,100,4|8,0:2|0:0,0:0:0:0:
195,176,23580,2,0,P|238:131|335:132,1,150,4|8,0:0|0:0,0:0:0:0:
407,67,24061,2,0,L|419:186,1,100,4|8,0:2|0:0,0:0:0:0:
420,186,24349,2,0,P|438:245|389:329,1,150,4|8,0:0|0:0,0:0:0:0:
330,240,24830,2,0,L|210:219,1,100,4|8,0:2|0:0,0:0:0:0:
211,219,25119,2,0,P|152:259|149:344,1,150,4|8,0:0|0:0,0:0:0:0:
47,365,25599,5,4,0:2:0:0:
12,278,25792,1,8,0:0:0:0:
12,278,25888,1,8,0:0:0:0:
12,278,25984,2,0,L|22:213,3,50,8|8|8|8,0:0|0:0|0:0|0:0,0:0:0:0:
23,208,26369,6,0,P|21:155|13:121,1,75.0000028610231,4|8,0:1|0:0,0:0:0:0:
172,12,26945,1,8,0:2:0:0:
172,12,27138,2,0,P|165:48|165:86,1,75.0000028610231,4|8,0:0|0:0,0:0:0:0:
288,237,27715,1,8,0:2:0:0:
341,184,27907,6,0,P|266:201|188:210,1,150.000005722046,4|0,0:0|0:0,0:0:0:0:
142,270,28484,1,8,0:2:0:0:
142,270,28676,1,4,0:0:0:0:
373,346,29061,1,0,0:0:0:0:
415,284,29253,1,10,0:2:0:0:
483,314,29445,6,0,P|443:221|429:161,1,150.000005722046,4|0,0:0|0:0,0:0:0:0:
257,13,30215,2,0,P|236:85|205:153,1,150.000005722046,4|0,0:0|0:0,0:0:0:0:
61,298,30984,2,0,P|119:281|175:273,2,112.500004291535,4|4|8,0:0|0:0|0:2,0:0:0:0:
14,360,31753,1,4,0:0:0:0:
97,377,31945,1,0,1:0:0:0:
97,377,32042,1,0,1:0:0:0:
97,377,32138,2,0,L|133:384,3,37.5000014305115,0|0|0|0,1:0|1:0|1:0|1:0,0:0:0:0:
152,379,32522,6,0,P|209:342|229:336,1,75.0000028610231,4|8,0:2|0:0,0:0:0:0:
421,284,33099,1,8,0:2:0:0:
421,284,33292,2,0,P|364:247|344:241,1,75.0000028610231,4|8,0:0|0:0,0:0:0:0:
203,142,33869,1,8,0:2:0:0:
257,88,34061,6,0,P|331:82|405:69,1,150.000005722046,4|0,0:0|0:0,0:0:0:0:
469,26,34638,1,8,0:2:0:0:
469,26,34830,1,4,0:0:0:0:
357,244,35215,2,0,P|360:206|368:170,1,75.0000028610231,0|10,0:0|0:2,0:0:0:0:
442,138,35599,6,0,P|469:213|479:285,1,150.000005722046,4|0,0:0|0:0,0:0:0:0:
268,327,36369,2,0,P|241:252|231:180,1,150.000005722046,4|0,0:0|0:0,0:0:0:0:
312,40,37138,2,0,P|387:18|423:4,2,112.500004291535,4|4|8,0:0|0:0|0:2,0:0:0:0:
236,26,37907,5,8,0:0:0:0:
179,77,38099,1,8,0:0:0:0:
179,77,38195,1,8,0:0:0:0:
179,77,38292,2,0,L|126:69,3,50,8|0|0|0,0:0|0:0|0:0|0:0,0:0:0:0:
110,59,38676,6,0,P|82:105|85:161,1,100,4|8,0:1|0:0,0:0:0:0:
90,167,38965,2,0,B|106:217|106:217|65:324,1,150,4|8,0:0|0:0,0:0:0:0:
142,369,39445,2,0,P|198:333|238:333,1,100,4|8,0:0|0:0,0:0:0:0:
248,340,39734,1,4,0:0:0:0:
319,286,39926,1,4,0:0:0:0:
335,297,40022,1,8,0:0:0:0:
428,300,40215,6,0,P|472:247|477:202,1,100,4|8,0:0|0:0,0:0:0:0:
471,199,40503,2,0,B|427:157|427:157|326:178,1,150,4|8,0:0|0:0,0:0:0:0:
239,172,40984,1,4,0:0:0:0:
277,84,41176,1,8,0:0:0:0:
293,72,41272,2,0,P|241:38|191:45,1,100,4|4,0:0|0:0,0:0:0:0:
189,52,41561,1,8,0:0:0:0:
132,124,41753,6,0,L|27:115,1,100,4|8,0:0|0:0,0:0:0:0:
12,114,42042,2,0,P|62:167|56:259,1,150,4|8,0:0|0:0,0:0:0:0:
21,327,42522,2,0,P|90:363|127:357,1,100,4|8,0:0|0:0,0:0:0:0:
128,355,42811,1,4,0:0:0:0:
206,297,43003,1,4,0:0:0:0:
210,277,43099,1,8,0:0:0:0:
266,204,43292,6,0,L|251:92,1,100,4|8,0:0|0:0,0:0:0:0:
247,85,43580,2,0,B|282:38|282:38|387:55,1,150,4|8,0:0|0:0,0:0:0:0:
468,70,44061,1,4,0:0:0:0:
413,146,44253,1,8,0:0:0:0:
413,146,44349,1,8,0:0:0:0:
413,146,44445,2,0,L|426:212,3,50,4|4|4|4,0:0|0:0|0:0|0:0,0:0:0:0:
437,208,44830,6,0,P|476:258|472:307,1,100,4|8,0:1|0:0,0:0:0:0:
468,310,45119,2,0,B|415:286|415:286|308:300,1,150,4|8,0:0|0:0,0:0:0:0:
248,360,45599,2,0,P|208:349|157:304,1,100,4|8,0:0|0:0,0:0:0:0:
158,293,45888,1,4,0:0:0:0:
83,232,46080,1,4,0:0:0:0:
89,213,46176,1,8,0:0:0:0:
22,147,46369,6,0,P|73:106|113:107,1,100,4|8,0:0|0:0,0:0:0:0:
121,117,46657,2,0,L|274:140,1,150,4|8,0:0|0:0,0:0:0:0:
361,108,47138,2,0,P|402:75|415:23,1,100,4|8,0:0|0:0,0:0:0:0:
417,11,47426,1,4,0:0:0:0:
512,25,47619,1,4,0:0:0:0:
508,44,47715,1,8,0:0:0:0:
474,129,47907,6,0,L|489:233,1,100,4|8,0:0|0:0,0:0:0:0:
493,247,48195,2,0,P|432:208|353:205,1,150,4|8,0:0|0:0,0:0:0:0:
278,258,48676,1,4,0:0:0:0:
205,200,48869,1,8,0:0:0:0:
190,186,48965,2,0,P|185:128|217:81,1,100,4|4,0:0|0:0,0:0:0:0:
220,80,49253,1,8,0:0:0:0:
145,12,49445,6,0,P|92:18|45:61,1,100,4|8,0:0|0:0,0:0:0:0:
96,136,49830,1,4,0:0:0:0:
96,136,49926,1,4,0:0:0:0:
96,136,50022,1,8,0:0:0:0:
17,183,50215,2,0,L|28:242,3,50,8|8|8|8,0:0|0:0|0:0|0:0,0:0:0:0:
15,247,50599,1,4,0:3:0:0:
42,381,50792,2,0,L|32:331,1,50,8|8,0:0|0:0,0:0:0:0:
47,322,50984,6,0,P|144:333|195:350,2,131.250001251698,4|4|8,0:1|0:0|0:0,0:0:0:0:
81,242,51753,2,0,P|178:231|229:214,1,131.250001251698,4|4,0:0|0:0,0:0:0:0:
258,148,52234,1,4,0:0:0:0:
252,132,52330,1,8,0:0:0:0:
338,182,52522,6,0,P|355:239|366:327,2,131.250001251698,4|4|8,0:0|0:0|0:0,0:0:0:0:
365,96,53292,2,0,P|405:55|481:13,1,131.250001251698,4|4,0:0|0:0,0:0:0:0:
512,94,53772,1,0,0:0:0:0:
501,107,53869,1,8,0:0:0:0:
450,186,54061,5,4,0:0:0:0:
450,186,54253,2,0,P|488:245|396:247,1,200,12|8,0:1|0:0,0:0:0:0:
396,122,54830,5,4,0:0:0:0:
396,122,55022,2,0,P|477:107|449:185,1,200,12|8,0:1|0:0,0:0:0:0:
342,185,55599,5,4,0:0:0:0:
342,185,55791,2,0,P|304:126|396:124,1,200,12|8,0:1|0:0,0:0:0:0:
396,249,56368,5,4,0:0:0:0:
396,249,56561,2,0,P|314:263|342:185,1,200,12|8,0:1|0:0,0:0:0:0:
301,276,57138,6,0,P|249:303|176:312,2,131.250001251698,4|4|8,0:1|0:0|0:0,0:0:0:0:
220,229,57907,2,0,P|158:210|99:170,1,131.250001251698,4|4,0:0|0:0,0:0:0:0:
49,103,58388,1,4,0:0:0:0:
43,86,58484,1,8,0:0:0:0:
135,90,58676,6,0,P|189:53|252:34,2,131.250001251698,4|4|8,0:0|0:0|0:0,0:0:0:0:
104,174,59445,2,0,P|134:246|136:313,1,131.250001251698,4|4,0:0|0:0,0:0:0:0:
96,377,59926,1,4,0:0:0:0:
80,384,60022,1,8,0:0:0:0:
185,375,60215,6,0,P|245:356|309:319,1,131.250001251698,4|4,0:2|0:0,0:0:0:0:
351,252,60695,1,4,0:0:0:0:
351,252,60792,1,8,0:0:0:0:
433,219,60984,2,0,P|373:200|309:163,1,131.250001251698,4|4,0:2|0:0,0:0:0:0:
241,111,61464,1,4,0:0:0:0:
241,111,61561,1,8,0:0:0:0:
281,25,61753,5,4,0:0:0:0:
366,81,61945,1,8,0:0:0:0:
366,81,62042,1,8,0:0:0:0:
366,81,62138,2,0,L|431:70,3,50,8|8|8|8,0:0|0:0|0:0|0:0,0:0:0:0:
435,116,62522,2,0,L|370:105,3,50,4|8|8|8,0:0|0:0|0:0|0:0,0:0:0:0:
378,157,62907,2,0,L|443:146,3,50,8|8|8|8,0:0|0:0|0:0|0:0,0:0:0:0:
448,188,63292,6,0,B|479:226|479:226|474:291,1,100,4|8,0:1|0:0,0:0:0:0:
463,292,63580,1,4,0:0:0:0:
373,279,63772,2,0,B|379:303|379:303|368:337,1,50,4|8,0:0|0:0,0:0:0:0:
257,366,64061,2,0,B|214:339|214:339|160:348,1,100,4|8,0:0|0:0,0:0:0:0:
150,360,64349,1,4,0:0:0:0:
118,277,64542,2,0,B|90:281|90:281|74:295,1,50,4|8,0:0|0:0,0:0:0:0:
4,158,64830,2,0,B|41:193|41:193|99:198,1,100,4|8,0:2|0:0,0:0:0:0:
106,186,65119,1,4,0:0:0:0:
163,116,65311,2,0,B|174:141|174:141|205:163,1,50,4|8,0:0|0:0,0:0:0:0:
256,64,65599,6,0,L|256:8,4,50,8|8|8|8|8,0:0|0:0|0:0|0:0|0:0,0:0:0:0:
256,64,66369,6,0,P|339:86|361:102,1,100,4|8,0:1|0:0,0:0:0:0:
362,108,66657,1,4,0:0:0:0:
373,124,66753,2,0,P|395:206|392:233,1,100,4|8,0:0|0:0,0:0:0:0:
337,299,67138,2,0,P|291:269|234:258,1,100,4|8,0:0|0:0,0:0:0:0:
229,266,67426,2,0,P|185:312|101:335,1,150,4|8,0:0|0:0,0:0:0:0:
28,273,67907,6,0,L|10:158,1,100,4|8,0:0|0:0,0:0:0:0:
96,93,68292,2,0,L|111:191,1,100,4|8,0:0|0:0,0:0:0:0:
199,119,68676,1,4,0:0:0:0:
292,169,68869,1,8,0:0:0:0:
292,169,68965,1,4,0:0:0:0:
292,169,69061,1,4,0:0:0:0:
352,96,69253,1,8,0:0:0:0:
437,133,69445,6,0,P|458:176|443:244,1,100,4|8,0:2|0:0,0:0:0:0:
437,240,69734,1,4,0:0:0:0:
356,278,69926,1,4,0:0:0:0:
366,295,70022,2,0,L|255:306,1,100,8|4,0:0|0:0,0:0:0:0:
191,259,70407,1,8,0:0:0:0:
178,274,70503,2,0,L|16:251,1,150,4|8,0:0|0:0,0:0:0:0:
13,160,70984,6,0,P|63:125|106:125,1,100,4|8,0:0|0:0,0:0:0:0:
115,136,71272,2,0,P|157:169|257:174,1,150,4|8,0:0|0:0,0:0:0:0:
317,109,71753,1,8,0:0:0:0:
408,148,71945,1,8,0:0:0:0:
408,148,72042,1,8,0:0:0:0:
408,148,72138,2,0,L|418:213,3,50,8|0|0|0,0:0|0:0|0:0|0:0,0:0:0:0:
403,213,72522,6,0,P|348:246|326:288,1,100,4|8,0:1|0:0,0:0:0:0:
330,295,72811,1,4,0:0:0:0:
333,314,72907,2,0,P|396:352|440:359,1,100,4|8,0:0|0:0,0:0:0:0:
498,292,73292,2,0,L|484:173,1,100,4|8,0:0|0:0,0:0:0:0:
495,174,73580,2,0,P|473:112|387:69,1,150,4|8,0:0|0:0,0:0:0:0:
319,118,74061,6,0,L|203:98,1,100,4|8,0:0|0:0,0:0:0:0:
144,32,74445,2,0,L|45:48,1,100,4|8,0:0|0:0,0:0:0:0:
8,144,74830,1,4,0:0:0:0:
105,179,75022,1,8,0:0:0:0:
105,179,75119,1,4,0:0:0:0:
105,179,75215,1,4,0:0:0:0:
112,274,75407,1,8,0:0:0:0:
179,339,75599,6,0,P|247:321|282:288,1,100,4|8,0:2|0:0,0:0:0:0:
279,286,75888,2,0,L|441:307,1,150,4|8,0:0|0:0,0:0:0:0:
492,238,76369,2,0,P|469:194|408:162,1,100,4|8,0:0|0:0,0:0:0:0:
407,165,76657,1,4,0:0:0:0:
387,170,76753,1,4,0:0:0:0:
312,116,76945,1,8,0:0:0:0:
232,170,77138,6,0,L|118:158,1,100,4|8,0:2|0:0,0:0:0:0:
115,149,77426,1,8,0:0:0:0:
99,136,77522,2,0,L|87:77,3,50,8|8|2|2,0:0|0:0|0:0|0:0,0:0:0:0:
73,78,77907,1,8,0:3:0:0:
151,28,78099,1,8,0:3:0:0:
151,28,78195,1,8,0:3:0:0:
151,28,78292,2,0,L|211:39,3,50,4|4|0|4,0:3|0:0|0:0|0:0,0:0:0:0:
219,31,78676,5,4,0:1:0:0:
176,52,83292,6,0,B|217:76|251:122|262:235|190:306|90:271|78:192|98:137|149:85|185:109|228:127|219:184|221:248|269:318|330:321|388:294|407:258|414:200|389:166|340:144|299:164|289:199,1,700,8|2,0:0|2:0,0:0:0:0:
326,341,84830,6,0,P|393:328|430:297,1,100,4|8,0:1|0:0,0:0:0:0:
430,298,85119,2,0,B|397:257|397:257|416:142,1,150,4|8,0:0|0:0,0:0:0:0:
457,72,85599,1,4,0:0:0:0:
372,28,85792,1,8,0:0:0:0:
358,42,85888,2,0,L|203:72,1,150,4|8,0:0|0:0,0:0:0:0:
57,48,86369,6,0,P|114:81|136:126,1,100,4|8,0:0|0:0,0:0:0:0:
135,128,86657,1,4,0:0:0:0:
139,147,86753,2,0,L|124:260,1,100,4|8,0:0|0:0,0:0:0:0:
57,322,87138,1,4,0:0:0:0:
150,370,87330,1,8,0:0:0:0:
217,293,87522,2,0,L|270:284,2,50,4|0|8,0:0|0:0|0:0,0:0:0:0:
125,246,87907,6,0,P|106:193|116:139,1,100,4|8,0:2|0:0,0:0:0:0:
201,102,88292,2,0,P|256:112|298:147,1,100,4|8,0:0|0:0,0:0:0:0:
373,201,88676,2,0,L|478:214,1,100,4|8,0:0|0:0,0:0:0:0:
489,89,89061,2,0,L|384:102,1,100,4|8,0:0|0:0,0:0:0:0:
290,137,89445,6,0,P|234:126|192:91,1,100,4|8,0:0|0:0,0:0:0:0:
191,89,89734,2,0,B|141:111|141:111|123:224,1,150,4|8,0:0|0:0,0:0:0:0:
171,294,90215,1,4,0:0:0:0:
97,354,90407,1,8,0:0:0:0:
97,354,90503,1,8,0:0:0:0:
97,354,90599,2,0,L|39:344,3,50,8|8|8|8,0:0|0:0|0:0|0:0,0:0:0:0:
32,355,90984,6,0,P|0:304|5:247,1,100,4|8,0:1|0:0,0:0:0:0:
12,250,91272,2,0,L|32:91,1,150,4|8,0:0|0:0,0:0:0:0:
98,29,91753,1,4,0:0:0:0:
188,65,91945,1,8,0:0:0:0:
200,49,92042,2,0,P|257:17|348:22,1,150,4|8,0:0|0:0,0:0:0:0:
416,77,92522,6,0,L|405:190,1,100,4|8,0:0|0:0,0:0:0:0:
416,292,92907,2,0,P|377:259|309:249,1,100,4|8,0:0|0:0,0:0:0:0:
259,323,93292,2,0,P|220:356|152:366,1,100,4|8,0:0|0:0,0:0:0:0:
153,366,93580,1,4,0:0:0:0:
133,360,93676,2,0,L|121:240,1,100,4|8,0:0|0:0,0:0:0:0:
164,173,94061,5,4,0:0:0:0:
96,109,94253,2,0,B|144:140|144:140|246:123,1,150,8|4,0:0|0:0,0:0:0:0:
252,113,94638,1,8,0:0:0:0:
332,55,94830,2,0,P|406:75|444:145,2,150,4|4|8,0:0|0:0|0:0,0:0:0:0:
252,113,95599,5,4,0:0:0:0:
345,153,95792,2,0,L|367:309,1,150,8|4,0:0|0:0,0:0:0:0:
378,317,96176,1,8,0:0:0:0:
295,364,96369,1,4,0:0:0:0:
220,303,96561,1,8,0:0:0:0:
220,303,96657,1,8,0:0:0:0:
220,303,96753,2,0,L|226:239,3,50,4|4|4|4,0:0|0:0|0:0|0:0,0:0:0:0:
235,240,97138,6,0,P|198:161|157:119,2,131.250001251698,4|4|8,0:1|0:0|0:0,0:0:0:0:
142,219,97907,1,4,0:0:0:0:
94,294,98099,2,0,P|75:359|62:389,2,87.500000834465,8|4|8,0:0|0:0|0:0,0:0:0:0:
28,226,98676,6,0,P|10:165|4:85,1,131.250001251698,4|4,0:0|0:0,0:0:0:0:
42,19,99157,1,4,0:0:0:0:
58,25,99253,1,8,0:0:0:0:
146,18,99445,2,0,P|243:0|288:2,2,131.250001251698,4|4|8,0:0|0:0|0:0,0:0:0:0:
145,116,100215,5,4,0:0:0:0:
145,116,100407,2,0,B|190:102|190:102|222:133|243:192|168:248,1,200,4|8,0:1|0:0,0:0:0:0:
65,275,100984,5,4,0:0:0:0:
65,275,101176,2,0,B|51:229|51:229|82:197|141:176|197:251,1,200,4|8,0:1|0:0,0:0:0:0:
223,355,101753,5,4,0:0:0:0:
223,355,101945,2,0,B|177:368|177:368|145:337|124:278|199:222,1,200,4|8,0:1|0:0,0:0:0:0:
303,196,102522,5,4,0:0:0:0:
303,196,102714,2,0,B|316:241|316:241|285:273|226:294|170:219,1,200,4|8,0:1|0:0,0:0:0:0:
224,138,103292,6,0,P|302:117|363:90,2,131.250001251698,4|4|8,0:1|0:0|0:0,0:0:0:0:
155,76,104061,2,0,P|94:51|56:45,1,87.500000834465,4|8,0:0|0:0,0:0:0:0:
7,101,104445,1,2,0:0:0:0:
61,176,104638,1,8,0:0:0:0:
14,253,104830,5,8,0:0:0:0:
14,253,104926,2,0,L|25:309,2,50,4|4|4,0:0|0:0|0:0,0:0:0:0:
63,268,105215,1,8,0:0:0:0:
63,268,105311,2,0,L|52:324,2,50,4|4|4,0:0|0:0|0:0,0:0:0:0:
99,306,105599,5,8,0:0:0:0:
99,306,105695,1,8,0:0:0:0:
99,306,105792,2,0,P|141:320|164:320,5,50,4|4|4|4|4|4,0:0|0:0|0:0|0:0|0:0|0:0,0:0:0:0:
162,314,106369,6,0,P|276:281|303:281,1,131.250001251698,4|4,0:2|0:0,0:0:0:0:
374,317,106849,1,4,0:0:0:0:
374,317,106945,1,8,0:0:0:0:
402,235,107138,2,0,P|362:183|335:163,1,87.500000834465,4|8,0:0|0:0,0:0:0:0:
400,99,107522,2,0,P|348:85|296:83,1,87.500000834465,2|8,0:0|0:0,0:0:0:0:
234,115,107907,5,4,0:2:0:0:
171,55,108099,1,8,0:0:0:0:
171,55,108195,1,4,0:0:0:0:
171,55,108292,2,0,P|116:82|92:104,1,87.500000834465,2|8,0:0|0:0,0:0:0:0:
11,127,108676,2,0,P|82:148|131:182,1,131.250001251698,4|4,0:0|0:0,0:0:0:0:
190,249,109157,1,4,0:0:0:0:
190,249,109253,1,8,0:0:0:0:
147,321,109445,6,0,B|109:352|109:352|44:347,1,100,4|8,0:1|0:0,0:0:0:0:
43,336,109733,1,4,0:0:0:0:
56,246,109925,2,0,B|32:252|32:252|-2:241,1,50,4|8,0:0|0:0,0:0:0:0:
132,172,110215,2,0,B|101:134|101:134|106:69,1,100,4|8,0:0|0:0,0:0:0:0:
117,68,110503,1,4,0:0:0:0:
207,81,110695,2,0,B|201:57|201:57|212:23,1,50,4|8,0:0|0:0,0:0:0:0:
325,117,110984,6,0,B|294:155|294:155|299:220,1,100,4|8,0:2|0:0,0:0:0:0:
310,221,111272,1,8,0:0:0:0:
322,235,111369,2,0,B|342:218|342:218|388:215,3,50,8|8|8|8,0:0|0:0|0:0|0:0,0:0:0:0:
382,205,111753,2,0,B|406:213|406:213|432:252,3,50,8|8|4|4,0:0|0:0|0:0|0:0,0:0:0:0:
437,241,112138,2,0,B|441:266|441:266|421:308,3,50,4|4|4|4,0:0|0:0|0:0|0:0,0:0:0:0:
450,285,112522,6,0,P|499:214|506:188,1,100,4|8,0:1|0:0,0:0:0:0:
503,183,112810,1,4,0:0:0:0:
501,165,112906,2,0,P|465:88|445:69,1,100,4|8,0:0|0:0,0:0:0:0:
359,50,113291,2,0,P|313:80|256:91,1,100,4|8,0:0|0:0,0:0:0:0:
251,83,113580,2,0,P|207:37|123:14,1,150,4|8,0:0|0:0,0:0:0:0:
25,49,114060,6,0,L|9:147,1,100,4|8,0:0|0:0,0:0:0:0:
114,115,114445,2,0,L|99:213,1,100,4|8,0:0|0:0,0:0:0:0:
16,286,114829,1,4,0:0:0:0:
95,364,115022,1,8,0:0:0:0:
95,364,115118,1,4,0:0:0:0:
95,364,115214,1,4,0:0:0:0:
176,303,115406,1,8,0:0:0:0:
280,321,115599,6,0,P|301:278|286:210,1,100,4|8,0:2|0:0,0:0:0:0:
280,214,115887,1,4,0:0:0:0:
215,149,116079,1,0,0:0:0:0:
205,132,116176,2,0,L|318:118,1,100,8|4,0:0|0:0,0:0:0:0:
366,40,116560,1,8,0:0:0:0:
353,25,116657,2,0,L|185:44,1,150,4|8,0:0|0:0,0:0:0:0:
108,7,117137,6,0,P|73:57|73:100,1,100,4|8,0:0|0:0,0:0:0:0:
84,109,117426,2,0,P|117:151|122:251,1,150,4|8,0:0|0:0,0:0:0:0:
38,275,117906,1,8,0:0:0:0:
68,365,118098,1,8,0:0:0:0:
68,365,118195,1,8,0:0:0:0:
68,365,118291,2,0,L|133:375,3,50,4|4|4|4,0:0|0:0|0:0|0:0,0:0:0:0:
136,378,118676,6,0,P|191:345|213:303,1,100,4|8,0:1|0:0,0:0:0:0:
209,296,118964,1,4,0:0:0:0:
202,276,119060,2,0,P|200:202|216:160,1,100,0|8,0:0|0:0,0:0:0:0:
309,153,119445,2,0,P|347:193|395:207,1,100,4|8,0:0|0:0,0:0:0:0:
485,164,119830,1,4,0:0:0:0:
455,71,120022,1,8,0:0:0:0:
356,68,120214,6,0,L|240:48,1,100,4|8,0:0|0:0,0:0:0:0:
177,0,120599,2,0,L|78:16,1,100,4|8,0:0|0:0,0:0:0:0:
9,85,120983,1,4,0:0:0:0:
104,126,121175,1,0,0:0:0:0:
104,126,121272,1,4,0:0:0:0:
104,126,121368,1,4,0:0:0:0:
45,199,121560,1,8,0:0:0:0:
116,272,121753,6,0,P|184:290|219:323,1,100,4|8,0:2|0:0,0:0:0:0:
217,324,122041,2,0,L|236:175,1,150,4|8,0:0|0:0,0:0:0:0:
207,78,122522,2,0,P|230:34|291:2,1,100,4|8,0:0|0:0,0:0:0:0:
292,5,122810,1,4,0:0:0:0:
312,10,122906,1,4,0:0:0:0:
385,69,123098,1,8,0:0:0:0:
337,157,123291,6,0,L|451:169,1,100,4|8,0:0|0:0,0:0:0:0:
454,178,123579,1,8,0:0:0:0:
470,191,123676,2,0,L|482:250,3,50,4|4|4|4,0:0|0:0|0:0|0:0,0:0:0:0:
486,258,124060,1,4,0:0:0:0:
402,311,124252,1,4,0:0:0:0:
402,311,124348,1,4,0:0:0:0:
402,311,124445,2,0,L|390:253,2,50,8|0|4,0:0|0:0|0:0,0:0:0:0:
316,349,124830,6,0,P|274:315|217:303,1,100,4|8,0:1|0:0,0:0:0:0:
211,309,125119,2,0,P|148:333|95:322,1,100,4|4,0:0|0:0,0:0:0:0:
98,322,125407,2,0,P|73:276|79:210,1,100,8|4,0:0|0:0,0:0:0:0:
139,147,125792,1,8,0:0:0:0:
73,74,125984,1,4,0:0:0:0:
154,20,126176,1,8,0:0:0:0:
221,91,126369,6,0,P|285:75|329:47,1,100,4|8,0:0|0:0,0:0:0:0:
411,16,126753,2,0,P|392:79|395:131,1,100,4|8,0:0|0:0,0:0:0:0:
456,189,127138,1,4,0:0:0:0:
390,265,127330,1,8,0:0:0:0:
335,348,127522,1,4,0:0:0:0:
335,348,127619,1,4,0:0:0:0:
335,348,127715,1,8,0:0:0:0:
234,340,127907,6,0,P|205:289|195:235,1,100,4|8,0:2|0:0,0:0:0:0:
202,230,128195,1,4,0:0:0:0:
208,210,128292,2,0,P|151:179|103:175,1,100,4|8,0:0|0:0,0:0:0:0:
16,215,128676,2,0,P|-2:298|4:331,1,100,4|8,0:0|0:0,0:0:0:0:
78,374,129061,1,4,0:0:0:0:
142,298,129253,1,8,0:0:0:0:
237,336,129445,5,8,0:0:0:0:
237,336,129542,2,0,L|342:317,1,100,4|4,0:0|0:0,0:0:0:0:
370,289,129829,1,8,0:0:0:0:
370,289,129926,2,0,L|265:270,1,100,4|4,0:0|0:0,0:0:0:0:
248,240,130215,1,8,0:0:0:0:
248,240,130311,1,8,0:0:0:0:
248,240,130407,2,0,L|316:224,1,50,4|4,0:3|0:3,0:0:0:0:
316,190,130599,2,0,L|248:174,3,50,4|4|4|4,0:0|0:0|0:0|0:0,0:0:0:0:
247,175,130984,6,0,P|220:121|215:70,1,100,4|8,0:1|0:0,0:0:0:0:
221,63,131272,1,4,0:0:0:0:
227,43,131369,2,0,P|276:16|339:8,1,100,4|8,0:0|0:0,0:0:0:0:
407,62,131753,2,0,L|422:162,1,100,4|8,0:0|0:0,0:0:0:0:
486,240,132138,2,0,L|471:340,1,100,4|8,0:0|0:0,0:0:0:0:
360,372,132522,6,0,P|336:316|291:286,1,100,4|8,0:2|0:0,0:0:0:0:
201,288,132907,2,0,P|168:324|121:341,1,100,4|8,0:0|0:0,0:0:0:0:
32,297,133292,2,0,P|8:235|10:186,1,100,4|8,0:0|0:0,0:0:0:0:
14,183,133580,2,0,L|129:167,1,100,4|4,0:3|0:0,0:0:0:0:
133,167,133869,1,8,0:0:0:0:
167,76,134061,6,0,P|195:41|252:16,1,100,4|8,0:2|0:0,0:0:0:0:
262,24,134349,2,0,P|332:76|393:78,1,150,4|8,0:0|0:0,0:0:0:0:
481,25,134830,1,4,0:0:0:0:
485,121,135022,1,8,0:0:0:0:
472,136,135119,2,0,L|459:240,1,100,4|4,0:0|0:0,0:0:0:0:
467,253,135407,1,8,0:0:0:0:
365,292,135599,6,0,B|324:261|324:261|267:270,1,100,4|2,0:2|0:0,0:0:0:0:
156,301,135995,2,0,B|187:260|187:260|178:203,1,100,2|2,0:0|0:0,0:0:0:0:
147,92,136391,2,0,B|188:123|188:123|245:114,1,100,10|6,0:0|0:0,0:0:0:0:
356,83,136787,2,0,B|325:124|325:124|334:181,1,100,6|6,0:0|0:0,0:0:0:0:
488,160,137183,5,4,0:2:0:0:
