osu file format v14

[General]
AudioFilename: design.mp3
AudioLeadIn: 0
PreviewTime: 37859
Countdown: 1
SampleSet: None
StackLeniency: 0.7
Mode: 0
LetterboxInBreaks: 0
WidescreenStoryboard: 0

[Editor]
Bookmarks: 10984,11176,11272,11561,11849,11945,12138,12330,12522,12715,12811,13099,13388,13484,13676,13869,14061,14253,14349,14638,14926,15022,15215,15407,15599,15888,16176,16369,16561,16657,16753,16945,17042,17138,17426,17715,17811,17907,18099,18292,18484,18676,18965,19253,19349,19445,19638,19830,20022,20215,20503,20792,20888,20984,21176,21369,21561,21753,21945,22138,22234,22330,22522,22715,22907,23099,23292,23580,23869,24061,24349,24638,24830,25119,25407,25599,25792,25888,25984,26080,26176,26272,26369,26657,26945,27138,27330,27426,27619,27715,27907,28195,28484,28676,28869,28965,29157,29253,29445,29638,29734,29926,30022,38676,50984,66417,78292
DistanceSpacing: 1
BeatDivisor: 4
GridSize: 4
TimelineZoom: 2.3

[Metadata]
Title:Disparity By Design
TitleUnicode:Disparity By Design
Artist:Rise Against
ArtistUnicode:Rise Against
Creator:pishifat
Version:Extreme
Source:
Tags:endgame metal punk dashyy-
BeatmapID:792011
BeatmapSetID:360325

[Difficulty]
HPDrainRate:7
CircleSize:4
OverallDifficulty:8.6
ApproachRate:9.4
SliderMultiplier:2.9
SliderTickRate:1

[Events]
//Background and Video events
0,0,"8761074d-6960-49b9-b523-5fb719dc0015.png",0,0
//Break Periods
//Storyboard Layer 0 (Background)
//Storyboard Layer 1 (Fail)
//Storyboard Layer 2 (Pass)
//Storyboard Layer 3 (Foreground)
//Storyboard Sound Samples

[TimingPoints]
9446,384.615384615385,4,3,1,50,1,0
9542,-133.333333333333,4,3,1,50,0,0
9830,-133.333333333333,4,3,1,50,0,0
10215,-133.333333333333,4,3,1,50,0,0
10984,-100,4,3,1,75,0,0
12522,-95.2380952380952,4,3,1,75,0,0
14061,-100,4,3,1,75,0,0
15599,-95.2380952380952,4,3,1,75,0,0
16369,-100,4,3,1,75,0,0
17138,-90.9090909090909,4,3,1,75,0,0
21753,-86.9565217391304,4,3,1,75,0,0
23292,-95.2380952380952,4,3,1,75,0,0
24061,-86.9565217391304,4,3,1,75,0,0
24830,-80,4,3,1,75,0,0
25599,-86.9565217391304,4,3,1,75,0,0
26369,-133.333333333333,4,3,2,55,0,0
37907,-133.333333333333,4,3,1,65,0,0
38676,-100,4,3,1,75,0,0
50215,-100,4,3,2,75,0,0
50792,-100,4,3,1,65,0,0
50984,-117.647058823529,4,3,1,65,0,0
60215,-105.263157894737,4,3,1,65,0,0
63292,-95.2380952380954,4,3,1,65,0,0
64830,-105.820105820106,4,3,1,65,0,0
66369,-90.9090909090909,4,3,1,75,0,1
78676,-86.9565217391304,4,3,1,75,0,0
82907,-105.263157894737,4,3,1,75,0,0
83099,-117.647058823529,4,3,1,75,0,0
83292,-333.333333333333,4,3,1,75,0,0
83340,-500,4,3,2,5,0,0
84205,-292.397660818713,4,3,1,35,0,0
84253,-292.397660818713,4,3,2,5,0,0
84349,-250,4,3,2,5,0,0
84638,-117.64705882353,4,3,1,45,0,0
84734,-117.64705882353,4,3,1,35,0,0
84830,-100,4,3,1,75,0,0
97138,-117.647058823529,4,3,1,65,0,0
104830,-142.857142857143,4,3,1,65,0,0
106369,-105.263157894737,4,3,1,65,0,0
109445,-95.2380952380952,4,3,1,65,0,0
110984,-106.382978723404,4,3,1,65,0,0
112522,-90.9090909090909,4,3,1,75,0,1
124445,-153.846153846153,4,3,1,75,0,1
124638,-100,4,3,1,35,0,0
124830,-90.9090909090909,4,3,1,75,0,1
135599,396.039603960396,4,3,1,75,1,0

[Colours]
Combo1 : 167,123,196
Combo2 : 184,84,84
Combo3 : 108,108,189
Combo4 : 255,192,62

[HitObjects]
404,196,9445,5,8,0:0:0:0:
396,181,9542,2,0,L|398:126,1,54.3750020742417,4|4,0:0|0:3,0:0:0:0:
497,78,9734,1,8,0:0:0:0:
501,95,9830,2,0,P|494:121|485:146,2,54.3750020742417,8|4|4,0:0|0:0|0:3,0:0:0:0:
451,0,10119,1,8,0:0:0:0:
428,21,10215,5,8,0:0:0:0:
407,25,10311,1,8,0:0:0:0:
387,28,10407,2,0,L|333:19,1,54.3750020742417,4|4,0:0|0:0,0:0:0:0:
241,97,10599,2,0,L|295:106,1,54.3750020742417,4|4,0:0|0:0,0:0:0:0:
332,209,10792,2,0,L|278:198,1,54.3750020742417,4|4,0:0|0:0,0:0:0:0:
91,206,10984,6,0,P|82:244|85:306,1,72.5,4|0,0:1|0:0,0:0:0:0:
171,330,11176,1,8,0:0:0:0:
139,131,11272,2,0,B|86:122|86:122|52:133|52:133|-16:119,1,145,4|4,0:0|0:0,0:0:0:0:
189,42,11561,2,0,P|239:111|225:197,1,145,8|0,0:0|0:0,0:0:0:0:
172,238,11849,1,4,0:0:0:0:
341,116,11945,6,0,B|335:29,1,72.5,8|0,0:0|0:0,0:0:0:0:
267,262,12138,2,0,B|259:345,1,72.5,4|0,0:0|0:0,0:0:0:0:
328,125,12330,2,0,L|318:42,1,72.5,8|0,0:0|0:0,0:0:0:0:
397,291,12522,6,0,B|438:294|438:294|474:286,1,76.1249976768494,4|0,0:0|0:0,0:0:0:0:
362,208,12715,1,8,0:0:0:0:
311,346,12811,2,0,P|229:348|171:299,1,152.249995353699,4|4,0:0|0:0,0:0:0:0:
259,111,13099,2,0,B|268:162|268:162|260:210|260:210|269:280,1,152.249995353699,8|0,0:0|0:0,0:0:0:0:
348,215,13388,1,4,0:0:0:0:
180,162,13484,6,0,L|83:169,1,76.1249976768494,8|0,0:0|0:0,0:0:0:0:
260,29,13676,2,0,L|356:33,1,76.1249976768494,4|0,0:0|0:0,0:0:0:0:
193,174,13869,2,0,L|115:183,1,76.1249976768494,8|0,0:0|0:0,0:0:0:0:
349,46,14061,6,0,P|364:99|362:142,1,72.5,4|0,0:0|0:0,0:0:0:0:
329,222,14253,1,8,0:0:0:0:
506,160,14349,2,0,P|453:121|358:140,1,145,4|4,0:0|0:0,0:0:0:0:
369,303,14638,2,0,P|314:311|234:251,1,145,8|0,0:0|0:0,0:0:0:0:
329,222,14926,1,4,0:0:0:0:
218,366,15022,6,0,L|137:374,1,72.5,8|0,0:0|0:0,0:0:0:0:
169,194,15215,2,0,P|200:180|260:167,1,72.5,4|0,0:0|0:0,0:0:0:0:
97,267,15407,2,0,P|62:262|9:246,1,72.5,8|0,0:0|0:0,0:0:0:0:
191,61,15599,6,0,B|248:56|248:56|290:64|290:64|362:55,1,152.249995353699,4|8,0:2|0:0,0:0:0:0:
104,26,15888,2,0,P|69:124|76:183,1,152.249995353699,4|4,0:0|0:0,0:0:0:0:
280,79,16176,2,0,L|370:69,1,76.1249976768494,8|0,0:0|0:0,0:0:0:0:
328,244,16369,6,0,L|243:234,1,72.5,4|0,0:0|0:0,0:0:0:0:
397,179,16561,1,8,0:0:0:0:
422,271,16657,1,8,0:0:0:0:
355,340,16753,2,0,P|323:349|277:354,1,72.5,4|4,0:0|0:0,0:0:0:0:
169,194,16945,1,8,0:0:0:0:
246,141,17042,1,8,0:0:0:0:
255,235,17138,6,0,P|201:277|114:270,1,159.500004867554,4|8,0:1|0:0,0:0:0:0:
66,22,17426,2,0,L|76:194,1,159.500004867554,4|4,0:0|0:0,0:0:0:0:
248,332,17715,1,8,0:0:0:0:
255,235,17811,1,2,0:0:0:0:
260,136,17907,2,0,P|295:121|365:113,1,79.7500024337769,4|0,0:0|0:0,0:0:0:0:
508,229,18099,6,0,P|466:215|424:178,1,79.7500024337769,8|0,0:0|0:0,0:0:0:0:
391,29,18292,2,0,P|420:62|440:111,1,79.7500024337769,4|0,0:0|0:0,0:0:0:0:
338,291,18484,2,0,P|335:253|346:211,1,79.7500024337769,8|0,0:0|0:0,0:0:0:0:
512,143,18676,6,0,L|331:127,1,159.500004867554,4|8,0:0|0:0,0:0:0:0:
156,20,18965,2,0,P|217:5|308:52,1,159.500004867554,4|4,0:0|0:0,0:0:0:0:
338,291,19253,1,8,0:0:0:0:
244,267,19349,1,2,0:0:0:0:
216,178,19445,2,0,L|223:85,1,79.7500024337769,4|0,0:0|0:0,0:0:0:0:
149,252,19638,6,0,P|110:252|58:229,1,79.7500024337769,8|0,0:0|0:0,0:0:0:0:
313,196,19830,2,0,P|357:201|404:223,1,79.7500024337769,4|0,0:0|0:0,0:0:0:0:
123,155,20022,2,0,L|112:50,1,79.7500024337769,8|0,0:0|0:0,0:0:0:0:
338,291,20215,6,0,P|414:304|485:252,1,159.500004867554,4|8,0:0|0:0,0:0:0:0:
395,58,20503,2,0,B|385:109|385:109|398:161|398:161|385:239,1,159.500004867554,4|4,0:0|0:0,0:0:0:0:
149,252,20792,1,8,0:0:0:0:
123,155,20888,1,2,0:0:0:0:
186,82,20984,2,0,L|266:77,1,79.7500024337769,4|0,0:0|0:0,0:0:0:0:
134,260,21176,6,0,P|98:255|43:229,1,79.7500024337769,8|0,0:0|0:0,0:0:0:0:
227,296,21369,2,0,P|238:332|243:375,1,79.7500024337769,4|0,0:0|0:0,0:0:0:0:
214,197,21561,2,0,P|242:184|293:173,1,79.7500024337769,8|0,0:0|0:0,0:0:0:0:
466,279,21753,6,0,P|426:277|361:250,1,83.375001590252,4|0,0:2|0:0,0:0:0:0:
262,78,21945,2,0,P|302:81|348:104,1,83.375001590252,8|0,0:0|0:0,0:0:0:0:
441,185,22138,1,4,0:0:0:0:
441,185,22234,1,0,0:0:0:0:
441,185,22330,2,0,L|431:81,1,83.375001590252,8|0,0:0|0:0,0:0:0:0:
170,39,22522,6,0,P|143:107|142:151,1,83.375001590252,4|0,0:2|0:0,0:0:0:0:
229,269,22715,1,8,0:0:0:0:
229,269,22811,1,0,0:0:0:0:
229,269,22907,2,0,L|219:164,1,83.375001590252,4|0,0:0|0:0,0:0:0:0:
45,196,23099,2,0,P|108:218|158:217,1,83.375001590252,8|0,0:0|0:0,0:0:0:0:
275,89,23292,6,0,P|332:53|444:75,1,152.249995353699,4|8,0:2|0:0,0:0:0:0:
390,273,23580,2,0,P|350:208|377:116,1,152.249995353699,4|4,0:0|0:0,0:0:0:0:
512,184,23869,2,0,L|433:191,1,76.1249976768494,8|0,0:0|0:0,0:0:0:0:
177,182,24061,6,0,P|134:225|167:345,1,166.750003180504,4|8,0:2|0:0,0:0:0:0:
378,286,24349,2,0,B|319:271|319:271|271:280|271:280|216:264,1,166.750003180504,4|4,0:0|0:0,0:0:0:0:
385,118,24638,2,0,P|406:151|421:225,1,83.375001590252,8|0,0:0|0:0,0:0:0:0:
203,82,24830,6,0,B|228:38|275:28|275:28|316:38|316:38|381:33,1,181.25,4|8,0:2|0:0,0:0:0:0:
177,182,25119,2,0,P|114:119|115:31,1,181.25,4|4,0:0|0:0,0:0:0:0:
201,281,25407,2,0,L|110:289,1,90.625,8|0,0:0|0:0,0:0:0:0:
293,133,25599,6,0,P|311:173|319:213,1,83.375001590252,4|0,0:2|0:0,0:0:0:0:
281,325,25792,1,8,0:0:0:0:
357,355,25888,1,8,0:0:0:0:
433,322,25984,1,8,0:0:0:0:
468,245,26080,1,8,0:0:0:0:
439,167,26176,1,8,0:0:0:0:
366,126,26272,1,8,0:0:0:0:
284,146,26369,6,0,L|154:139,1,108.750004148483,4|8,0:1|0:0,0:0:0:0:
86,178,26657,2,0,P|60:230|54:288,1,108.750004148483,4|4,0:0|0:0,0:0:0:0:
71,375,26945,1,8,0:2:0:0:
71,375,27138,6,0,B|120:354|120:354|196:362,1,108.750004148483,4|8,0:0|0:0,0:0:0:0:
273,372,27426,1,4,0:0:0:0:
143,255,27619,1,4,0:0:0:0:
157,262,27715,2,0,L|215:268,1,54.3750020742417,8|0,0:2|0:0,0:0:0:0:
306,225,27907,5,4,0:0:0:0:
173,88,28099,1,8,0:0:0:0:
163,100,28195,2,0,P|210:126|264:123,1,108.750004148483,4|4,0:0|0:0,0:0:0:0:
341,65,28484,1,8,0:2:0:0:
341,65,28676,6,0,B|395:70|395:70|451:107,1,108.750004148483,4|8,0:0|0:0,0:0:0:0:
362,159,28965,2,0,P|342:222|341:275,1,108.750004148483,4|4,0:0|0:0,0:0:0:0:
482,349,29253,2,0,P|462:334|425:321,1,54.3750020742417,10|0,0:2|0:0,0:0:0:0:
342,365,29445,5,4,0:0:0:0:
222,202,29638,1,8,0:0:0:0:
209,214,29734,2,0,L|90:223,1,108.750004148483,4|4,0:0|0:0,0:0:0:0:
17,180,30022,1,8,0:2:0:0:
17,180,30215,6,0,P|30:102|51:55,1,108.750004148483,4|8,0:0|0:0,0:0:0:0:
135,45,30503,2,0,B|184:62|184:62|257:54,1,108.750004148483,4|4,0:0|0:0,0:0:0:0:
334,17,30792,2,0,P|372:23|401:33,1,54.3750020742417,8|0,0:2|0:0,0:0:0:0:
462,91,30984,5,4,0:0:0:0:
308,181,31176,1,8,0:0:0:0:
292,176,31272,1,4,0:0:0:0:
454,274,31465,1,4,0:0:0:0:
470,270,31561,1,8,0:2:0:0:
365,96,31753,5,4,0:0:0:0:
347,284,31945,1,0,1:0:0:0:
305,309,32042,1,0,1:0:0:0:
264,313,32138,1,0,1:0:0:0:
229,300,32234,1,0,1:0:0:0:
200,289,32330,1,0,1:0:0:0:
175,285,32426,1,0,1:0:0:0:
154,290,32522,6,0,B|101:297|101:297|26:268,1,108.750004148483,4|8,0:2|0:0,0:0:0:0:
113,202,32811,2,0,P|139:149|144:85,1,108.750004148483,4|4,0:0|0:0,0:0:0:0:
100,13,33099,1,8,0:2:0:0:
100,13,33292,6,0,L|220:3,1,108.750004148483,4|8,0:0|0:0,0:0:0:0:
302,31,33580,1,4,0:0:0:0:
246,200,33772,1,4,0:0:0:0:
259,192,33869,2,0,L|324:187,1,54.3750020742417,8|0,0:2|0:0,0:0:0:0:
405,209,34061,5,4,0:0:0:0:
294,345,34253,1,8,0:0:0:0:
284,332,34349,2,0,B|235:313|235:313|157:317,1,108.750004148483,4|4,0:0|0:0,0:0:0:0:
74,324,34638,1,8,0:2:0:0:
74,324,34830,6,0,P|51:269|53:197,1,108.750004148483,4|8,0:0|0:0,0:0:0:0:
96,137,35119,2,0,L|221:147,1,108.750004148483,4|4,0:0|0:0,0:0:0:0:
273,74,35407,2,0,P|242:57|208:50,1,54.3750020742417,10|0,0:2|0:0,0:0:0:0:
303,168,35599,5,4,0:0:0:0:
468,68,35792,1,8,0:0:0:0:
462,52,35888,2,0,P|425:28|354:28,1,108.750004148483,4|4,0:0|0:0,0:0:0:0:
273,74,36176,1,8,0:0:0:0:
273,74,36369,6,0,L|142:84,1,108.750004148483,4|8,0:0|0:0,0:0:0:0:
82,35,36657,1,4,0:0:0:0:
157,232,36849,1,4,0:0:0:0:
170,223,36945,2,0,P|192:172|193:149,1,54.3750020742417,8|0,0:2|0:0,0:0:0:0:
78,176,37138,6,0,B|59:226|59:226|70:302,1,108.750004148483,4|8,0:0|0:0,0:0:0:0:
125,360,37426,2,0,P|179:333|245:327,1,108.750004148483,4|4,0:0|0:0,0:0:0:0:
327,359,37715,1,8,0:2:0:0:
327,359,37907,5,8,0:0:0:0:
368,126,38099,1,8,0:0:0:0:
375,139,38195,1,8,0:0:0:0:
392,148,38292,1,8,0:0:0:0:
417,141,38388,1,8,0:0:0:0:
434,111,38484,1,8,0:0:0:0:
421,71,38580,1,8,0:0:0:0:
380,49,38676,6,0,B|328:53|328:53|295:71|295:71|211:77,1,145,4|8,0:1|0:0,0:0:0:0:
83,53,38965,2,0,P|57:107|52:212,1,145,4|4,0:0|0:0,0:0:0:0:
161,304,39253,2,0,L|172:203,1,72.5,8|0,0:0|0:0,0:0:0:0:
340,147,39445,6,0,L|352:235,1,72.5,4|0,0:0|0:0,0:0:0:0:
283,292,39638,1,8,0:0:0:0:
256,87,39734,2,0,B|315:53|315:53|401:62,1,145,4|4,0:0|0:0,0:0:0:0:
250,185,40022,2,0,P|213:176|163:146,1,72.5,8|0,0:0|0:0,0:0:0:0:
83,53,40215,6,0,L|73:208,1,145,4|8,0:0|0:0,0:0:0:0:
176,333,40503,2,0,P|234:313|319:305,1,145,4|4,0:0|0:0,0:0:0:0:
454,362,40792,2,0,L|526:371,1,72.5,8|0,0:0|0:0,0:0:0:0:
444,197,40984,6,0,P|408:244|396:285,1,72.5,4|0,0:0|0:0,0:0:0:0:
502,273,41176,1,8,0:0:0:0:
490,113,41272,2,0,P|441:104|350:151,1,145,4|4,0:0|0:0,0:0:0:0:
250,185,41561,2,0,L|258:100,1,72.5,8|0,0:0|0:0,0:0:0:0:
192,299,41753,6,0,P|128:309|55:259,1,145,4|8,0:0|0:0,0:0:0:0:
146,74,42042,2,0,B|151:122|151:122|138:169|138:169|146:237,1,145,4|4,0:0|0:0,0:0:0:0:
248,75,42330,2,0,P|291:59|335:53,1,72.5,8|0,0:0|0:0,0:0:0:0:
376,189,42522,6,0,P|333:169|297:131,1,72.5,4|0,0:0|0:0,0:0:0:0:
406,98,42715,1,8,0:0:0:0:
454,256,42811,2,0,B|384:278|384:278|303:264,1,145,4|4,0:0|0:0,0:0:0:0:
139,237,43099,2,0,P|128:268|128:326,1,72.5,8|0,0:0|0:0,0:0:0:0:
335,347,43292,6,0,L|326:245,1,72.5,4|0,0:0|0:0,0:0:0:0:
320,105,43484,1,8,0:0:0:0:
212,158,43580,2,0,P|259:189|301:202,1,72.5,4|0,0:0|0:0,0:0:0:0:
448,150,43772,1,0,0:0:0:0:
431,144,43869,2,0,P|381:181|360:217,1,72.5,8|0,0:0|0:0,0:0:0:0:
335,347,44061,5,4,0:0:0:0:
320,105,44253,1,8,0:0:0:0:
360,34,44349,1,8,0:0:0:0:
443,31,44445,2,0,L|521:40,1,72.5,4|4,0:0|0:0,0:0:0:0:
375,187,44638,1,4,0:0:0:0:
273,194,44734,1,4,0:0:0:0:
213,113,44830,6,0,P|149:89|68:88,1,145,4|8,0:1|0:0,0:0:0:0:
121,326,45119,2,0,B|131:276|131:276|121:236|121:236|132:171,1,145,4|4,0:0|0:0,0:0:0:0:
316,33,45407,2,0,L|320:105,1,72.5,8|0,0:0|0:0,0:0:0:0:
396,280,45599,6,0,P|435:272|488:248,1,72.5,4|0,0:0|0:0,0:0:0:0:
328,203,45792,1,8,0:0:0:0:
265,343,45888,2,0,P|194:349|125:297,1,145,4|4,0:0|0:0,0:0:0:0:
225,182,46176,2,0,L|216:258,1,72.5,8|0,0:0|0:0,0:0:0:0:
323,74,46369,6,0,B|258:40|258:40|168:33,1,145,4|8,0:0|0:0,0:0:0:0:
16,174,46657,2,0,B|74:135|74:135|156:128,1,145,4|4,0:0|0:0,0:0:0:0:
127,300,46945,2,0,P|113:262|112:204,1,72.5,8|0,0:0|0:0,0:0:0:0:
328,203,47138,6,0,P|314:240|312:286,1,72.5,4|0,0:0|0:0,0:0:0:0:
404,330,47330,1,8,0:0:0:0:
414,159,47426,2,0,P|311:110|267:124,1,145,4|4,0:0|0:0,0:0:0:0:
150,95,47715,2,0,P|130:34|128:-2,1,72.5,8|0,0:0|0:0,0:0:0:0:
225,186,47907,6,0,L|55:199,1,145,4|8,0:0|0:0,0:0:0:0:
8,336,48195,2,0,P|69:294|154:313,1,145,4|4,0:0|0:0,0:0:0:0:
250,366,48484,2,0,L|334:373,1,72.5,8|0,0:0|0:0,0:0:0:0:
328,203,48676,6,0,P|299:251|292:295,1,72.5,4|0,0:0|0:0,0:0:0:0:
412,159,48869,1,8,0:0:0:0:
280,66,48965,2,0,B|209:60|209:60|140:99,1,145,4|4,0:0|0:0,0:0:0:0:
26,203,49253,2,0,P|10:170|1:119,1,72.5,8|0,0:0|0:0,0:0:0:0:
180,183,49445,6,0,L|166:284,1,72.5,4|0,0:0|0:0,0:0:0:0:
77,71,49638,2,0,P|113:77|144:95,1,72.5,8|4,0:0|0:0,0:0:0:0:
269,212,49830,1,4,0:0:0:0:
342,173,49926,1,4,0:0:0:0:
373,94,50022,2,0,L|379:-1,1,72.5,8|0,0:0|0:0,0:0:0:0:
338,304,50215,5,8,0:0:0:0:
259,327,50311,1,8,0:0:0:0:
185,288,50407,1,8,0:0:0:0:
167,207,50503,1,8,0:0:0:0:
200,131,50599,2,0,L|283:122,1,72.5,8|8,0:0|0:0,0:0:0:0:
99,266,50792,1,8,0:0:0:0:
82,170,50888,1,8,0:0:0:0:
69,77,50984,6,0,B|121:44|121:44|192:34,1,123.250002350807,4|8,0:1|0:0,0:0:0:0:
294,26,51272,1,4,0:0:0:0:
294,26,51465,1,4,0:0:0:0:
373,94,51561,2,0,P|412:106|462:113,1,61.6250011754036,8|0,0:0|0:0,0:0:0:0:
268,124,51753,6,0,P|248:182|250:268,1,123.250002350807,4|8,0:0|0:0,0:0:0:0:
281,345,52042,1,4,0:0:0:0:
281,345,52234,1,4,0:0:0:0:
173,376,52330,2,0,L|100:380,1,61.6250011754036,8|0,0:0|0:0,0:0:0:0:
26,255,52522,6,0,P|84:287|157:274,1,123.250002350807,4|8,0:0|0:0,0:0:0:0:
185,107,52811,2,0,P|136:130|104:212,1,123.250002350807,4|4,0:0|0:0,0:0:0:0:
258,213,53099,2,0,L|196:204,1,61.6250011754036,8|0,0:0|0:0,0:0:0:0:
234,319,53292,6,0,B|295:301|295:301|357:306,1,123.250002350807,4|8,0:0|0:0,0:0:0:0:
468,318,53580,1,4,0:0:0:0:
468,318,53772,1,0,0:0:0:0:
512,224,53869,2,0,P|510:193|498:143,1,61.6250011754036,8|0,0:0|0:0,0:0:0:0:
432,86,54061,5,4,0:0:0:0:
422,98,54253,2,0,B|377:100|377:100|329:81|329:81|285:86|245:119,1,184.875003526211,12|0,0:1|0:0,0:0:0:0:
383,201,54638,2,0,P|341:181|301:173,1,61.6250011754036,8|0,0:0|0:0,0:0:0:0:
213,212,54830,5,4,0:0:0:0:
225,220,55022,2,0,B|232:173|232:173|209:99|143:40,1,184.875003526211,12|0,0:1|0:0,0:0:0:0:
4,90,55407,2,0,P|41:103|77:124,1,61.6250011754036,8|0,0:0|0:0,0:0:0:0:
121,200,55599,5,4,0:0:0:0:
107,190,55792,2,0,B|81:195|59:228|59:228|63:251|87:284|87:284|73:307|70:348,1,184.875003526211,12|0,0:1|0:0,0:0:0:0:
282,383,56176,2,0,P|274:350|256:309,1,61.6250011754036,8|0,0:0|0:0,0:0:0:0:
195,259,56369,5,4,0:0:0:0:
204,244,56561,2,0,B|230:208|230:208|292:188|388:208,1,184.875003526211,12|0,0:1|0:0,0:0:0:0:
472,338,56945,2,0,P|445:296|434:267,1,61.6250011754036,8|0,0:0|0:0,0:0:0:0:
500,72,57138,6,0,P|504:116|468:199,1,123.250002350807,4|8,0:1|0:0,0:0:0:0:
380,106,57426,1,4,0:0:0:0:
380,106,57619,1,4,0:0:0:0:
258,131,57715,2,0,P|224:128|178:109,1,61.6250011754036,8|0,0:0|0:0,0:0:0:0:
81,7,57907,6,0,L|73:143,1,123.250002350807,4|8,0:0|0:0,0:0:0:0:
127,232,58195,1,4,0:0:0:0:
127,232,58388,1,4,0:0:0:0:
64,317,58484,2,0,P|29:325|-5:328,1,61.6250011754036,8|0,0:0|0:0,0:0:0:0:
84,142,58676,6,0,P|144:134|196:164,1,123.250002350807,4|8,0:0|0:0,0:0:0:0:
279,372,58965,2,0,B|285:324|285:324|275:297|275:297|280:251,1,123.250002350807,4|4,0:0|0:0,0:0:0:0:
309,140,59253,2,0,P|346:120|388:112,1,61.6250011754036,8|0,0:0|0:0,0:0:0:0:
509,255,59445,6,0,P|464:237|376:218,1,123.250002350807,4|8,0:0|0:0,0:0:0:0:
280,251,59734,1,4,0:0:0:0:
280,251,59926,1,4,0:0:0:0:
186,325,60022,2,0,L|97:318,1,61.6250011754036,8|0,0:0|0:0,0:0:0:0:
83,167,60215,6,0,P|156:138|219:136,1,137.749996321678,4|8,0:2|0:0,0:0:0:0:
367,194,60503,2,0,B|434:215|434:215|514:205,1,137.749996321678,4|4,0:0|0:0,0:0:0:0:
368,79,60792,2,0,P|313:110|295:129,1,68.8749981608391,8|0,0:0|0:0,0:0:0:0:
139,261,60984,6,0,L|53:253,1,68.8749981608391,4|0,0:2|0:0,0:0:0:0:
197,182,61176,1,8,0:0:0:0:
230,335,61272,2,0,P|291:341|364:288,1,137.749996321678,4|4,0:0|0:0,0:0:0:0:
141,277,61561,2,0,P|125:310|122:364,1,68.8749981608391,8|0,0:0|0:0,0:0:0:0:
267,252,61753,5,4,0:0:0:0:
267,252,61945,1,8,0:0:0:0:
289,167,62042,1,8,0:0:0:0:
249,104,62138,1,8,0:0:0:0:
169,96,62234,1,8,0:0:0:0:
108,148,62330,1,8,0:0:0:0:
120,227,62426,1,8,0:0:0:0:
197,182,62522,6,0,L|210:93,1,68.8749981608391,4|8,0:0|0:0,0:0:0:0:
77,53,62715,1,8,0:0:0:0:
27,115,62811,1,8,0:0:0:0:
17,194,62907,1,8,0:0:0:0:
41,270,63003,1,8,0:0:0:0:
105,320,63099,1,8,0:0:0:0:
184,329,63195,1,8,0:0:0:0:
257,298,63292,6,0,B|325:282|325:282|409:306,1,152.249995353699,4|8,0:1|0:0,0:0:0:0:
260,204,63580,2,0,P|275:137|326:62,1,152.249995353699,4|4,0:0|0:0,0:0:0:0:
174,158,63869,2,0,P|165:130|160:80,1,76.1249976768494,8|0,0:0|0:0,0:0:0:0:
171,251,64061,6,0,L|15:262,1,152.249995353699,4|8,0:0|0:0,0:0:0:0:
260,204,64349,2,0,P|303:260|324:356,1,152.249995353699,4|4,0:0|0:0,0:0:0:0:
174,158,64638,2,0,P|120:146|69:149,1,76.1249976768494,8|0,0:0|0:0,0:0:0:0:
104,356,64830,6,0,B|167:378|167:378|245:369,1,137.024999111395,4|8,0:2|0:0,0:0:0:0:
383,256,65119,2,0,P|325:220|259:203,1,137.024999111395,4|4,0:0|0:0,0:0:0:0:
102,256,65407,2,0,L|171:251,1,68.5124995556974,8|0,0:0|0:0,0:0:0:0:
265,112,65599,5,8,0:0:0:0:
172,85,65695,1,8,0:0:0:0:
194,174,65792,1,8,0:0:0:0:
265,112,65888,1,8,0:0:0:0:
240,17,65984,1,8,0:0:0:0:
240,17,66369,6,0,P|317:21|417:41,1,159.500004867554,4|8,0:1|0:0,0:0:0:0:
484,83,66657,1,4,0:0:0:0:
281,201,66753,2,0,P|267:249|270:296,1,79.7500024337769,4|0,0:0|0:0,0:0:0:0:
415,212,66945,2,0,P|410:156|392:120,1,79.7500024337769,8|0,0:0|0:0,0:0:0:0:
194,174,67138,6,0,B|119:195|119:195|32:182,1,159.500004867554,4|8,0:0|0:0,0:0:0:0:
281,201,67426,2,0,P|319:256|308:353,1,159.500004867554,4|4,0:0|0:0,0:0:0:0:
265,112,67715,2,0,P|305:84|351:73,1,79.7500024337769,8|0,0:0|0:0,0:0:0:0:
227,281,67907,6,0,P|170:284|59:304,1,159.500004867554,4|8,0:0|0:0,0:0:0:0:
0,367,68195,1,4,0:0:0:0:
108,199,68292,2,0,L|116:100,1,79.7500024337769,4|0,0:0|0:0,0:0:0:0:
0,34,68484,2,0,L|6:124,1,79.7500024337769,8|0,0:0|0:0,0:0:0:0:
200,60,68676,6,0,P|271:64|366:90,1,159.500004867554,4|8,0:0|0:0,0:0:0:0:
428,152,68965,1,4,0:0:0:0:
316,315,69061,2,0,P|241:294|221:278,1,79.7500024337769,4|0,0:3|0:0,0:0:0:0:
406,248,69253,2,0,L|417:340,1,79.7500024337769,8|0,0:0|0:0,0:0:0:0:
231,206,69445,6,0,B|224:154|224:154|234:117|234:117|227:72|185:50,1,159.500004867554,4|8,0:2|0:0,0:0:0:0:
0,84,69734,2,0,P|79:141|153:115,1,159.500004867554,4|4,0:0|0:0,0:0:0:0:
297,7,70022,2,0,P|351:9|396:30,1,79.7500024337769,8|0,0:0|0:0,0:0:0:0:
336,180,70215,6,0,L|325:91,1,79.7500024337769,4|0,0:0|0:0,0:0:0:0:
389,29,70407,1,8,0:0:0:0:
316,274,70503,2,0,P|254:259|140:253,1,159.500004867554,4|4,0:0|0:0,0:0:0:0:
25,360,70792,2,0,P|64:349|103:319,1,79.7500024337769,8|0,0:0|0:0,0:0:0:0:
102,94,70984,6,0,P|52:180|88:263,1,159.500004867554,4|8,0:0|0:0,0:0:0:0:
186,40,71272,2,0,P|129:4|36:9,1,159.500004867554,4|4,0:0|0:0,0:0:0:0:
191,144,71561,2,0,L|282:134,1,79.7500024337769,8|0,0:0|0:0,0:0:0:0:
455,56,71753,5,8,0:0:0:0:
455,56,71945,1,8,0:0:0:0:
481,138,72042,1,8,0:0:0:0:
462,222,72138,1,8,0:0:0:0:
390,271,72234,1,8,0:0:0:0:
303,273,72330,1,8,0:0:0:0:
228,223,72426,1,8,0:0:0:0:
191,144,72522,6,0,P|132:107|32:122,1,159.500004867554,4|8,0:1|0:0,0:0:0:0:
106,202,72811,1,4,0:0:0:0:
202,43,72907,2,0,L|301:31,1,79.7500024337769,4|0,0:0|0:0,0:0:0:0:
414,126,73099,2,0,L|322:115,1,79.7500024337769,8|0,0:0|0:0,0:0:0:0:
106,202,73292,6,0,B|97:252|97:252|110:304|110:304|101:364,1,159.500004867554,4|8,0:0|0:0,0:0:0:0:
45,114,73580,2,0,P|123:104|191:144,1,159.500004867554,4|4,0:0|0:0,0:0:0:0:
296,297,73869,2,0,L|379:288,1,79.7500024337769,8|0,0:0|0:0,0:0:0:0:
392,44,74061,6,0,B|312:33|312:33|235:58,1,159.500004867554,4|8,0:0|0:0,0:0:0:0:
191,144,74349,1,4,0:0:0:0:
306,210,74445,2,0,P|318:172|317:119,1,79.7500024337769,4|0,0:0|0:0,0:0:0:0:
117,217,74638,2,0,P|119:258|132:301,1,79.7500024337769,8|0,0:0|0:0,0:0:0:0:
237,57,74830,6,0,P|179:17|86:31,1,159.500004867554,4|8,0:0|0:0,0:0:0:0:
34,101,75119,1,4,0:0:0:0:
200,151,75215,2,0,L|307:141,1,79.7500024337769,4|0,0:0|0:0,0:0:0:0:
22,114,75407,2,0,P|-1:186|0:219,1,79.7500024337769,8|0,0:0|0:0,0:0:0:0:
176,307,75599,6,0,B|234:314|234:314|274:302|274:302|357:312,1,159.500004867554,4|8,0:2|0:0,0:0:0:0:
97,361,75888,2,0,P|86:278|144:211,1,159.500004867554,4|4,0:0|0:0,0:0:0:0:
315,206,76176,2,0,L|410:198,1,79.7500024337769,8|0,0:0|0:0,0:0:0:0:
245,2,76369,6,0,B|208:64|208:64|198:164,1,159.500004867554,4|8,0:0|0:0,0:0:0:0:
227,247,76657,1,4,0:0:0:0:
355,107,76753,2,0,P|347:71|326:28,1,79.7500024337769,4|0,0:0|0:0,0:0:0:0:
104,143,76945,2,0,P|114:186|144:248,1,79.7500024337769,8|0,0:0|0:0,0:0:0:0:
313,350,77138,5,4,0:2:0:0:
313,350,77330,1,8,0:0:0:0:
273,272,77426,1,8,0:0:0:0:
187,258,77522,1,8,0:0:0:0:
220,339,77619,1,8,0:0:0:0:
313,350,77715,1,2,0:0:0:0:
367,282,77811,1,2,0:0:0:0:
333,201,77907,6,0,P|298:186|232:178,1,79.7500024337769,8|8,0:3|0:3,0:0:0:0:
86,237,78099,1,8,0:3:0:0:
17,183,78195,1,8,0:3:0:0:
28,95,78292,2,0,P|83:62|124:54,1,79.7500024337769,4|4,0:3|0:0,0:0:0:0:
248,91,78484,1,4,0:0:0:0:
248,91,78580,1,4,0:0:0:0:
248,91,78676,6,0,P|319:102|406:40,1,166.750003180504,4|8,0:1|0:0,0:0:0:0:
153,135,78965,2,0,B|122:204|122:204|139:308,1,166.750003180504,4|4,0:0|0:0,0:0:0:0:
154,37,79253,1,8,0:0:0:0:
63,66,79349,1,2,0:0:0:0:
8,146,79445,2,0,P|-5:215|-2:253,1,83.375001590252,4|0,0:0|0:0,0:0:0:0:
145,376,79638,6,0,L|133:264,1,83.375001590252,8|0,0:0|0:0,0:0:0:0:
227,134,79830,2,0,L|235:227,1,83.375001590252,4|0,0:0|0:0,0:0:0:0:
352,360,80022,2,0,L|340:253,1,83.375001590252,8|0,0:0|0:0,0:0:0:0:
160,40,80215,6,0,P|113:95|139:209,1,166.750003180504,4|8,0:0|0:0,0:0:0:0:
210,231,80503,1,4,0:0:0:0:
315,43,80599,2,0,P|380:24|418:24,1,83.375001590252,4|0,0:0|0:0,0:0:0:0:
286,140,80792,2,0,L|182:126,1,83.375001590252,8|0,0:0|0:0,0:0:0:0:
60,267,80984,1,4,0:0:0:0:
60,267,81080,1,2,0:0:0:0:
60,267,81176,6,0,P|100:282|174:288,1,83.375001590252,8|0,0:0|0:0,0:0:0:0:
55,97,81369,2,0,P|18:170|14:199,1,83.375001590252,4|0,0:0|0:0,0:0:0:0:
108,383,81561,2,0,P|150:383|226:358,1,83.375001590252,8|0,0:0|0:0,0:0:0:0:
286,140,81753,6,0,P|370:93|454:122,1,166.750003180504,4|8,0:0|0:0,0:0:0:0:
193,177,82042,2,0,B|150:109|150:109|145:20,1,166.750003180504,4|4,0:0|0:0,0:0:0:0:
376,186,82330,1,8,0:0:0:0:
384,278,82426,1,2,0:0:0:0:
395,369,82522,2,0,P|431:379|483:384,1,83.375001590252,4|0,0:0|0:0,0:0:0:0:
424,106,82715,5,8,0:0:0:0:
332,100,82811,1,8,0:0:0:0:
277,175,82907,2,4,P|258:252|259:271,1,68.8749981608391
475,290,83099,2,4,L|469:212,1,61.6250011754036
382,21,83292,6,0,P|303:15|240:85,1,173.999994689942,8|0,0:0|0:0,0:0:0:0:
277,175,84205,6,0,L|181:170,1,87,2|0,2:2|0:0,0:0:0:0:
332,100,84638,6,0,P|357:124|381:180,1,61.6250011754036,2|0,2:0|0:0,0:0:0:0:
178,257,84830,6,0,B|135:248|135:248|109:233|109:233|75:230|34:249,1,145,4|8,0:1|0:0,0:0:0:0:
259,314,85119,2,0,P|328:295|415:284,1,145,4|4,0:0|0:0,0:0:0:0:
173,352,85407,2,0,L|97:358,1,72.5,8|0,0:0|0:0,0:0:0:0:
255,145,85599,6,0,P|265:178|265:223,1,72.5,4|0,0:0|0:0,0:0:0:0:
453,379,85792,2,0,B|492:324|492:324|499:243,1,145,8|0,0:0|0:0,0:0:0:0:
479,93,86080,1,4,0:0:0:0:
431,175,86176,2,0,L|348:187,1,72.5,8|0,0:0|0:0,0:0:0:0:
113,91,86369,6,0,P|172:60|252:44,1,145,4|8,0:0|0:0,0:0:0:0:
344,67,86657,1,4,0:0:0:0:
255,145,86753,2,0,L|246:217,1,72.5,4|0,0:0|0:0,0:0:0:0:
348,350,86945,2,0,P|342:317|329:276,1,72.5,8|0,0:0|0:0,0:0:0:0:
139,206,87138,6,0,B|92:211|92:211|50:238|50:238|-11:249,1,145,4|8,0:0|0:0,0:0:0:0:
5,69,87426,1,4,0:0:0:0:
5,69,87522,2,0,L|15:156,1,72.5,4|0,0:0|0:0,0:0:0:0:
71,343,87715,2,0,P|107:356|168:357,1,72.5,8|0,0:0|0:0,0:0:0:0:
244,214,87907,6,0,B|305:180|305:180|385:189,1,145,4|8,0:2|0:0,0:0:0:0:
453,264,88195,1,4,0:0:0:0:
453,264,88292,2,0,P|494:198|507:111,1,145,4|8,0:0|0:0,0:0:0:0:
473,46,88580,1,0,0:0:0:0:
368,103,88676,6,0,L|285:91,1,72.5,4|0,0:0|0:0,0:0:0:0:
161,38,88869,2,0,P|126:76|142:180,1,145,8|0,0:0|0:0,0:0:0:0:
323,188,89157,1,4,0:0:0:0:
283,101,89253,2,0,P|245:104|201:126,1,72.5,8|0,0:0|0:0,0:0:0:0:
322,286,89445,6,0,B|370:280|370:280|406:258|406:258|471:251,1,145,4|8,0:0|0:0,0:0:0:0:
236,349,89734,2,0,P|168:334|92:306,1,145,4|4,0:0|0:0,0:0:0:0:
223,171,90022,2,0,L|233:252,1,72.5,8|0,0:0|0:0,0:0:0:0:
327,384,90215,5,4,0:0:0:0:
511,174,90407,1,8,0:0:0:0:
443,125,90503,1,8,0:0:0:0:
362,135,90599,1,8,0:0:0:0:
314,205,90695,1,8,0:0:0:0:
324,288,90791,2,0,P|363:298|406:298,1,72.5,8|8,0:0|0:0,0:0:0:0:
388,42,90984,6,0,B|325:17|325:17|235:28,1,145,4|8,0:1|0:0,0:0:0:0:
130,83,91272,2,0,P|59:62|-3:13,1,145,4|4,0:0|0:0,0:0:0:0:
221,109,91561,2,0,L|231:203,1,72.5,8|0,0:0|0:0,0:0:0:0:
112,274,91753,6,0,P|124:231|148:191,1,72.5,4|0,0:0|0:0,0:0:0:0:
294,252,91945,2,0,P|364:243|424:173,1,145,8|0,0:0|0:0,0:0:0:0:
455,65,92234,1,4,0:0:0:0:
371,111,92330,2,0,P|333:102|300:80,1,72.5,8|0,0:0|0:0,0:0:0:0:
504,147,92522,6,0,L|512:302,1,145,4|8,0:0|0:0,0:0:0:0:
315,384,92811,1,4,0:0:0:0:
341,296,92907,2,0,P|368:284|421:283,1,72.5,4|0,0:0|0:0,0:0:0:0:
245,320,93099,2,0,L|164:309,1,72.5,8|0,0:0|0:0,0:0:0:0:
29,361,93292,6,0,B|79:313|79:313|93:217,1,145,4|8,0:0|0:0,0:0:0:0:
91,63,93580,1,4,0:0:0:0:
8,103,93676,2,0,P|58:147|138:139,1,145,4|8,0:0|0:0,0:0:0:0:
209,79,93965,1,0,0:0:0:0:
307,231,94061,6,0,L|295:332,1,72.5,4|0,0:0|0:0,0:0:0:0:
230,176,94253,2,0,P|288:140|369:157,1,145,8|0,0:0|0:0,0:0:0:0:
454,230,94542,1,4,0:0:0:0:
454,230,94638,2,0,P|506:209|533:187,1,72.5,8|0,0:0|0:0,0:0:0:0:
469,0,94830,6,0,B|433:63|433:63|450:141,1,145,4|8,0:0|0:0,0:0:0:0:
512,303,95119,2,0,P|459:329|370:344,1,145,4|4,0:0|0:0,0:0:0:0:
287,294,95407,2,0,L|199:279,1,72.5,8|0,0:0|0:0,0:0:0:0:
70,364,95599,6,0,P|116:349|156:323,1,72.5,4|0,0:0|0:0,0:0:0:0:
185,137,95792,2,0,P|239:101|323:120,1,145,8|0,0:0|0:0,0:0:0:0:
370,201,96080,1,4,0:0:0:0:
370,201,96176,2,0,L|287:211,1,72.5,8|0,0:0|0:0,0:0:0:0:
201,22,96369,5,4,0:0:0:0:
26,166,96561,1,8,0:0:0:0:
85,225,96657,1,8,0:0:0:0:
167,206,96753,2,0,P|180:172|184:136,1,72.5,4|4,0:0|0:0,0:0:0:0:
20,308,96945,1,4,0:0:0:0:
109,343,97042,1,4,0:0:0:0:
196,375,97138,6,0,P|257:349|334:340,1,123.250002350807,4|8,0:1|0:0,0:0:0:0:
431,359,97426,1,4,0:0:0:0:
431,359,97619,1,4,0:0:0:0:
506,280,97715,2,0,L|496:200,1,61.6250011754036,8|0,0:0|0:0,0:0:0:0:
376,129,97907,6,0,B|332:136|332:136|299:159|299:159|258:164,1,123.250002350807,4|8,0:0|0:0,0:0:0:0:
182,223,98195,1,4,0:0:0:0:
164,132,98292,2,0,L|156:68,1,61.6250011754036,4|0,0:0|0:0,0:0:0:0:
263,8,98484,2,0,P|257:39|242:68,1,61.6250011754036,8|0,0:0|0:0,0:0:0:0:
75,152,98676,6,0,P|37:216|53:281,1,123.250002350807,4|8,0:0|0:0,0:0:0:0:
216,308,98965,2,0,P|179:243|114:226,1,123.250002350807,4|4,0:0|0:0,0:0:0:0:
109,384,99253,2,0,L|121:314,1,61.6250011754036,8|0,0:0|0:0,0:0:0:0:
240,174,99445,6,0,B|300:181|300:181|363:225,1,123.250002350807,4|8,0:0|0:0,0:0:0:0:
438,298,99734,1,4,0:0:0:0:
438,298,99926,1,4,0:0:0:0:
467,189,100022,2,0,L|453:106,1,61.6250011754036,8|0,0:0|0:0,0:0:0:0:
502,28,100215,5,4,0:0:0:0:
488,36,100407,2,0,B|451:46|451:46|416:29|416:29|348:39|311:104,1,184.875003526211,4|0,0:1|0:0,0:0:0:0:
292,306,100792,2,0,P|279:275|277:245,1,61.6250011754036,8|0,0:0|0:0,0:0:0:0:
367,176,100984,5,4,0:0:0:0:
377,186,101176,2,0,B|332:214|332:214|260:197|201:130,1,184.875003526211,4|0,0:1|0:0,0:0:0:0:
118,23,101561,2,0,P|85:26|57:36,1,61.6250011754036,8|0,0:0|0:0,0:0:0:0:
6,130,101753,5,4,0:0:0:0:
17,121,101945,2,0,B|43:126|65:159|65:159|61:182|37:215|37:215|51:238|54:279,1,184.875003526211,4|0,0:1|0:0,0:0:0:0:
195,347,102330,2,0,P|226:339|252:324,1,61.6250011754036,8|0,0:0|0:0,0:0:0:0:
139,222,102522,5,4,0:0:0:0:
151,230,102715,2,0,B|188:256|188:256|233:214|252:126,1,184.875003526211,4|0,0:1|0:0,0:0:0:0:
152,19,103099,2,0,P|162:47|177:74,1,61.6250011754036,8|0,0:0|0:0,0:0:0:0:
331,76,103292,6,0,P|391:49|470:41,1,123.250002350807,4|8,0:1|0:0,0:0:0:0:
512,141,103580,1,4,0:0:0:0:
512,141,103772,1,4,0:0:0:0:
410,208,103869,2,0,L|400:281,1,61.6250011754036,8|0,0:0|0:0,0:0:0:0:
499,384,104061,6,0,B|445:356|445:356|365:365,1,123.250002350807,4|8,0:0|0:0,0:0:0:0:
286,384,104349,1,4,0:0:0:0:
211,322,104445,2,0,P|201:290|197:244,1,61.6250011754036,2|0,0:0|0:0,0:0:0:0:
290,164,104638,2,0,L|204:174,1,61.6250011754036,8|0,0:0|0:0,0:0:0:0:
126,41,104830,5,8,0:0:0:0:
201,65,104926,1,4,0:0:0:0:
257,60,105022,1,4,0:0:0:0:
285,42,105119,1,4,0:0:0:0:
380,28,105215,5,8,0:0:0:0:
424,92,105311,1,4,0:0:0:0:
419,147,105407,1,4,0:0:0:0:
402,182,105503,1,4,0:0:0:0:
366,273,105599,5,8,0:0:0:0:
434,317,105695,1,8,0:0:0:0:
487,297,105792,1,4,0:0:0:0:
499,263,105888,1,4,0:0:0:0:
483,234,105984,1,4,0:0:0:0:
461,225,106080,1,4,0:0:0:0:
445,230,106176,1,4,0:0:0:0:
438,241,106272,1,4,0:0:0:0:
444,250,106369,6,0,P|385:242|281:204,1,137.749996321678,4|8,0:2|0:0,0:0:0:0:
179,120,106657,2,0,B|110:126|110:126|31:181,1,137.749996321678,4|4,0:0|0:0,0:0:0:0:
270,133,106945,2,0,P|301:93|313:63,1,68.8749981608391,8|0,0:0|0:0,0:0:0:0:
147,214,107138,6,0,P|151:306|202:348,1,137.749996321678,4|8,0:0|0:0,0:0:0:0:
381,246,107426,1,4,0:0:0:0:
290,222,107522,2,0,P|260:238|235:262,1,68.8749981608391,2|0,0:0|0:0,0:0:0:0:
306,382,107715,2,0,L|318:299,1,68.8749981608391,8|0,0:0|0:0,0:0:0:0:
357,156,107907,6,0,P|410:122|502:102,1,137.749996321678,4|8,0:2|0:0,0:0:0:0:
290,222,108195,1,4,0:0:0:0:
242,144,108292,2,0,L|224:53,1,68.8749981608391,2|0,0:0|0:0,0:0:0:0:
338,6,108484,2,0,P|323:57|307:89,1,68.8749981608391,8|0,0:0|0:0,0:0:0:0:
148,141,108676,6,0,B|96:132|96:132|61:110|61:110|14:105,1,137.749996321678,4|8,0:0|0:0,0:0:0:0:
154,347,108965,2,0,P|196:294|195:226,1,137.749996321678,4|4,0:0|0:0,0:0:0:0:
42,236,109253,2,0,P|74:253|115:265,1,68.8749981608391,8|0,0:0|0:0,0:0:0:0:
298,147,109445,6,0,P|369:119|466:117,1,152.249995353699,4|8,0:1|0:0,0:0:0:0:
330,237,109734,2,0,B|404:255|404:255|474:318,1,152.249995353699,4|4,0:0|0:0,0:0:0:0:
271,311,110022,2,0,P|284:345|287:388,1,76.1249976768494,8|0,0:0|0:0,0:0:0:0:
45,251,110215,6,0,L|195:225,1,152.249995353699,4|8,0:0|0:0,0:0:0:0:
103,148,110503,2,0,P|108:102|164:2,1,152.249995353699,4|4,0:0|0:0,0:0:0:0:
126,281,110792,2,0,P|147:330|171:359,1,76.1249976768494,8|0,0:0|0:0,0:0:0:0:
353,334,110984,5,4,0:2:0:0:
353,334,111176,1,8,0:0:0:0:
298,269,111273,1,8,0:0:0:0:
305,184,111369,1,8,0:0:0:0:
370,128,111465,1,8,0:0:0:0:
455,135,111561,1,8,0:0:0:0:
510,200,111657,1,8,0:0:0:0:
503,285,111753,5,8,0:0:0:0:
411,265,111849,1,8,0:0:0:0:
353,334,111945,5,4,0:0:0:0:
276,356,112042,1,4,0:0:0:0:
224,341,112138,1,4,0:0:0:0:
197,316,112234,1,4,0:0:0:0:
187,293,112330,1,4,0:0:0:0:
186,274,112426,1,4,0:0:0:0:
194,259,112522,6,0,L|210:99,1,159.500004867554,4|8,0:1|0:0,0:0:0:0:
170,24,112811,1,4,0:0:0:0:
367,5,112907,2,0,P|401:12|463:44,1,79.7500024337769,4|0,0:0|0:0,0:0:0:0:
305,140,113099,2,0,L|293:46,1,79.7500024337769,8|0,0:0|0:0,0:0:0:0:
510,160,113292,6,0,P|447:213|367:207,1,159.500004867554,4|8,0:0|0:0,0:0:0:0:
207,114,113580,2,0,B|127:120|127:120|55:177,1,159.500004867554,4|4,0:0|0:0,0:0:0:0:
229,290,113869,2,0,P|247:256|259:196,1,79.7500024337769,8|0,0:0|0:0,0:0:0:0:
144,370,114061,6,0,L|305:386,1,159.500004867554,4|8,0:0|0:0,0:0:0:0:
370,324,114349,1,4,0:0:0:0:
122,281,114445,2,0,P|84:287|33:315,1,79.7500024337769,4|0,0:0|0:0,0:0:0:0:
257,216,114638,2,0,L|252:111,1,79.7500024337769,8|0,0:0|0:0,0:0:0:0:
404,90,114830,6,0,P|386:175|346:242,1,159.500004867554,4|8,0:0|0:0,0:0:0:0:
243,230,115119,1,4,0:0:0:0:
279,26,115215,2,0,P|316:15|373:13,1,79.7500024337769,4|0,0:0|0:0,0:0:0:0:
231,242,115407,2,0,P|194:239|151:224,1,79.7500024337769,8|0,0:0|0:0,0:0:0:0:
33,50,115599,6,0,B|40:106|40:106|25:152|25:152|35:222,1,159.500004867554,4|8,0:2|0:0,0:0:0:0:
266,129,115888,2,0,P|206:81|122:87,1,159.500004867554,4|4,0:0|0:0,0:0:0:0:
241,230,116176,2,0,L|329:217,1,79.7500024337769,8|0,0:0|0:0,0:0:0:0:
462,155,116369,6,0,P|496:92|512:-4,1,159.500004867554,4|8,0:0|0:0,0:0:0:0:
413,229,116657,2,0,L|429:387,1,159.500004867554,4|4,0:0|0:0,0:0:0:0:
371,142,116945,2,0,L|378:44,1,79.7500024337769,8|0,0:0|0:0,0:0:0:0:
317,225,117138,6,0,B|239:231|239:231|169:179,1,159.500004867554,4|8,0:0|0:0,0:0:0:0:
234,3,117426,2,0,P|279:58|260:146,1,159.500004867554,4|4,0:0|0:0,0:0:0:0:
104,69,117715,2,0,L|199:86,1,79.7500024337769,8|0,0:0|0:0,0:0:0:0:
369,143,117907,5,8,0:0:0:0:
92,191,118099,1,8,0:0:0:0:
71,284,118195,1,8,0:0:0:0:
140,353,118292,2,0,P|179:342|221:307,1,79.7500024337769,4|4,0:0|0:0,0:0:0:0:
274,168,118484,2,0,P|262:212|268:262,1,79.7500024337769,4|4,0:0|0:0,0:0:0:0:
415,363,118676,6,0,P|462:282|470:202,1,159.500004867554,4|8,0:1|0:0,0:0:0:0:
369,143,118965,2,0,B|330:74|330:74|345:-10,1,159.500004867554,4|4,0:0|0:0,0:0:0:0:
502,34,119253,2,0,P|462:53|414:60,1,79.7500024337769,8|0,0:0|0:0,0:0:0:0:
247,17,119445,6,0,L|149:5,1,79.7500024337769,4|4,0:0|0:0,0:0:0:0:
248,236,119638,2,0,P|273:176|272:135,1,79.7500024337769,8|0,0:0|0:0,0:0:0:0:
100,65,119830,2,0,P|117:96|127:138,1,79.7500024337769,4|0,0:0|0:0,0:0:0:0:
71,246,120022,2,0,L|159:233,1,79.7500024337769,8|0,0:0|0:0,0:0:0:0:
439,364,120215,6,0,P|360:351|289:316,1,159.500004867554,4|8,0:0|0:0,0:0:0:0:
257,224,120503,1,4,0:0:0:0:
412,187,120599,2,0,P|428:240|425:286,1,79.7500024337769,4|0,0:0|0:0,0:0:0:0:
320,156,120792,2,0,L|330:57,1,79.7500024337769,8|0,0:0|0:0,0:0:0:0:
173,0,120984,6,0,L|192:166,1,159.500004867554,4|8,0:0|0:0,0:0:0:0:
143,235,121272,1,4,0:0:0:0:
27,122,121369,2,0,P|73:96|121:88,1,79.7500024337769,4|0,0:0|0:0,0:0:0:0:
90,312,121561,2,0,P|54:260|44:214,1,79.7500024337769,8|0,0:0|0:0,0:0:0:0:
85,0,121753,6,0,B|134:6|134:6|181:40|181:40|232:46,1,159.500004867554,4|8,0:2|0:0,0:0:0:0:
401,3,122042,2,0,P|329:26|301:50,1,79.7500024337769,4|0,0:0|0:0,0:0:0:0:
287,196,122234,1,4,0:0:0:0:
287,196,122330,2,0,L|296:100,1,79.7500024337769,8|0,0:0|0:0,0:0:0:0:
192,222,122522,6,0,P|262:284|344:271,1,159.500004867554,4|8,0:0|0:0,0:0:0:0:
399,233,122811,1,4,0:0:0:0:
498,305,122907,2,0,L|507:392,1,79.7500024337769,4|0,0:0|0:0,0:0:0:0:
391,218,123099,2,0,P|401:169|422:137,1,79.7500024337769,8|0,0:0|0:0,0:0:0:0:
357,366,123292,5,4,0:0:0:0:
357,366,123484,1,8,0:0:0:0:
303,307,123580,1,8,0:0:0:0:
230,273,123676,1,8,0:0:0:0:
152,256,123772,1,8,0:0:0:0:
71,264,123869,6,0,P|23:296|6:320,1,79.7500024337769,4|4,0:0|0:0,0:0:0:0:
164,108,124061,2,0,P|160:50|148:23,1,79.7500024337769,4|4,0:0|0:0,0:0:0:0:
0,146,124253,2,0,L|87:159,1,79.7500024337769,4|4,0:0|0:0,0:0:0:0:
248,55,124445,6,0,B|292:52|332:70|332:70|346:103|346:103|389:129,1,164.937492449761,8|0,0:0|0:0,0:0:0:0:
397,133,124830,6,0,P|454:115|492:84,1,79.7500024337769,4|0,0:1|0:0,0:0:0:0:
498,18,125022,1,8,0:0:0:0:
454,212,125119,2,0,B|460:265|460:265|488:315|488:315|492:363,1,159.500004867554,4|4,0:0|0:0,0:0:0:0:
287,204,125407,2,0,P|341:215|378:233,1,79.7500024337769,8|0,0:0|0:0,0:0:0:0:
398,343,125599,5,4,0:0:0:0:
398,343,125792,2,0,L|294:356,1,79.7500024337769,8|0,0:0|0:0,0:0:0:0:
188,206,125984,2,0,P|206:144|225:113,1,79.7500024337769,4|0,0:0|0:0,0:0:0:0:
238,291,126176,2,0,P|175:306|138:305,1,79.7500024337769,8|0,0:0|0:0,0:0:0:0:
49,87,126369,6,0,P|128:91|202:118,1,159.500004867554,4|8,0:0|0:0,0:0:0:0:
269,192,126657,1,4,0:0:0:0:
426,96,126753,2,0,L|439:15,1,79.7500024337769,4|0,0:0|0:0,0:0:0:0:
329,91,126945,2,0,P|354:156|379:188,1,79.7500024337769,8|0,0:0|0:0,0:0:0:0:
500,313,127138,6,0,P|449:255|358:268,1,159.500004867554,4|8,0:0|0:0,0:0:0:0:
271,354,127426,2,0,B|190:363|190:363|113:322,1,159.500004867554,4|4,0:3|0:0,0:0:0:0:
192,194,127715,2,0,P|207:240|208:284,1,79.7500024337769,8|0,0:0|0:0,0:0:0:0:
21,197,127907,6,0,P|44:102|83:42,1,159.500004867554,4|8,0:2|0:0,0:0:0:0:
166,19,128195,1,4,0:0:0:0:
264,136,128292,2,0,P|305:149|364:155,1,79.7500024337769,4|0,0:0|0:0,0:0:0:0:
471,61,128484,2,0,L|367:77,1,79.7500024337769,8|0,0:0|0:0,0:0:0:0:
380,301,128676,6,0,B|430:245|430:245|440:139,1,159.500004867554,4|8,0:0|0:0,0:0:0:0:
377,60,128965,1,4,0:0:0:0:
254,150,129061,2,0,P|270:209|287:243,1,79.7500024337769,4|0,0:0|0:0,0:0:0:0:
265,33,129253,1,8,0:0:0:0:
265,33,129445,5,8,0:0:0:0:
195,69,129541,1,4,0:0:0:0:
139,73,129637,1,4,0:0:0:0:
107,60,129734,1,4,0:0:0:0:
8,35,129830,5,8,0:0:0:0:
44,106,129926,1,4,0:0:0:0:
48,161,130022,1,4,0:0:0:0:
35,193,130119,1,4,0:0:0:0:
16,277,130215,5,8,0:0:0:0:
93,314,130311,1,8,0:0:0:0:
164,268,130407,1,4,0:0:0:0:
216,287,130503,1,4,0:0:0:0:
243,317,130599,1,4,0:0:0:0:
275,336,130695,1,4,0:0:0:0:
309,332,130792,1,4,0:0:0:0:
332,317,130888,1,4,0:0:0:0:
339,303,130984,6,0,P|347:232|377:138,1,159.500004867554,4|8,0:1|0:0,0:0:0:0:
418,73,131272,1,4,0:0:0:0:
266,15,131369,2,0,P|210:36|176:64,1,79.7500024337769,4|0,0:0|0:0,0:0:0:0:
263,207,131561,2,0,P|257:159|242:112,1,79.7500024337769,8|0,0:0|0:0,0:0:0:0:
3,113,131753,6,0,B|72:150|72:150|160:137,1,159.500004867554,4|8,0:0|0:0,0:0:0:0:
255,115,132042,1,4,0:0:0:0:
170,232,132138,1,4,0:0:0:0:
237,294,132234,1,0,0:0:0:0:
327,275,132330,2,0,P|342:240|352:183,1,79.7500024337769,8|0,0:0|0:0,0:0:0:0:
0,372,132522,6,0,P|62:341|171:321,1,159.500004867554,4|8,0:2|0:0,0:0:0:0:
244,307,132811,1,4,0:0:0:0:
151,229,132907,2,0,P|129:166|126:123,1,79.7500024337769,4|0,0:0|0:0,0:0:0:0:
266,48,133099,2,0,P|257:86|242:123,1,79.7500024337769,8|0,0:0|0:0,0:0:0:0:
29,28,133292,6,0,P|105:21|171:81,1,159.500004867554,4|8,0:0|0:0,0:0:0:0:
278,213,133580,2,0,B|347:245|347:245|464:236,1,159.500004867554,4|4,0:3|0:0,0:0:0:0:
391,81,133869,2,0,P|370:121|362:163,1,79.7500024337769,8|0,0:0|0:0,0:0:0:0:
492,345,134061,6,0,P|523:260|531:171,1,159.500004867554,4|8,0:2|0:0,0:0:0:0:
344,274,134349,2,0,P|363:344|376:371,1,79.7500024337769,4|0,0:0|0:0,0:0:0:0:
428,225,134542,1,4,0:0:0:0:
267,320,134638,2,0,L|173:306,1,79.7500024337769,8|0,0:0|0:0,0:0:0:0:
145,147,134830,6,0,B|222:137|222:137|298:193,1,159.500004867554,4|8,0:0|0:0,0:0:0:0:
100,235,135119,2,0,P|49:173|71:80,1,159.500004867554,4|4,0:0|0:0,0:0:0:0:
201,229,135407,2,0,L|186:319,1,79.7500024337769,8|0,0:0|0:0,0:0:0:0:
38,346,135599,5,4,0:2:0:0:
38,346,135797,1,2,0:0:0:0:
413,299,135995,1,2,0:0:0:0:
413,299,136193,1,2,0:0:0:0:
106,174,136391,5,10,0:0:0:0:
337,213,136589,1,6,0:0:0:0:
189,66,136787,5,6,0:0:0:0:
285,114,136985,1,6,0:0:0:0:
299,0,137183,5,4,0:2:0:0:
