osu file format v14

[General]
AudioFilename: design.mp3
AudioLeadIn: 0
PreviewTime: 37859
Countdown: 1
SampleSet: None
StackLeniency: 0.2
Mode: 0
LetterboxInBreaks: 0
WidescreenStoryboard: 1

[Editor]
Bookmarks: 10984,11176,11272,11561,11849,11945,12138,12330,12522,12715,12811,13099,13388,13484,13676,13869,14061,14253,14349,14638,14926,15022,15215,15407,15599,15888,16176,16369,16561,16657,16753,16945,17042,17138,17426,17715,17811,17907,18099,18292,18484,18676,18965,19253,19349,19445,19638,19830,20022,20215,20503,20792,20888,20984,21176,21369,21561,21753,21945,22138,22234,22330,22522,22715,22907,23099,23292,23580,23869,24061,24349,24638,24830,25119,25407,25599,25792,25888,25984,26080,26176,26272,26369,26657,26945,27138,27330,27426,27619,27715,27907,28195,28484,28676,28869,28965,29157,29253,29445,29638,29734,29926,30022,38676,50984,66417,68676,78292
DistanceSpacing: 0.4
BeatDivisor: 4
GridSize: 4
TimelineZoom: 2.3

[Metadata]
Title:Disparity By Design
TitleUnicode:Disparity By Design
Artist:Rise Against
ArtistUnicode:Rise Against
Creator:pishifat
Version:Extra
Source:
Tags:endgame metal punk dashyy-
BeatmapID:1768260
BeatmapSetID:360325

[Difficulty]
HPDrainRate:6
CircleSize:3.5
OverallDifficulty:8
ApproachRate:9.2
SliderMultiplier:2
SliderTickRate:1

[Events]
//Background and Video events
0,0,"8761074d-6960-49b9-b523-5fb719dc0015.png",0,0
//Break Periods
2,78876,82722
//Storyboard Layer 0 (Background)
//Storyboard Layer 1 (Fail)
//Storyboard Layer 2 (Pass)
//Storyboard Layer 3 (Foreground)
//Storyboard Sound Samples

[TimingPoints]
9446,384.615384615385,4,3,1,50,1,0
9542,-200,4,3,1,50,0,0
9734,-200,4,3,1,35,0,0
9830,-200,4,3,1,50,0,0
9926,-133.333333333333,4,3,1,50,0,0
10119,-133.333333333333,4,3,1,35,0,0
10215,-133.333333333333,4,3,1,50,0,0
10888,-66.6666666666667,4,3,1,50,0,0
10984,-66.6666666666667,4,3,1,75,0,0
12522,-60.6060606060606,4,3,1,75,0,0
14061,-66.6666666666667,4,3,1,75,0,0
15599,-60.6060606060606,4,3,1,75,0,0
17138,-58.8235294117647,4,3,1,75,0,0
17426,-52.6315789473684,4,3,1,75,0,0
17907,-58.8235294117647,4,3,1,75,0,0
18676,-55.5555555555556,4,3,1,75,0,0
18965,-51.2820512820513,4,3,1,75,0,0
19253,-58.8235294117647,4,3,1,75,0,0
19638,-51.2820512820513,4,3,1,75,0,0
20215,-58.8235294117647,4,3,1,75,0,0
21753,-52.6315789473684,4,3,1,75,0,0
22522,-55.5555555555556,4,3,1,75,0,0
23292,-58.8235294117647,4,3,1,75,0,0
24061,-50,4,3,1,75,0,0
24830,-43.4782608695652,4,3,1,75,0,0
26369,-133.333333333333,4,3,2,55,0,0
31945,-80,4,3,2,55,0,0
32138,-100,4,3,2,55,0,0
32330,-133.333333333333,4,3,2,55,0,0
37907,-80,4,3,1,65,0,0
38676,-62.5,4,3,1,75,0,0
50215,-100,4,3,2,75,0,0
50792,-100,4,3,1,65,0,0
51561,-66.6666666666667,4,3,1,65,0,0
51753,-100,4,3,1,65,0,0
52330,-66.6666666666667,4,3,1,65,0,0
52522,-100,4,3,1,65,0,0
53099,-66.6666666666667,4,3,1,65,0,0
53292,-100,4,3,1,65,0,0
53869,-66.6666666666667,4,3,1,65,0,0
54253,-40,4,3,1,65,0,0
54638,-100,4,3,1,65,0,0
55022,-40,4,3,1,65,0,0
55407,-100,4,3,1,65,0,0
55792,-40,4,3,1,65,0,0
56176,-100,4,3,1,65,0,0
56561,-40,4,3,1,65,0,0
57138,-100,4,3,1,65,0,0
57715,-66.6666666666667,4,3,1,65,0,0
57907,-100,4,3,1,65,0,0
58484,-66.6666666666667,4,3,1,65,0,0
58676,-100,4,3,1,65,0,0
59253,-66.6666666666667,4,3,1,65,0,0
59445,-100,4,3,1,65,0,0
60022,-66.6666666666667,4,3,1,65,0,0
60215,-90.9090909090909,4,3,1,65,0,0
60503,-83.3333333333333,4,3,1,65,0,0
60792,-62.5,4,3,1,65,0,0
60984,-76.9230769230769,4,3,1,65,0,0
61272,-71.4285714285714,4,3,1,65,0,0
61561,-58.8235294117647,4,3,1,65,0,0
61753,-66.6666666666667,4,3,1,65,0,0
63292,-57.1428571428571,4,3,1,65,0,0
66369,-50,4,3,1,75,0,1
77907,-44.4444444444445,4,3,1,75,0,1
78388,-66.6666666666667,4,3,1,75,0,1
78676,-100,4,3,1,75,0,0
83292,-333.333333333333,4,3,1,75,0,0
83340,-333.333333333333,4,3,2,5,0,0
84205,-200,4,3,1,35,0,0
84253,-200,4,3,2,5,0,0
84638,-100,4,3,1,45,0,0
84734,-100,4,3,1,35,0,0
84830,-62.5,4,3,1,75,0,0
97138,-100,4,3,1,65,0,0
97715,-66.6666666666667,4,3,1,65,0,0
97907,-100,4,3,1,65,0,0
98484,-66.6666666666667,4,3,1,65,0,0
98676,-100,4,3,1,65,0,0
99253,-66.6666666666667,4,3,1,65,0,0
99445,-100,4,3,1,65,0,0
100022,-66.6666666666667,4,3,1,65,0,0
100407,-40,4,3,1,65,0,0
100792,-100,4,3,1,65,0,0
101176,-40,4,3,1,65,0,0
102330,-100,4,3,1,65,0,0
102715,-40,4,3,1,65,0,0
103292,-100,4,3,1,65,0,0
103869,-66.6666666666667,4,3,1,65,0,0
104061,-100,4,3,1,65,0,0
104638,-66.6666666666667,4,3,1,65,0,0
104830,-80,4,3,1,65,0,0
105215,-66.6666666666667,4,3,1,65,0,0
105599,-80,4,3,1,65,0,0
106369,-90.9090909090909,4,3,1,65,0,0
106657,-83.3333333333333,4,3,1,65,0,0
106945,-62.5,4,3,1,65,0,0
107138,-76.9230769230769,4,3,1,65,0,0
107426,-71.4285714285714,4,3,1,65,0,0
107715,-58.8235294117647,4,3,1,65,0,0
107907,-66.6666666666667,4,3,1,65,0,0
108484,-55.5555555555556,4,3,1,65,0,0
108676,-66.6666666666667,4,3,1,65,0,0
109253,-55.5555555555556,4,3,1,65,0,0
109445,-57.1428571428571,4,3,1,65,0,0
112330,-80,4,3,1,65,0,0
112522,-50,4,3,1,75,0,1
124445,-133.333333333333,4,3,1,75,0,1
124638,-50,4,3,1,35,0,0
124830,-50,4,3,1,75,0,1
129445,-80,4,3,1,75,0,1
129830,-66.6666666666667,4,3,1,75,0,1
130792,-80,4,3,1,75,0,1
130984,-50,4,3,1,75,0,1
135599,396.039603960396,4,3,1,75,1,0

[Colours]
Combo1 : 167,123,196
Combo2 : 184,84,84
Combo3 : 108,108,189
Combo4 : 255,192,62

[HitObjects]
171,77,9445,5,8,0:0:0:0:
171,77,9542,2,0,P|190:91|183:119,1,50,4|8,0:0|0:0,0:0:0:0:
32,125,9830,5,8,0:0:0:0:
32,125,9927,2,0,P|51:116|74:158,1,75.0000028610231,4|8,0:0|0:0,0:0:0:0:
1,303,10215,5,8,0:0:0:0:
26,228,10311,1,8,0:0:0:0:
95,305,10407,1,4,0:0:0:0:
95,305,10503,1,4,0:0:0:0:
95,305,10599,1,4,0:0:0:0:
95,305,10695,1,4,0:0:0:0:
95,305,10792,2,0,L|89:347,1,37.5000014305115,4|4,0:0|0:0,0:0:0:0:
250,319,10984,6,0,P|230:252|160:254,1,150.000005722046,4|8,0:1|0:0,0:0:0:0:
170,348,11272,2,0,P|240:349|260:282,1,150.000005722046,4|4,0:0|0:0,0:0:0:0:
163,357,11561,2,0,P|216:369|225:236,1,225.000008583069,8|4,0:0|0:0,0:0:0:0:
170,117,11945,6,0,P|207:156|238:151,1,75.0000028610231,8|0,0:0|0:0,0:0:0:0:
228,76,12138,2,0,P|175:88|164:117,1,75.0000028610231,4|0,0:0|0:0,0:0:0:0:
234,146,12330,2,0,P|249:94|229:70,1,75.0000028610231,8|0,0:0|0:0,0:0:0:0:
339,38,12522,6,0,L|369:216,1,165.000001573563,4|8,0:0|0:0,0:0:0:0:
384,355,12811,2,0,L|356:192,1,165.000001573563,4|4,0:0|0:0,0:0:0:0:
483,342,13099,2,0,B|408:350|365:304|365:304|346:181,1,247.500002360344,8|4,0:0|0:0,0:0:0:0:
464,97,13484,6,0,L|360:115,1,82.5000007867813,8|0,0:0|0:0,0:0:0:0:
191,275,13676,2,0,L|272:260,1,82.5000007867813,4|0,0:0|0:0,0:0:0:0:
339,38,13869,2,0,L|235:56,1,82.5000007867813,8|0,0:0|0:0,0:0:0:0:
126,207,14061,6,0,P|41:208|37:157,1,150.000005722046,4|8,0:0|0:0,0:0:0:0:
108,128,14349,2,0,P|52:128|49:227,1,150.000005722046,4|4,0:0|0:0,0:0:0:0:
139,215,14638,2,0,P|61:244|54:116,1,225.000008583069,8|4,0:0|0:0,0:0:0:0:
271,51,15022,6,0,P|282:89|248:129,1,75.0000028610231,8|0,0:0|0:0,0:0:0:0:
199,86,15215,2,0,P|219:116|255:123,1,75.0000028610231,4|0,0:0|0:0,0:0:0:0:
259,42,15407,2,0,P|222:44|198:72,1,75.0000028610231,8|0,0:0|0:0,0:0:0:0:
320,223,15599,6,0,L|513:194,1,165.000001573563,4|8,0:2|0:0,0:0:0:0:
164,208,15888,2,0,L|327:232,1,165.000001573563,4|4,0:0|0:0,0:0:0:0:
89,231,16176,2,0,L|185:216,1,82.5000007867813,8|0,0:0|0:0,0:0:0:0:
342,319,16369,6,0,L|260:306,1,82.5000007867813,4|0,0:0|0:0,0:0:0:0:
118,111,16561,1,8,0:0:0:0:
196,123,16657,1,8,0:0:0:0:
283,143,16753,1,4,0:0:0:0:
283,143,16849,1,4,0:0:0:0:
283,143,16945,1,8,0:0:0:0:
203,130,17042,1,8,0:0:0:0:
125,118,17138,6,0,P|92:185|177:195,1,170.000003242493,4|8,0:1|0:0,0:0:0:0:
118,111,17426,2,0,P|81:181|174:210,1,189.999994926453,4|4,0:0|0:0,0:0:0:0:
333,271,17715,1,8,0:0:0:0:
266,226,17811,1,2,0:0:0:0:
260,306,17907,2,0,P|306:304|349:257,1,85.0000016212464,4|0,0:0|0:0,0:0:0:0:
343,42,18099,6,0,P|355:97|400:118,1,85.0000016212464,8|0,0:0|0:0,0:0:0:0:
465,115,18292,2,0,P|411:97|370:126,1,85.0000016212464,4|0,0:0|0:0,0:0:0:0:
340,184,18484,2,0,P|381:146|377:96,1,85.0000016212464,8|0,0:0|0:0,0:0:0:0:
250,31,18676,6,0,L|66:51,1,179.999994506836,4|8,0:0|0:0,0:0:0:0:
256,21,18965,2,0,L|49:43,1,195.000000743866,4|4,0:0|0:0,0:0:0:0:
183,147,19253,1,8,0:0:0:0:
264,166,19349,1,2,0:0:0:0:
340,184,19445,2,0,L|248:172,1,85.0000016212464,4|0,0:0|0:0,0:0:0:0:
53,310,19638,6,0,L|38:202,1,97.500000371933,8|0,0:0|0:0,0:0:0:0:
245,349,19830,2,0,L|231:252,1,97.500000371933,4|0,0:0|0:0,0:0:0:0:
442,384,20022,2,0,L|428:287,1,97.500000371933,8|0,0:0|0:0,0:0:0:0:
390,64,20215,6,0,P|414:97|406:138,1,85.0000016212464,4|0,0:0|0:0,0:0:0:0:
326,147,20407,1,8,0:0:0:0:
326,147,20503,2,0,P|398:159|410:76,1,170.000003242493,4|4,0:0|0:0,0:0:0:0:
228,19,20792,1,8,0:0:0:0:
220,101,20888,1,2,0:0:0:0:
296,65,20984,2,0,P|236:72|204:110,1,85.0000016212464,4|0,0:0|0:0,0:0:0:0:
126,289,21176,6,0,P|85:292|51:268,1,85.0000016212464,8|0,0:0|0:0,0:0:0:0:
271,310,21369,2,0,P|230:307|196:331,1,85.0000016212464,4|0,0:0|0:0,0:0:0:0:
425,361,21561,2,0,P|384:364|350:340,1,85.0000016212464,8|0,0:0|0:0,0:0:0:0:
493,107,21753,6,0,L|475:215,1,94.9999974632264,4|0,0:2|0:0,0:0:0:0:
292,197,21945,2,0,L|189:235,1,94.9999974632264,8|0,0:0|0:0,0:0:0:0:
113,67,22138,2,0,L|28:-3,2,94.9999974632264,4|0|8,0:0|0:0|0:0,0:0:0:0:
117,77,22522,6,0,L|31:29,1,89.9999972534181,4|0,0:2|0:0,0:0:0:0:
170,199,22715,2,0,L|75:225,1,89.9999972534181,8|0,0:0|0:0,0:0:0:0:
293,247,22907,2,0,L|245:333,1,89.9999972534181,4|0,0:0|0:0,0:0:0:0:
413,193,23099,2,0,L|439:287,1,89.9999972534181,8|0,0:0|0:0,0:0:0:0:
238,1,23292,6,0,P|341:13|388:84,1,170.000003242493,4|8,0:2|0:0,0:0:0:0:
337,155,23580,2,0,P|234:143|187:72,1,170.000003242493,4|4,0:0|0:0,0:0:0:0:
288,79,23869,1,8,0:0:0:0:
288,79,24061,6,0,P|212:102|145:208,1,200,4|8,0:2|0:0,0:0:0:0:
216,279,24349,2,0,P|307:244|357:159,1,200,4|4,0:0|0:0,0:0:0:0:
253,179,24638,1,8,0:0:0:0:
253,179,24830,6,0,P|359:206|437:324,1,230.000004386902,4|8,0:2|0:0,0:0:0:0:
372,378,25119,2,0,P|266:351|188:233,1,230.000004386902,4|4,0:0|0:0,0:0:0:0:
313,278,25407,1,8,0:0:0:0:
313,278,25599,6,0,P|274:290|225:361,1,115.000002193451,4|0,0:2|0:0,0:0:0:0:
58,359,25792,1,8,0:0:0:0:
59,282,25888,1,8,0:0:0:0:
78,206,25984,1,8,0:0:0:0:
115,138,26080,1,8,0:0:0:0:
167,80,26176,1,8,0:0:0:0:
230,36,26272,1,8,0:0:0:0:
307,15,26369,6,0,L|391:29,1,75.0000028610231,4|8,0:1|0:0,0:0:0:0:
458,9,26657,2,0,P|481:35|486:82,1,75.0000028610231,4|4,0:0|0:0,0:0:0:0:
441,138,26945,1,8,0:2:0:0:
477,269,27138,5,4,0:0:0:0:
341,233,27330,1,8,0:0:0:0:
341,233,27426,2,0,P|317:259|312:306,1,75.0000028610231,4|4,0:0|0:0,0:0:0:0:
346,368,27715,1,8,0:2:0:0:
206,300,27907,6,0,L|119:309,1,75.0000028610231,4|8,0:0|0:0,0:0:0:0:
64,350,28195,1,4,0:0:0:0:
15,222,28388,1,4,0:0:0:0:
15,222,28484,1,8,0:2:0:0:
102,118,28676,6,0,L|190:131,1,75.0000028610231,4|8,0:0|0:0,0:0:0:0:
245,176,28965,2,0,P|295:162|318:134,1,75.0000028610231,4|4,0:0|0:0,0:0:0:0:
330,69,29253,1,10,0:2:0:0:
330,69,29445,6,0,L|322:146,1,75.0000028610231,4|8,0:0|0:0,0:0:0:0:
389,197,29734,1,4,0:0:0:0:
389,197,29830,2,0,L|397:246,1,37.5000014305115,0|4,0:0|0:0,0:0:0:0:
460,282,30022,1,8,0:2:0:0:
346,378,30215,6,0,P|308:378|277:359,1,75.0000028610231,4|8,0:0|0:0,0:0:0:0:
277,276,30503,1,4,0:0:0:0:
277,276,30599,2,0,L|236:284,1,37.5000014305115,0|4,0:0|0:0,0:0:0:0:
194,356,30792,1,8,0:2:0:0:
8,313,30984,6,0,L|91:296,1,75.0000028610231,4|8,0:0|0:0,0:0:0:0:
102,220,31272,2,0,L|181:233,1,75.0000028610231,4|4,0:0|0:0,0:0:0:0:
241,184,31561,1,8,0:2:0:0:
355,258,31753,5,4,0:0:0:0:
469,74,31945,2,0,P|460:39|459:9,1,62.5,0|0,1:0|1:0,1:0:0:0:
359,74,32138,2,0,P|375:93|394:110,1,50,0|0,1:0|1:0,1:0:0:0:
353,178,32330,2,0,P|320:167|303:157,1,37.5000014305115,0|0,1:0|1:0,1:0:0:0:
355,258,32522,6,0,L|366:340,1,75.0000028610231,4|8,0:2|0:0,0:0:0:0:
280,311,32811,2,0,P|244:323|222:355,1,75.0000028610231,4|4,0:0|0:0,0:0:0:0:
145,372,33099,1,8,0:2:0:0:
41,250,33292,5,4,0:0:0:0:
192,225,33484,1,8,0:0:0:0:
192,225,33580,2,0,L|203:136,1,75.0000028610231,4|4,0:0|0:0,0:0:0:0:
158,83,33869,1,8,0:2:0:0:
287,13,34061,6,0,P|333:22|356:51,1,75.0000028610231,4|8,0:0|0:0,0:0:0:0:
424,71,34349,1,4,0:0:0:0:
308,159,34542,1,4,0:0:0:0:
308,159,34638,1,8,0:2:0:0:
444,212,34830,6,0,L|455:298,1,75.0000028610231,4|8,0:0|0:0,0:0:0:0:
403,350,35119,1,4,0:0:0:0:
403,350,35215,2,0,P|374:360|353:358,1,37.5000014305115,0|4,0:0|0:0,0:0:0:0:
295,326,35407,1,10,0:2:0:0:
92,364,35599,5,4,0:0:0:0:
183,280,35792,1,8,0:0:0:0:
183,280,35888,2,0,P|201:242|195:200,1,75.0000028610231,4|4,0:0|0:0,0:0:0:0:
142,152,36176,1,8,0:0:0:0:
263,50,36369,6,0,L|337:37,1,75.0000028610231,4|8,0:0|0:0,0:0:0:0:
317,120,36657,2,0,P|299:158|305:200,1,75.0000028610231,4|4,0:0|0:0,0:0:0:0:
361,244,36945,1,8,0:2:0:0:
484,179,37138,5,4,0:0:0:0:
428,337,37330,1,8,0:0:0:0:
428,337,37426,1,4,0:0:0:0:
268,365,37619,1,4,0:0:0:0:
268,365,37715,1,8,0:2:0:0:
55,197,37907,6,0,L|116:205,1,62.5,8|0,0:0|0:0,0:0:0:0:
32,313,38099,1,8,0:0:0:0:
109,299,38195,1,8,0:0:0:0:
188,286,38291,1,8,0:0:0:0:
267,273,38387,1,8,0:0:0:0:
346,260,38483,1,8,0:0:0:0:
425,247,38579,1,8,0:0:0:0:
504,233,38676,6,0,P|508:134|441:128,1,160,4|8,0:1|0:0,0:0:0:0:
446,331,38965,2,0,P|518:263|475:212,1,160,4|4,0:0|0:0,0:0:0:0:
378,344,39253,2,0,P|427:346|447:315,1,80,8|0,0:0|0:0,0:0:0:0:
299,240,39445,6,0,L|288:331,1,80,4|0,0:0|0:0,0:0:0:0:
214,104,39638,1,8,0:0:0:0:
281,152,39734,2,0,L|304:344,1,160,4|4,0:0|0:0,0:0:0:0:
299,78,40022,2,0,L|288:169,1,80,8|0,0:0|0:0,0:0:0:0:
190,282,40215,6,0,P|117:214|160:163,1,160,4|8,0:0|0:0,0:0:0:0:
301,312,40504,2,0,P|202:314|196:248,1,160,4|4,0:0|0:0,0:0:0:0:
358,273,40792,2,0,P|324:309|288:301,1,80,8|0,0:0|0:0,0:0:0:0:
469,166,40984,6,0,L|378:179,1,80,4|0,0:0|0:0,0:0:0:0:
303,62,41176,1,8,0:0:0:0:
319,140,41272,2,0,L|495:162,1,160,4|4,0:0|0:0,0:0:0:0:
374,46,41561,2,0,L|283:59,1,80,8|0,0:0|0:0,0:0:0:0:
198,122,41753,6,0,P|245:179|312:148,1,160,4|8,0:0|0:0,0:0:0:0:
189,113,42042,2,0,P|162:182|222:226,1,160,4|4,0:0|0:0,0:0:0:0:
185,102,42330,2,0,P|118:120|110:151,1,80,8|0,0:0|0:0,0:0:0:0:
17,226,42522,6,0,L|31:305,2,80,4|0|8,0:0|0:0|0:0,0:0:0:0:
36,75,42811,2,0,L|11:241,1,160,4|4,0:0|0:0,0:0:0:0:
32,1,43099,2,0,L|45:79,1,80,8|0,0:0|0:0,0:0:0:0:
170,288,43292,6,0,P|234:251|215:180,1,160,4|8,0:0|0:0,0:0:0:0:
159,295,43581,2,0,P|222:333|276:282,1,160,4|4,0:0|0:0,0:0:0:0:
147,297,43869,2,0,P|153:366|182:379,1,80,8|0,0:0|0:0,0:0:0:0:
437,307,44061,6,0,L|446:219,1,80,4|0,0:0|0:0,0:0:0:0:
313,80,44253,1,8,0:0:0:0:
330,159,44349,1,8,0:0:0:0:
361,253,44445,1,4,0:0:0:0:
361,253,44542,1,4,0:0:0:0:
361,253,44638,1,4,0:0:0:0:
361,253,44734,1,4,0:0:0:0:
361,253,44830,6,0,P|333:320|244:291,1,160,4|8,0:1|0:0,0:0:0:0:
147,245,45119,2,0,P|220:234|250:302,1,160,4|4,0:0|0:0,0:0:0:0:
124,310,45407,2,0,P|124:260|156:230,1,80,8|0,0:0|0:0,0:0:0:0:
238,140,45599,6,0,L|342:125,1,80,4|0,0:0|0:0,0:0:0:0:
512,209,45792,1,8,0:0:0:0:
470,138,45888,2,0,L|311:119,1,160,4|4,0:0|0:0,0:0:0:0:
429,231,46176,2,0,L|507:217,1,80,8|0,0:0|0:0,0:0:0:0:
290,41,46369,6,0,P|223:69|252:158,1,160,4|8,0:0|0:0,0:0:0:0:
298,255,46658,2,0,P|309:182|241:152,1,160,4|4,0:0|0:0,0:0:0:0:
233,278,46946,2,0,P|283:278|313:246,1,80,8|0,0:0|0:0,0:0:0:0:
120,267,47138,6,0,L|133:352,1,80,4|0,0:0|0:0,0:0:0:0:
65,161,47330,1,8,0:0:0:0:
145,196,47426,2,0,L|124:354,1,160,4|4,0:0|0:0,0:0:0:0:
142,111,47715,2,0,L|155:196,1,80,8|0,0:0|0:0,0:0:0:0:
346,333,47907,6,0,P|406:291|372:214,1,160,4|8,0:0|0:0,0:0:0:0:
275,177,48195,2,0,P|317:237|394:203,1,160,4|4,0:0|0:0,0:0:0:0:
384,132,48484,2,0,P|381:186|417:218,1,80,8|0,0:0|0:0,0:0:0:0:
346,52,48676,6,0,L|247:38,2,80,4|0|8,0:0|0:0|0:0,0:0:0:0:
512,19,48965,2,0,L|338:49,1,160,4|4,0:0|0:0,0:0:0:0:
179,61,49253,2,0,L|258:49,1,80,8|0,0:0|0:0,0:0:0:0:
264,236,49445,6,0,P|192:246|165:156,1,160,4|8,0:0|0:0,0:0:0:0:
242,156,49734,1,4,0:0:0:0:
273,240,49830,2,0,P|269:284|229:316,1,80,4|4,0:0|0:0,0:0:0:0:
63,220,50022,1,8,0:0:0:0:
63,220,50215,5,8,0:0:0:0:
66,236,50311,1,8,0:0:0:0:
69,253,50407,1,8,0:0:0:0:
72,270,50503,1,8,0:0:0:0:
75,286,50599,1,8,0:0:0:0:
78,303,50695,1,8,0:0:0:0:
143,247,50792,5,8,0:0:0:0:
63,220,50888,1,8,0:0:0:0:
78,303,50984,6,0,P|117:327|180:343,1,100,4|8,0:1|0:0,0:0:0:0:
246,300,51272,2,0,P|285:276|348:260,1,100,4|4,0:0|0:0,0:0:0:0:
482,302,51561,2,0,B|448:317|448:317|411:311,1,75.0000028610231,8|0,0:0|0:0,0:0:0:0:
277,186,51753,6,0,P|290:124|318:75,1,100,4|8,0:0|0:0,0:0:0:0:
387,56,52042,2,0,P|436:64|481:85,1,100,4|4,0:0|0:0,0:0:0:0:
412,204,52330,2,0,B|404:167|404:167|375:126,1,75.0000028610231,8|0,0:0|0:0,0:0:0:0:
225,47,52522,6,0,P|166:66|107:64,1,100,4|8,0:0|0:0,0:0:0:0:
58,142,52811,2,0,P|107:145|154:162,1,100,4|4,0:0|0:0,0:0:0:0:
112,293,53099,2,0,B|87:260|87:260|91:214,1,75.0000028610231,8|0,0:0|0:0,0:0:0:0:
279,182,53292,6,0,P|261:263|241:295,1,100,4|8,0:0|0:0,0:0:0:0:
258,371,53580,2,0,P|303:351|353:345,1,100,4|0,0:0|0:0,0:0:0:0:
437,357,53869,2,0,B|472:361|472:361|504:339,2,75.0000028610231,8|0|4,0:0|0:0|0:0,0:0:0:0:
437,357,54253,6,0,B|480:318|480:318|420:66|420:66|494:2,1,375,12|0,0:1|0:0,0:0:0:0:
373,64,54638,2,0,P|421:35|476:28,1,100,8|4,0:0|0:0,0:0:0:0:
463,28,55022,6,0,B|500:72|500:72|401:311|401:311|438:357,1,375,12|0,0:1|0:0,0:0:0:0:
438,357,55407,1,8,0:0:0:0:
73,357,55599,1,4,0:0:0:0:
73,357,55792,6,0,B|110:311|110:311|11:72|11:72|49:28,1,375,12|0,0:1|0:0,0:0:0:0:
69,123,56176,2,0,P|48:70|51:15,1,100,8|4,0:0|0:0,0:0:0:0:
48,28,56561,6,0,B|92:66|92:66|32:318|32:318|75:357,1,375,12|0,0:1|0:0,0:0:0:0:
74,356,56946,1,8,0:0:0:0:
397,42,57138,6,0,P|348:53|304:77,1,100,4|8,0:1|0:0,0:0:0:0:
278,157,57426,2,0,P|304:199|340:233,1,100,4|4,0:0|0:0,0:0:0:0:
484,286,57715,2,0,B|451:268|451:268|412:271,1,75.0000028610231,8|0,0:0|0:0,0:0:0:0:
294,301,57907,6,0,P|222:283|182:261,1,100,4|8,0:0|0:0,0:0:0:0:
139,211,58195,2,0,P|67:229|27:251,1,100,4|4,0:0|0:0,0:0:0:0:
99,367,58484,2,0,B|120:334|120:334|118:290,1,75.0000028610231,8|0,0:0|0:0,0:0:0:0:
66,143,58676,6,0,P|85:62|108:30,1,100,4|8,0:0|0:0,0:0:0:0:
170,17,58965,2,0,P|239:47|280:52,1,100,4|4,0:0|0:0,0:0:0:0:
366,36,59253,2,0,B|342:67|342:67|347:120,1,75.0000028610231,8|0,0:0|0:0,0:0:0:0:
476,262,59445,6,0,P|407:220|369:213,1,100,4|8,0:0|0:0,0:0:0:0:
335,278,59734,2,0,P|266:320|228:327,1,100,4|4,0:0|0:0,0:0:0:0:
105,284,60022,2,0,B|88:249|88:249|93:209,1,75.0000028610231,8|0,0:0|0:0,0:0:0:0:
293,146,60215,6,0,P|269:206|221:247,1,110.000003356934,4|8,0:2|0:0,0:0:0:0:
178,51,60503,2,0,P|198:117|187:169,1,119.999996337891,4|4,0:0|0:0,0:0:0:0:
34,43,60792,2,0,B|65:19|65:19|115:10,1,80,8|0,0:0|0:0,0:0:0:0:
293,146,60984,6,0,P|376:176|431:171,1,129.999994049073,4|8,0:2|0:0,0:0:0:0:
325,307,61272,2,0,P|396:291|462:237,1,139.999995727539,4|4,0:0|0:0,0:0:0:0:
395,18,61561,2,0,B|365:51|365:51|373:117,1,85.0000016212464,8|0,0:0|0:0,0:0:0:0:
476,82,61753,5,4,0:0:0:0:
317,316,61945,1,8,0:0:0:0:
237,317,62042,1,8,0:0:0:0:
161,294,62138,1,8,0:0:0:0:
93,252,62234,1,8,0:0:0:0:
41,192,62330,1,8,0:0:0:0:
9,120,62426,1,8,0:0:0:0:
12,40,62522,5,4,0:0:0:0:
16,102,62619,1,8,0:0:0:0:
34,159,62715,1,8,0:0:0:0:
66,211,62811,1,8,0:0:0:0:
109,255,62907,1,8,0:0:0:0:
161,286,63003,1,8,0:0:0:0:
219,303,63099,1,8,0:0:0:0:
280,308,63195,1,8,0:0:0:0:
340,297,63292,6,0,B|381:248|381:248|361:121,1,175.00000166893,4|8,0:1|0:0,0:0:0:0:
481,22,63580,2,0,B|440:71|440:71|457:180,1,175.00000166893,4|4,0:0|0:0,0:0:0:0:
291,220,63869,2,0,L|273:111,1,87.500000834465,8|0,0:0|0:0,0:0:0:0:
50,82,64061,6,0,B|84:135|84:135|212:153,1,175.00000166893,4|8,0:0|0:0,0:0:0:0:
271,297,64349,2,0,B|236:243|236:243|126:227,1,175.00000166893,4|4,0:0|0:0,0:0:0:0:
137,57,64638,2,0,L|246:71,1,87.500000834465,8|0,0:0|0:0,0:0:0:0:
26,240,64830,6,0,B|8:130|8:130|49:81,1,175.00000166893,4|8,0:2|0:0,0:0:0:0:
194,151,65119,2,0,B|176:260|176:260|217:309,1,175.00000166893,4|4,0:0|0:0,0:0:0:0:
352,196,65407,2,0,L|338:93,1,87.500000834465,8|0,0:0|0:0,0:0:0:0:
473,235,65599,5,8,0:0:0:0:
434,304,65695,1,8,0:0:0:0:
354,305,65792,1,8,0:0:0:0:
287,348,65888,1,8,0:0:0:0:
217,309,65984,1,8,0:0:0:0:
217,309,66369,6,0,P|135:326|130:216,1,200,4|8,0:1|0:0,0:0:0:0:
159,136,66657,1,4,0:0:0:0:
125,227,66753,2,0,P|166:175|146:123,1,100,4|0,0:0|0:0,0:0:0:0:
122,54,66945,2,0,P|122:102|158:135,1,100,8|0,0:0|0:0,0:0:0:0:
331,247,67138,6,0,L|545:218,1,200,4|8,0:0|0:0,0:0:0:0:
323,254,67426,2,0,L|124:227,1,200,4|4,0:0|0:0,0:0:0:0:
315,261,67715,2,0,L|422:246,1,100,8|0,0:0|0:0,0:0:0:0:
396,49,67907,6,0,P|309:75|334:162,1,200,4|8,0:0|0:0,0:0:0:0:
466,107,68195,1,4,0:0:0:0:
398,59,68292,2,0,P|330:65|310:101,1,100,4|0,0:0|0:0,0:0:0:0:
323,254,68484,2,0,P|351:192|329:157,1,100,8|0,0:0|0:0,0:0:0:0:
163,157,68676,6,0,L|186:365,1,200,4|8,0:0|0:0,0:0:0:0:
29,384,68965,1,4,0:0:0:0:
92,335,69061,2,0,L|190:349,1,100,4|0,0:0|0:0,0:0:0:0:
255,150,69253,2,0,L|156:164,1,100,8|0,0:0|0:0,0:0:0:0:
9,14,69445,6,0,P|79:-2|98:102,1,200,4|8,0:2|0:0,0:0:0:0:
39,220,69734,2,0,P|0:159|91:106,1,200,4|4,0:0|0:0,0:0:0:0:
136,182,70022,2,0,P|91:158|82:107,1,100,8|0,0:0|0:0,0:0:0:0:
333,84,70215,6,0,L|345:190,1,100,4|0,0:0|0:0,0:0:0:0:
261,22,70407,1,8,0:0:0:0:
325,76,70503,2,0,L|301:274,1,200,4|4,0:0|0:0,0:0:0:0:
323,367,70792,2,0,L|311:267,1,100,8|0,0:0|0:0,0:0:0:0:
185,59,70984,6,0,P|102:96|135:181,1,200,4|8,0:0|0:0,0:0:0:0:
270,133,71272,2,0,P|185:99|147:182,1,200,4|4,0:0|0:0,0:0:0:0:
229,230,71561,2,0,P|186:179|132:190,1,100,8|0,0:0|0:0,0:0:0:0:
44,384,71753,6,0,L|155:368,1,100,8|0,0:0|0:0,0:0:0:0:
25,276,71945,1,8,0:0:0:0:
104,285,72041,1,8,0:0:0:0:
182,295,72137,1,8,0:0:0:0:
260,305,72233,1,8,0:0:0:0:
339,315,72329,1,8,0:0:0:0:
417,325,72425,1,8,0:0:0:0:
496,335,72522,6,0,P|512:243|404:238,1,200,4|8,0:1|0:0,0:0:0:0:
350,257,72811,1,4,0:0:0:0:
258,214,72907,2,0,P|274:147|307:131,1,100,4|0,0:0|0:0,0:0:0:0:
340,263,73099,2,0,P|273:246|257:213,1,100,8|0,0:0|0:0,0:0:0:0:
210,68,73292,6,0,L|408:45,1,200,4|8,0:0|0:0,0:0:0:0:
216,60,73580,2,0,L|17:37,1,200,4|4,0:0|0:0,0:0:0:0:
222,52,73869,2,0,L|330:40,1,100,8|0,0:0|0:0,0:0:0:0:
36,159,74061,6,0,P|58:250|152:209,1,200,4|8,0:0|0:0,0:0:0:0:
179,156,74349,1,4,0:0:0:0:
149,241,74445,2,0,P|188:299|234:303,1,100,4|0,0:0|0:0,0:0:0:0:
366,223,74638,2,0,P|296:227|269:265,1,100,8|0,0:0|0:0,0:0:0:0:
436,325,74830,6,0,L|461:105,1,200,4|8,0:0|0:0,0:0:0:0:
344,302,75119,1,4,0:0:0:0:
428,319,75215,2,0,L|538:304,1,100,4|0,0:0|0:0,0:0:0:0:
465,135,75407,2,0,L|364:117,1,100,8|0,0:0|0:0,0:0:0:0:
203,188,75599,6,0,P|131:180|157:62,1,200,4|8,0:2|0:0,0:0:0:0:
208,198,75888,2,0,P|152:229|84:124,1,200,4|4,0:0|0:0,0:0:0:0:
215,207,76176,2,0,P|188:258|134:259,1,100,8|0,0:0|0:0,0:0:0:0:
216,52,76369,6,0,L|450:22,1,200,4|8,0:0|0:0,0:0:0:0:
500,19,76657,1,4,0:0:0:0:
405,32,76753,2,0,L|392:132,1,100,4|0,0:0|0:0,0:0:0:0:
412,240,76945,2,0,L|398:140,1,100,8|0,0:0|0:0,0:0:0:0:
129,62,77138,5,4,0:2:0:0:
129,62,77330,1,8,0:0:0:0:
199,102,77426,1,8,0:0:0:0:
243,169,77522,1,8,0:0:0:0:
257,249,77619,1,8,0:0:0:0:
246,329,77715,2,0,L|134:342,1,100,2|2,0:0|0:0,0:0:0:0:
129,62,77907,5,8,0:3:0:0:
205,90,78003,1,8,0:3:0:0:
266,143,78099,1,8,0:3:0:0:
338,174,78195,1,8,0:3:0:0:
417,178,78292,1,4,0:3:0:0:
492,148,78388,2,0,P|509:78|505:-10,1,150.000005722046,4|4,0:0|0:0,0:0:0:0:
129,62,78676,5,4,0:1:0:0:
431,95,83292,6,0,P|468:75|419:67,1,119.999996337891,8|0,0:0|0:0,0:0:0:0:
474,199,84205,6,0,P|502:209|483:179,1,87.5,2|0,2:2|0:0,0:0:0:0:
419,296,84638,6,0,P|441:306|428:280,1,50,2|0,2:0|0:0,0:0:0:0:
379,164,84830,6,0,P|297:171|316:253,1,160,4|8,0:1|0:0,0:0:0:0:
270,343,85119,2,0,P|188:336|207:254,1,160,4|4,0:0|0:0,0:0:0:0:
171,193,85407,2,0,P|195:228|187:272,1,80,8|0,0:0|0:0,0:0:0:0:
57,331,85599,6,0,L|65:233,1,80,4|0,0:0|0:0,0:0:0:0:
115,61,85792,1,8,0:0:0:0:
38,99,85888,2,0,L|56:265,1,160,4|4,0:0|0:0,0:0:0:0:
32,91,86176,2,0,L|38:11,1,80,8|0,0:0|0:0,0:0:0:0:
269,145,86369,6,0,P|233:216|155:176,1,160,4|8,0:0|0:0,0:0:0:0:
212,82,86657,1,4,0:0:0:0:
275,138,86753,2,0,P|293:215|207:235,1,160,4|8,0:0|0:0,0:0:0:0:
157,204,87042,1,0,0:0:0:0:
145,322,87138,6,0,L|328:343,1,160,4|8,0:0|0:0,0:0:0:0:
389,214,87426,1,4,0:0:0:0:
310,350,87522,2,0,L|405:337,1,80,4|0,0:0|0:0,0:0:0:0:
399,208,87715,2,0,L|304:195,1,80,8|0,0:0|0:0,0:0:0:0:
400,336,87907,6,0,P|463:339|468:245,1,160,4|8,0:2|0:0,0:0:0:0:
428,131,88195,1,4,0:0:0:0:
474,243,88292,2,0,P|502:191|435:130,1,160,4|8,0:0|0:0,0:0:0:0:
358,81,88580,1,0,0:0:0:0:
281,164,88676,6,0,L|109:142,1,160,4|8,0:0|0:0,0:0:0:0:
48,106,88965,1,4,0:0:0:0:
130,150,89061,2,0,L|288:129,1,160,4|8,0:0|0:0,0:0:0:0:
358,81,89349,1,0,0:0:0:0:
350,213,89445,6,0,P|374:270|469:241,1,160,4|8,0:0|0:0,0:0:0:0:
340,207,89734,2,0,P|302:256|375:324,1,160,4|4,0:0|0:0,0:0:0:0:
333,199,90022,2,0,P|280:212|259:260,1,80,8|0,0:0|0:0,0:0:0:0:
84,336,90215,6,0,L|71:252,1,80,4|0,0:0|0:0,0:0:0:0:
166,383,90407,1,8,0:0:0:0:
173,306,90503,1,8,0:0:0:0:
182,229,90599,1,8,0:0:0:0:
190,152,90695,1,8,0:0:0:0:
199,76,90791,1,8,0:0:0:0:
209,0,90887,1,8,0:0:0:0:
190,82,90984,6,0,P|230:140|303:113,1,160,4|8,0:1|0:0,0:0:0:0:
422,72,91272,2,0,P|353:43|308:102,1,160,4|4,0:0|0:0,0:0:0:0:
427,141,91561,2,0,P|442:96|418:55,1,80,8|0,0:0|0:0,0:0:0:0:
352,184,91753,6,0,L|365:288,1,80,4|0,0:0|0:0,0:0:0:0:
475,366,91945,1,8,0:0:0:0:
512,289,92042,2,0,L|340:270,1,160,4|4,0:0|0:0,0:0:0:0:
279,315,92330,2,0,L|199:324,1,80,8|0,0:0|0:0,0:0:0:0:
82,201,92522,6,0,P|65:128|132:95,1,160,4|8,0:0|0:0,0:0:0:0:
163,214,92811,1,4,0:0:0:0:
77,207,92907,2,0,P|52:156|68:116,1,80,4|0,0:0|0:0,0:0:0:0:
113,13,93099,2,0,P|169:16|196:50,1,80,8|0,0:0|0:0,0:0:0:0:
269,128,93292,6,0,L|285:301,1,160,4|8,0:0|0:0,0:0:0:0:
345,362,93580,1,4,0:0:0:0:
290,296,93676,2,0,L|304:136,1,160,4|8,0:0|0:0,0:0:0:0:
353,69,93965,1,0,0:0:0:0:
467,185,94061,6,0,P|418:188|380:139,1,80,4|0,0:0|0:0,0:0:0:0:
496,108,94253,2,0,P|488:158|384:135,1,160,8|0,0:0|0:0,0:0:0:0:
353,69,94542,1,4,0:0:0:0:
288,18,94638,2,0,P|239:15|201:64,1,80,8|0,0:0|0:0,0:0:0:0:
135,166,94830,6,0,L|236:152,1,80,4|0,0:0|0:0,0:0:0:0:
73,105,95022,1,8,0:0:0:0:
130,177,95119,2,0,L|314:199,1,160,4|4,0:0|0:0,0:0:0:0:
376,178,95407,2,0,L|296:188,1,80,8|0,0:0|0:0,0:0:0:0:
172,297,95599,6,0,P|192:362|225:371,1,80,4|0,0:0|0:0,0:0:0:0:
294,291,95792,2,0,P|221:288|211:368,1,160,8|0,0:0|0:0,0:0:0:0:
343,355,96080,1,4,0:0:0:0:
375,281,96176,2,0,P|375:241|349:212,1,80,8|0,0:0|0:0,0:0:0:0:
209,173,96369,6,0,L|113:185,1,80,4|0,0:0|0:0,0:0:0:0:
303,76,96561,1,8,0:0:0:0:
383,88,96657,1,8,0:0:0:0:
478,118,96753,1,4,0:0:0:0:
478,118,96849,1,4,0:0:0:0:
478,118,96945,1,4,0:0:0:0:
478,118,97042,1,4,0:0:0:0:
478,118,97138,6,0,P|481:175|456:228,1,100,4|8,0:1|0:0,0:0:0:0:
482,297,97426,2,0,P|434:328|375:332,1,100,4|4,0:0|0:0,0:0:0:0:
253,359,97715,2,0,B|282:382|282:382|328:379,1,75,8|0,0:0|0:0,0:0:0:0:
263,150,97907,6,0,P|229:201|221:255,1,100,4|8,0:0|0:0,0:0:0:0:
159,297,98195,1,4,0:0:0:0:
159,297,98292,2,0,P|135:254|133:241,1,50,4|0,0:0|0:0,0:0:0:0:
103,133,98484,2,0,B|93:173|93:173|55:207,1,75.0000028610231,8|0,0:0|0:0,0:0:0:0:
40,10,98676,6,0,P|118:29|141:44,1,100,4|8,0:0|0:0,0:0:0:0:
200,91,98965,2,0,P|250:79|301:53,1,100,4|4,0:0|0:0,0:0:0:0:
437,60,99253,2,0,B|408:34|408:34|354:28,1,75.0000028610231,8|0,0:0|0:0,0:0:0:0:
306,151,99445,6,0,P|290:209|261:253,1,100,4|8,0:0|0:0,0:0:0:0:
185,231,99734,2,0,P|131:244|85:279,1,100,4|4,0:0|0:0,0:0:0:0:
90,378,100022,2,0,B|121:352|121:352|156:356,2,75.0000028610231,8|0|4,0:0|0:0|0:0,0:0:0:0:
90,378,100407,6,0,B|35:339|35:339|52:105|52:105|85:84|85:84|97:53,1,375,4|0,0:1|0:0,0:0:0:0:
68,144,100792,2,0,P|92:101|98:52,1,100,8|4,0:0|0:0,0:0:0:0:
97,53,101176,6,0,B|153:93|153:93|136:327|136:327|103:348|103:348|91:379,1,375,4|0,0:1|0:0,0:0:0:0:
90,378,101561,1,8,0:0:0:0:
421,379,101753,1,4,0:0:0:0:
421,379,101945,6,0,B|409:348|409:348|376:327|376:327|359:93|359:93|414:53,1,375,4|0,0:1|0:0,0:0:0:0:
324,90,102330,2,0,P|366:62|414:52,1,100,8|4,0:0|0:0,0:0:0:0:
415,53,102715,6,0,B|427:84|427:84|460:105|460:105|477:339|477:339|421:378,1,375,4|0,0:1|0:0,0:0:0:0:
421,378,103099,1,8,0:0:0:0:
215,102,103292,6,0,P|145:119|108:150,1,100,4|8,0:1|0:0,0:0:0:0:
40,140,103580,2,0,P|22:196|27:250,1,100,4|4,0:0|0:0,0:0:0:0:
33,340,103869,2,0,B|59:313|59:313|108:309,1,75.0000028610231,8|0,0:0|0:0,0:0:0:0:
213,380,104061,6,0,P|283:363|320:332,1,100,4|8,0:0|0:0,0:0:0:0:
354,277,104349,1,4,0:0:0:0:
354,277,104445,2,0,P|351:227|345:209,1,50,2|0,0:0|0:0,0:0:0:0:
425,318,104638,2,0,B|451:294|451:294|464:257,1,75.0000028610231,8|0,0:0|0:0,0:0:0:0:
458,59,104830,5,8,0:0:0:0:
397,109,104926,2,0,P|423:124|435:46,1,125,4|4,0:3|0:3,0:0:0:0:
259,25,105215,5,8,0:0:0:0:
281,109,105311,2,0,P|310:92|241:36,1,150.000005722046,4|4,0:3|0:3,0:0:0:0:
192,182,105599,5,8,0:0:0:0:
273,205,105695,1,8,0:0:0:0:
367,244,105792,1,4,0:0:0:0:
367,244,105888,1,4,0:0:0:0:
367,244,105984,1,4,0:0:0:0:
367,244,106080,1,4,0:0:0:0:
367,244,106176,2,4,L|439:233,1,62.5
339,43,106369,6,0,P|283:94|265:139,1,110.000003356934,4|8,0:2|0:0,0:0:0:0:
180,62,106657,2,0,P|175:121|197:176,1,119.999996337891,4|4,0:0|0:0,0:0:0:0:
90,204,106945,2,0,B|112:235|112:235|164:258,1,80,8|0,0:0|0:0,0:0:0:0:
314,281,107138,6,0,P|370:249|434:239,1,129.999994049073,4|8,0:0|0:0,0:0:0:0:
404,337,107426,1,4,0:0:0:0:
404,337,107522,2,0,P|459:347|490:368,1,69.9999978637696,2|0,0:0|0:0,0:0:0:0:
229,286,107715,2,0,B|233:244|233:244|263:205,1,85.0000016212464,8|0,0:0|0:0,0:0:0:0:
466,80,107907,6,0,P|377:56|325:7,1,150.000005722046,4|8,0:2|0:0,0:0:0:0:
442,171,108195,1,4,0:0:0:0:
442,171,108292,2,0,P|385:179|344:168,1,75.0000028610231,2|0,0:0|0:0,0:0:0:0:
494,250,108484,2,0,B|469:290|469:290|430:308,1,89.9999972534181,8|0,0:0|0:0,0:0:0:0:
260,210,108676,6,0,P|223:130|147:90,1,150.000005722046,4|8,0:0|0:0,0:0:0:0:
189,267,108965,2,4,P|134:224|31:217,1,150.000005722046
161,349,109253,2,0,B|115:354|115:354|71:387,1,89.9999972534181,8|0,0:0|0:0,0:0:0:0:
418,233,109445,6,0,B|369:192|369:192|242:212,1,175.00000166893,4|8,0:1|0:0,0:0:0:0:
143,92,109733,2,0,B|192:133|192:133|301:116,1,175.00000166893,4|4,0:0|0:0,0:0:0:0:
341,282,110022,2,0,L|232:300,1,87.500000834465,8|0,0:0|0:0,0:0:0:0:
26,370,110214,6,0,B|79:336|79:336|97:208,1,175.00000166893,4|8,0:0|0:0,0:0:0:0:
241,149,110503,2,0,B|187:184|187:184|171:294,1,175.00000166893,4|4,0:0|0:0,0:0:0:0:
1,283,110791,2,0,L|15:174,1,87.500000834465,8|0,0:0|0:0,0:0:0:0:
229,53,110984,5,4,0:2:0:0:
229,53,111176,1,8,0:0:0:0:
156,84,111272,1,8,0:0:0:0:
109,148,111369,1,8,0:0:0:0:
94,225,111465,1,8,0:0:0:0:
124,152,111561,1,8,0:0:0:0:
185,102,111657,1,8,0:0:0:0:
262,88,111753,5,8,0:0:0:0:
321,145,111849,1,8,0:0:0:0:
289,226,111945,1,4,0:0:0:0:
289,226,112042,1,4,0:0:0:0:
289,226,112138,1,4,0:0:0:0:
289,226,112234,1,4,0:0:0:0:
289,226,112330,2,4,L|283:295,1,62.5
512,146,112522,6,0,P|505:78|392:101,1,200,4|8,0:1|0:0,0:0:0:0:
451,207,112811,1,4,0:0:0:0:
417,56,112907,2,0,P|384:103|419:163,1,100,4|0,0:0|0:0,0:0:0:0:
459,213,113099,2,0,P|466:260|435:298,1,100,8|0,0:0|0:0,0:0:0:0:
271,193,113292,6,0,L|251:-8,1,200,4|8,0:0|0:0,0:0:0:0:
281,186,113580,2,0,L|259:384,1,200,4|4,0:0|0:0,0:0:0:0:
290,180,113869,2,0,L|279:79,1,100,8|0,0:0|0:0,0:0:0:0:
65,128,114061,6,0,P|30:221|114:239,1,200,4|8,0:0|0:0,0:0:0:0:
183,213,114349,1,4,0:0:0:0:
97,237,114445,2,0,P|65:302|95:338,1,100,4|0,0:0|0:0,0:0:0:0:
231,350,114638,2,0,P|262:284|232:248,1,100,8|0,0:0|0:0,0:0:0:0:
173,125,114830,6,0,L|415:148,1,200,4|8,0:0|0:0,0:0:0:0:
351,60,115119,1,4,0:0:0:0:
364,151,115215,2,0,L|383:266,1,100,4|0,0:0|0:0,0:0:0:0:
183,120,115407,2,0,L|199:21,1,100,8|0,0:0|0:0,0:0:0:0:
497,273,115599,6,0,P|405:323|380:233,1,200,4|8,0:2|0:0,0:0:0:0:
446,141,115888,2,0,P|452:244|360:230,1,200,4|4,0:0|0:0,0:0:0:0:
338,160,116176,2,0,P|379:198|376:245,1,100,8|0,0:0|0:0,0:0:0:0:
227,270,116369,6,0,L|114:251,1,100,4|0,0:0|0:0,0:0:0:0:
287,327,116561,1,8,0:0:0:0:
219,261,116657,2,4,L|21:294,1,200
98,163,116945,2,0,L|196:179,1,100,8|0,0:0|0:0,0:0:0:0:
416,102,117138,6,0,P|411:26|295:46,1,200,4|8,0:0|0:0,0:0:0:0:
338,163,117426,2,4,P|388:107|292:38,1,200
259,112,117715,2,8,P|308:83|313:23,1,100,8|0,0:0|0:0,0:0:0:0:
89,56,117907,6,0,L|104:172,1,100,8|0,0:0|0:0,0:0:0:0:
161,346,118099,1,8,0:0:0:0:
178,266,118195,1,8,0:0:0:0:
253,337,118292,1,4,0:0:0:0:
253,337,118388,1,4,0:0:0:0:
253,337,118484,1,4,0:0:0:0:
253,337,118580,1,4,0:0:0:0:
253,337,118676,6,0,P|304:348|324:231,1,200,4|8,0:1|0:0,0:0:0:0:
217,152,118965,2,0,P|203:62|292:49,1,200,4|4,0:0|0:0,0:0:0:0:
300,145,119253,2,0,P|250:171|191:136,1,100,8|0,0:0|0:0,0:0:0:0:
65,43,119445,5,4,0:0:0:0:
65,43,119542,1,4,0:0:0:0:
65,43,119638,2,0,L|79:156,1,100,8|0,0:0|0:0,0:0:0:0:
80,328,119830,2,0,L|67:228,1,100,4|0,0:0|0:0,0:0:0:0:
89,136,120022,2,0,L|76:235,1,100,8|0,0:0|0:0,0:0:0:0:
227,369,120215,6,0,P|301:354|261:252,1,200,4|8,0:0|0:0,0:0:0:0:
200,214,120503,1,4,0:0:0:0:
269,262,120599,2,0,P|331:227|329:175,1,100,4|0,0:0|0:0,0:0:0:0:
313,108,120792,2,0,P|312:179|358:203,1,100,8|0,0:0|0:0,0:0:0:0:
475,36,120984,6,0,L|268:18,1,200,4|8,0:0|0:0,0:0:0:0:
109,91,121272,1,4,0:0:0:0:
269,11,121369,2,0,L|170:29,1,100,4|0,0:0|0:0,0:0:0:0:
0,77,121561,2,0,L|98:96,1,100,8|0,0:0|0:0,0:0:0:0:
307,265,121753,6,0,P|296:333|186:302,1,200,4|8,0:2|0:0,0:0:0:0:
328,139,122042,2,4,P|382:181|300:262,1,200
246,105,122330,2,0,P|303:106|342:160,1,100,8|0,0:0|0:0,0:0:0:0:
226,239,122522,6,0,L|-6:208,1,200,4|8,0:0|0:0,0:0:0:0:
12,133,122811,1,4,0:0:0:0:
37,219,122907,2,0,L|55:343,1,100,4|0,0:0|0:0,0:0:0:0:
218,233,123099,2,0,L|234:109,1,100,8|0,0:0|0:0,0:0:0:0:
87,27,123292,5,4,0:0:0:0:
87,27,123484,1,8,0:0:0:0:
159,64,123580,1,8,0:0:0:0:
227,20,123676,1,4,0:0:0:0:
227,20,123772,1,4,0:0:0:0:
227,20,123869,1,4,0:0:0:0:
227,20,123965,1,4,0:0:0:0:
227,20,124061,5,4,0:0:0:0:
285,2,124157,1,4,0:0:0:0:
344,21,124253,1,4,0:0:0:0:
380,70,124349,1,4,0:0:0:0:
381,132,124445,2,0,L|462:145,1,75.0000028610231,8|4,0:0|0:0,0:0:0:0:
167,226,124830,6,0,P|146:310|254:312,1,200,4|8,0:1|0:0,0:0:0:0:
247,233,125119,2,4,P|161:219|153:329,1,200
268,309,125407,2,0,P|244:218|143:221,1,200,8|4,0:0|0:0,0:0:0:0:
35,265,125695,1,0,0:0:0:0:
35,265,125792,6,0,L|21:165,1,100,8|0,0:0|0:0,0:0:0:0:
144,13,125984,2,0,L|157:112,1,100,4|0,0:0|0:0,0:0:0:0:
330,172,126176,2,0,L|316:72,1,100,8|0,0:0|0:0,0:0:0:0:
453,330,126369,6,0,P|380:346|385:237,1,200,4|8,0:0|0:0,0:0:0:0:
502,264,126657,1,4,0:0:0:0:
377,353,126753,2,0,P|339:288|432:231,1,200,4|8,0:0|0:0,0:0:0:0:
459,338,127042,1,0,0:0:0:0:
277,367,127138,6,0,L|164:353,1,100,4|0,0:0|0:0,0:0:0:0:
35,247,127330,2,0,L|148:233,1,100,8|0,0:0|0:0,0:0:0:0:
199,98,127522,1,4,0:0:0:0:
199,98,127619,1,4,0:0:0:0:
199,98,127715,2,0,L|86:84,1,100,8|0,0:0|0:0,0:0:0:0:
317,267,127907,6,0,P|376:221|289:155,1,200,4|8,0:2|0:0,0:0:0:0:
234,261,128195,1,4,0:0:0:0:
382,222,128291,2,0,P|356:151|253:185,1,200,4|8,0:0|0:0,0:0:0:0:
318,276,128580,1,0,0:0:0:0:
504,274,128676,6,0,L|482:68,1,200,4|8,0:0|0:0,0:0:0:0:
255,178,128965,1,4,0:0:0:0:
318,127,129061,2,0,L|329:12,1,100,4|0,0:0|0:0,0:0:0:0:
141,105,129253,2,0,L|150:204,1,100,8|0,0:0|0:0,0:0:0:0:
124,358,129445,5,8,0:0:0:0:
124,358,129542,2,0,P|77:352|110:282,1,125,4|4,0:0|0:0,0:0:0:0:
243,322,129830,5,8,0:0:0:0:
243,322,129926,2,0,P|218:283|304:262,1,150.000005722046,4|4,0:0|0:0,0:0:0:0:
391,373,130215,5,8,0:0:0:0:
400,294,130311,1,8,0:0:0:0:
480,356,130407,1,4,0:0:0:0:
480,356,130503,1,4,0:0:0:0:
480,356,130599,1,4,0:0:0:0:
480,356,130695,1,4,0:0:0:0:
480,356,130792,2,4,L|491:272,1,62.5
412,40,130984,6,0,P|346:32|350:145,1,200,4|8,0:1|0:0,0:0:0:0:
387,212,131272,1,4,0:0:0:0:
348,134,131369,2,0,P|281:95|243:119,1,100,4|0,0:0|0:0,0:0:0:0:
219,173,131561,2,0,P|152:212|114:188,1,100,8|0,0:0|0:0,0:0:0:0:
27,101,131753,6,0,L|51:320,1,200,4|8,0:0|0:0,0:0:0:0:
23,376,132042,1,4,0:0:0:0:
40,292,132138,2,0,L|61:93,1,200,4|8,0:0|0:0,0:0:0:0:
71,9,132426,1,0,0:0:0:0:
137,207,132522,6,0,P|219:221|218:114,1,200,4|8,0:2|0:0,0:0:0:0:
236,42,132811,1,4,0:0:0:0:
224,129,132907,2,0,P|260:209|351:149,1,200,4|8,0:0|0:0,0:0:0:0:
393,104,133195,1,0,0:0:0:0:
337,176,133292,6,0,L|325:298,1,100,4|0,0:0|0:0,0:0:0:0:
505,74,133484,2,0,L|306:94,1,200,8|0,0:0|0:0,0:0:0:0:
118,118,133772,1,4,0:0:0:0:
224,129,133869,2,0,L|103:108,1,100,8|0,0:0|0:0,0:0:0:0:
17,245,134061,6,0,P|20:318|137:298,1,200,4|8,0:2|0:0,0:0:0:0:
228,239,134349,2,0,P|138:224|118:313,1,200,4|4,0:0|0:0,0:0:0:0:
218,319,134638,2,0,P|245:288|229:226,1,100,8|0,0:0|0:0,0:0:0:0:
125,111,134830,6,0,L|141:238,1,100,4|0,0:0|0:0,0:0:0:0:
316,333,135022,1,8,0:0:0:0:
364,267,135119,2,0,L|386:68,1,200,4|4,0:0|0:0,0:0:0:0:
213,55,135407,1,8,0:0:0:0:
213,55,135503,1,8,0:0:0:0:
213,55,135599,5,4,0:2:0:0:
240,246,135797,1,2,0:0:0:0:
50,273,135995,1,2,0:0:0:0:
22,82,136193,1,2,0:0:0:0:
417,221,136391,5,10,0:0:0:0:
403,316,136589,1,6,0:0:0:0:
308,303,136787,1,6,0:0:0:0:
321,207,136985,1,6,0:0:0:0:
494,370,137183,5,4,0:2:0:0:
