osu file format v14

[General]
AudioFilename: BRICKSupdate.mp3
AudioLeadIn: 0
PreviewTime: 6902
Countdown: 0
SampleSet: Normal
StackLeniency: 0.7
Mode: 0
LetterboxInBreaks: 0
WidescreenStoryboard: 0

[Editor]
Bookmarks: 142,6875,18055,23644,29234,34823,40413,60906
DistanceSpacing: 1.1
BeatDivisor: 4
GridSize: 4
TimelineZoom: 3.599999

[Metadata]
Title:Bricks
TitleUnicode:Bricks
Artist:Rise Against
ArtistUnicode:Rise Against
Creator:pishifat
Version:Easy
Source:
Tags:bouyaaa sharkie milan- pkhg the sufferer & and witness metal punk
BeatmapID:652167
BeatmapSetID:273633

[Difficulty]
HPDrainRate:3
CircleSize:3
OverallDifficulty:2.5
ApproachRate:3
SliderMultiplier:0.77999990463257
SliderTickRate:1

[Events]
//Background and Video events
0,0,"bricktrain.jpg",0,0
//Break Periods
2,53072,59131
//Storyboard Layer 0 (Background)
//Storyboard Layer 1 (Fail)
//Storyboard Layer 2 (Pass)
//Storyboard Layer 3 (Foreground)
//Storyboard Sound Samples

[TimingPoints]
142,337.078651685393,4,2,0,50,1,0
1490,-100,4,1,1,40,0,0
5535,341.880341880342,4,1,1,40,1,0
6047,-100,4,1,1,45,0,0
6902,349.344978165939,4,1,1,50,1,0
6902,-92.5925925925926,4,1,1,50,0,0
7051,349.344978165939,4,1,1,50,1,0
7225,349.344978165939,4,1,1,50,1,8
8274,349.344978165939,4,1,1,50,1,0
18055,-100,4,1,1,50,0,1
23645,-100,4,1,1,50,0,0
23819,-100,4,1,1,50,0,1
29234,-100,4,1,1,50,0,0
40413,-100,4,1,1,50,0,1
46003,-100,4,1,1,50,0,0
46177,-100,4,1,1,50,0,1
50195,334.728033472803,4,1,1,40,1,0
60906,-100,4,1,1,50,0,0
66261,-100,4,1,1,45,0,0
71617,-100,4,1,1,50,0,0
74295,-100,4,1,1,50,0,0
75274,-100,4,1,1,50,0,0
75626,-100,4,1,1,50,0,0
76303,349.344978165939,4,1,1,50,1,8
77001,349.344978165939,4,1,1,50,1,1
82590,-100,4,1,1,50,0,0
82765,-100,4,1,1,50,0,1
83987,-100,4,1,1,50,0,0
84162,-100,4,1,1,50,0,1
86782,-100,4,1,1,50,0,0
87481,-100,4,1,1,50,0,0
88180,-100,4,1,1,50,0,0
88878,-100,4,1,1,50,0,1
88966,-100,4,1,1,50,0,0

[Colours]
Combo1 : 69,96,118
Combo2 : 121,81,81
Combo3 : 104,98,132
Combo4 : 148,100,78

[HitObjects]
84,54,1490,6,0,L|227:34,1,116.999985694886,4|8,0:0|0:0,0:0:0:0:
227,118,2333,2,0,L|136:132,1,77.999990463257,8|8,0:0|0:0,0:0:0:0:
72,166,3007,2,0,P|56:202|52:258,1,77.999990463257,8|8,0:0|0:0,0:0:0:0:
74,322,3681,2,0,P|106:344|161:358,1,77.999990463257,8|8,0:0|0:0,0:0:0:0:
221,320,4355,6,0,L|312:312,1,77.999990463257,8|8,0:0|0:0,0:0:0:0:
383,313,5029,1,8,0:0:0:0:
331,196,5535,6,0,B|232:154|261:226|147:174,1,155.999980926514,2|8,0:1|0:0,0:0:0:0:
125,119,6560,1,8,0:0:0:0:
212,109,6902,6,0,L|219:271,1,162.069356915524,4|0,0:0|0:0,0:0:0:0:
188,353,7924,1,0,0:0:0:0:
134,286,8273,2,0,P|93:274|52:271,2,77.999990463257,2|0|0,0:2|0:0|0:0,0:0:0:0:
218,270,9321,1,0,0:0:0:0:
271,337,9671,6,0,B|328:322|328:322|368:341|368:341|435:324,2,155.999980926514,4|0|0,0:0|0:0|0:0,0:0:0:0:
112,286,11767,2,0,P|97:240|102:181,1,77.999990463257,0|0,0:0|0:0,0:0:0:0:
125,130,12465,6,0,L|39:121,2,77.999990463257,4|0|0,0:0|0:0|0:0,0:0:0:0:
208,107,13513,1,0,0:0:0:0:
261,40,13863,2,0,P|334:30|409:101,1,155.999980926514,2|0,0:2|0:0,0:0:0:0:
417,159,14911,1,0,0:0:0:0:
432,242,15260,6,0,P|471:240|517:221,2,77.999990463257,4|0|0,0:0|0:0|0:0,0:0:0:0:
350,215,16308,1,0,0:0:0:0:
267,236,16657,2,0,B|247:270|247:270|242:319,1,77.999990463257,10|8,0:0|0:0,0:0:0:0:
163,340,17356,2,0,B|158:299|158:299|136:259,1,77.999990463257,8|8,0:0|0:3,0:0:0:0:
89,196,18055,6,0,P|152:149|251:178,1,155.999980926514,4|0,0:0|0:0,0:0:0:0:
343,286,19452,2,0,P|420:296|482:222,1,155.999980926514,2|0,0:2|0:0,0:0:0:0:
467,159,20500,1,0,0:0:0:0:
392,209,20850,6,0,B|375:157|375:157|389:116|389:116|381:86|349:53,1,155.999980926514,2|0,0:2|0:0,0:0:0:0:
194,29,22247,2,0,P|139:67|138:159,1,155.999980926514,2|0,0:2|0:0,0:0:0:0:
276,245,23644,6,0,L|315:240,1,38.9999952316285,0|12,0:0|0:0,0:0:0:0:
355,362,24343,1,4,0:0:0:0:
184,343,25042,2,0,B|177:287|177:287|193:248|193:248|181:177,1,155.999980926514,2|0,0:2|0:0,0:0:0:0:
95,43,26439,6,0,P|130:19|190:12,1,77.999990463257,2|0,0:2|0:0,0:0:0:0:
231,62,27138,2,0,L|315:76,1,77.999990463257,0|0,0:0|0:0,0:0:0:0:
392,56,27837,2,0,B|425:38|425:38|477:34,2,77.999990463257,4|8|8,0:3|0:3|0:3,0:0:0:0:
363,137,28885,1,8,0:0:0:0:
335,218,29234,6,0,P|273:259|183:240,1,155.999980926514,4|0,0:0|0:0,0:0:0:0:
141,182,30282,1,0,0:0:0:0:
62,216,30631,2,0,L|71:318,2,77.999990463257,2|0|0,0:2|0:0|0:0,0:0:0:0:
66,130,31679,1,0,0:0:0:0:
128,70,32029,6,0,B|185:59|185:59|220:77|220:77|298:66,1,155.999980926514,4|0,0:0|0:0,0:0:0:0:
354,31,33077,1,0,0:0:0:0:
436,55,33426,2,0,P|456:104|452:161,1,77.999990463257,2|0,0:2|0:0,0:0:0:0:
410,200,34125,1,0,0:0:0:0:
448,276,34474,1,0,0:0:0:0:
394,343,34823,6,0,P|332:298|229:312,1,155.999980926514,4|0,0:0|0:0,0:0:0:0:
184,347,35871,1,0,0:0:0:0:
133,277,36221,2,0,L|126:183,2,77.999990463257,2|0|0,0:2|0:0|0:0,0:0:0:0:
101,356,37269,1,0,0:0:0:0:
185,348,37618,6,0,B|215:308|215:308|217:261|217:261|236:225|272:207,1,155.999980926514,0|0,0:0|0:0,0:0:0:0:
340,204,38666,1,0,0:0:0:0:
414,246,39016,2,0,B|500:253,1,77.999990463257,10|8,0:0|0:0,0:0:0:0:
493,167,39714,2,0,B|401:160,1,77.999990463257,8|8,0:0|0:3,0:0:0:0:
340,204,40413,6,0,P|274:218|198:169,1,155.999980926514,4|0,0:0|0:0,0:0:0:0:
363,115,41810,2,0,P|425:178|415:256,1,155.999980926514,2|0,0:2|0:0,0:0:0:0:
357,297,42858,1,0,0:0:0:0:
277,263,43208,6,0,B|219:258|219:258|186:286|186:286|132:282,1,155.999980926514,2|0,0:2|0:0,0:0:0:0:
57,126,44605,2,2,B|90:110|118:113|118:113|136:99|136:99|172:121|223:108,1,155.999980926514,2|2,0:0|0:2,0:0:0:0:
359,33,46003,6,0,P|381:28|405:26,1,38.9999952316285,0|12,0:0|0:0,0:0:0:0:
463,139,46701,2,0,P|398:123|315:187,2,155.999980926514,4|0|0,0:0|0:0|0:0,0:0:0:0:
477,309,48797,6,0,P|433:323|374:319,1,77.999990463257,2|0,0:2|0:0,0:0:0:0:
327,280,49496,2,0,P|285:268|221:270,1,77.999990463257,0|0,0:0|0:0,0:0:0:0:
170,298,50195,1,0,0:0:0:0:
256,192,50362,12,0,52872,0:0:0:0:
450,66,60571,5,10,0:0:0:0:
407,140,60906,6,0,B|354:165|354:165|197:150,1,155.999980926514,4|0,0:0|0:0,0:0:0:0:
197,94,61910,1,8,0:0:0:0:
112,109,62245,2,0,P|74:164|79:218,2,116.999985694885,0|4|12,0:0|0:0|0:0,0:0:0:0:
159,183,63584,6,0,B|217:192|217:192|252:176|252:176|336:192,1,155.999980926514,0|0,0:0|0:0,0:0:0:0:
381,231,64588,1,8,0:0:0:0:
330,299,64923,2,0,P|269:309|210:349,2,116.999985694885,0|4|12,0:0|0:0|0:0,0:0:0:0:
410,325,66261,5,0,0:0:0:0:
474,165,66931,1,0,0:0:0:0:
304,192,67600,2,0,B|172:178,2,116.999985694885,0|4|12,0:0|0:0|0:0,0:0:0:0:
388,172,68939,5,0,0:0:0:0:
247,73,69609,1,0,0:0:0:0:
95,153,70278,2,0,L|80:280,2,116.999985694885,0|4|12,0:0|0:0|0:0,0:0:0:0:
132,76,71617,6,0,B|230:70|230:70|318:106,1,155.999980926514,4|0,0:0|0:0,0:0:0:0:
340,156,72621,1,8,0:0:0:0:
424,139,72956,2,0,P|446:76|438:12,2,116.999985694885,0|4|12,0:0|0:0|0:0,0:0:0:0:
340,156,74295,6,0,P|286:162|237:191,1,77.999990463257,0|8,0:0|0:0,0:0:0:0:
202,231,74964,1,8,0:0:0:0:
284,254,75299,1,8,0:0:0:0:
223,315,75634,1,12,0:0:0:0:
386,301,76303,2,0,L|392:196,1,77.999990463257,4|4,0:0|0:0,0:0:0:0:
365,141,77001,6,0,B|311:129|311:129|274:143|274:143|204:130,1,155.999980926514,4|0,0:0|0:0,0:0:0:0:
54,69,78398,2,0,P|9:133|21:217,1,155.999980926514,0|0,0:0|0:0,0:0:0:0:
78,267,79446,1,0,0:0:0:0:
158,237,79795,6,0,B|259:225|259:225|337:270,1,155.999980926514,0|0,0:0|0:0,0:0:0:0:
438,143,81193,2,0,P|371:98|271:122,1,155.999980926514,0|0,0:0|0:0,0:0:0:0:
188,235,82590,6,0,L|126:240,1,38.9999952316285,0|12,0:0|0:0,0:0:0:0:
21,250,83289,1,0,0:0:0:0:
159,148,83987,6,0,L|209:143,1,38.9999952316285,0|12,0:0|0:0,0:0:0:0:
325,131,84686,1,0,0:0:0:0:
168,60,85385,6,0,P|131:66|92:86,1,77.999990463257,4|0,0:0|0:0,0:0:0:0:
61,162,86083,2,0,L|71:244,1,77.999990463257,0|8,0:0|0:0,0:0:0:0:
101,319,86782,6,0,B|179:372|163:308|249:352,2,155.999980926514,4|4|4,0:0|0:3|0:3,0:0:0:0:
60,152,88878,1,12,0:0:0:0:
