osu file format v14

[General]
AudioFilename: BRICKSupdate.mp3
AudioLeadIn: 0
PreviewTime: 6902
Countdown: 0
SampleSet: Normal
StackLeniency: 0.7
Mode: 1
LetterboxInBreaks: 0
WidescreenStoryboard: 0

[Editor]
Bookmarks: 29234,50195
DistanceSpacing: 1.9
BeatDivisor: 4
GridSize: 4
TimelineZoom: 1.4

[Metadata]
Title:Bricks
TitleUnicode:Bricks
Artist:Rise Against
ArtistUnicode:Rise Against
Creator:Raiden
Version:Futsuu
Source:
Tags:the sufferer & and witness metal punk
BeatmapID:933194
BeatmapSetID:432804

[Difficulty]
HPDrainRate:7
CircleSize:2
OverallDifficulty:4.5
ApproachRate:10
SliderMultiplier:1.4
SliderTickRate:1

[Events]
//Background and Video events
0,0,"bricktrain.jpg",0,0
//Break Periods
//Storyboard Layer 0 (Background)
//Storyboard Layer 1 (Fail)
//Storyboard Layer 2 (Pass)
//Storyboard Layer 3 (Foreground)
//Storyboard Sound Samples

[TimingPoints]
142,337.078651685393,4,1,0,20,1,0
1406,-103.626943005181,4,1,0,80,0,0
5535,341.880341880342,4,1,0,80,1,0
5535,-102.145045965271,4,1,0,80,0,0
6902,349.344978165939,4,1,0,80,1,0
7225,349.344978165939,4,1,0,80,1,8
8274,349.344978165939,4,1,0,80,1,0
50195,334.728033472803,4,1,0,80,1,0
50195,-104.384133611691,4,1,0,80,0,0
76303,349.344978165939,4,1,0,80,1,8
77001,349.344978165939,4,1,0,80,1,1
86782,-100,4,1,0,80,0,0

[HitObjects]
256,192,142,12,0,1153,0:0:0:0:
136,288,1490,5,4,0:0:0:0:
148,108,1827,1,0,0:0:0:0:
148,108,2164,1,0,0:0:0:0:
328,264,2838,1,8,0:0:0:0:
328,264,3175,1,8,0:0:0:0:
384,288,3512,1,8,0:0:0:0:
56,104,4186,1,0,0:0:0:0:
144,116,4524,1,0,0:0:0:0:
72,56,4861,1,0,0:0:0:0:
432,304,5535,1,8,0:0:0:0:
392,260,5876,1,8,0:0:0:0:
368,288,6218,1,8,0:0:0:0:
368,288,6389,1,8,0:0:0:0:
368,288,6560,1,8,0:0:0:0:
128,96,6902,5,4,0:0:0:0:
132,116,7225,1,0,0:0:0:0:
152,116,7574,1,0,0:0:0:0:
128,128,8274,1,0,0:0:0:0:
128,96,8623,1,0,0:0:0:0:
140,104,8798,1,0,0:0:0:0:
364,284,8972,1,8,0:0:0:0:
400,272,9322,1,8,0:0:0:0:
128,108,9671,1,0,0:0:0:0:
432,304,10370,1,8,0:0:0:0:
156,136,11068,1,0,0:0:0:0:
180,140,11418,1,0,0:0:0:0:
360,272,11767,1,8,0:0:0:0:
132,92,12466,1,4,0:0:0:0:
160,104,12815,1,0,0:0:0:0:
140,104,12990,1,0,0:0:0:0:
420,264,13164,5,8,0:0:0:0:
388,236,13514,1,8,0:0:0:0:
116,112,13863,1,0,0:0:0:0:
136,64,14562,1,0,0:0:0:0:
140,104,14911,1,0,0:0:0:0:
392,280,15260,1,8,0:0:0:0:
160,128,15959,1,0,0:0:0:0:
400,268,16658,1,8,0:0:0:0:
400,268,17007,1,8,0:0:0:0:
420,300,17182,1,8,0:0:0:0:
400,268,17356,1,8,0:0:0:0:
400,268,17706,1,8,0:0:0:0:
128,296,18055,1,4,0:0:0:0:
388,256,18754,1,8,0:0:0:0:
376,260,19103,1,8,0:0:0:0:
144,100,19453,1,0,0:0:0:0:
132,104,19802,1,0,0:0:0:0:
120,124,19977,1,0,0:0:0:0:
360,232,20151,1,8,0:0:0:0:
344,248,20501,1,8,0:0:0:0:
144,100,20850,1,0,0:0:0:0:
412,244,21549,1,8,0:0:0:0:
364,248,21898,1,8,0:0:0:0:
156,96,22247,1,0,0:0:0:0:
108,84,22597,1,0,0:0:0:0:
120,124,22771,1,0,0:0:0:0:
316,236,22946,1,8,0:0:0:0:
124,88,23295,1,0,0:0:0:0:
408,272,23645,1,8,0:0:0:0:
104,84,24343,1,0,0:0:0:0:
372,280,24693,1,8,0:0:0:0:
392,276,24867,1,8,0:0:0:0:
100,108,25042,1,0,0:0:0:0:
336,320,25741,1,8,0:0:0:0:
100,100,26090,1,0,0:0:0:0:
160,112,26265,1,0,0:0:0:0:
372,280,26439,1,8,0:0:0:0:
168,104,27138,1,0,0:0:0:0:
392,320,27487,1,8,0:0:0:0:
96,320,27837,2,8,L|436:60,1,419.99998998642
128,96,29234,5,4,0:0:0:0:
132,116,29584,1,0,0:0:0:0:
152,116,29933,1,0,0:0:0:0:
128,128,30633,1,0,0:0:0:0:
128,96,30982,1,0,0:0:0:0:
124,92,31156,1,0,0:0:0:0:
364,284,31331,1,8,0:0:0:0:
400,272,31681,1,8,0:0:0:0:
128,108,32030,1,0,0:0:0:0:
432,304,32729,1,8,0:0:0:0:
364,304,33078,1,8,0:0:0:0:
176,136,33427,1,0,0:0:0:0:
148,92,33776,1,0,0:0:0:0:
360,272,34126,1,8,0:0:0:0:
132,92,34825,1,4,0:0:0:0:
100,96,35173,1,0,0:0:0:0:
128,104,35348,1,0,0:0:0:0:
420,264,35522,5,8,0:0:0:0:
388,236,35873,1,8,0:0:0:0:
116,112,36222,1,0,0:0:0:0:
136,64,36921,1,0,0:0:0:0:
140,104,37270,1,0,0:0:0:0:
392,280,37619,1,8,0:0:0:0:
160,128,38318,1,0,0:0:0:0:
400,268,39017,1,8,0:0:0:0:
400,268,39366,1,8,0:0:0:0:
420,300,39541,1,8,0:0:0:0:
400,268,39715,1,8,0:0:0:0:
400,268,40065,1,8,0:0:0:0:
128,296,40414,1,4,0:0:0:0:
388,256,41113,1,8,0:0:0:0:
376,260,41462,1,8,0:0:0:0:
144,100,41812,1,0,0:0:0:0:
132,104,42161,1,0,0:0:0:0:
116,120,42335,1,0,0:0:0:0:
360,232,42510,1,8,0:0:0:0:
344,248,42860,1,8,0:0:0:0:
144,100,43209,1,0,0:0:0:0:
412,244,43908,1,8,0:0:0:0:
364,248,44257,1,8,0:0:0:0:
156,96,44606,1,0,0:0:0:0:
108,84,44956,1,0,0:0:0:0:
116,120,45129,1,0,0:0:0:0:
316,236,45305,1,8,0:0:0:0:
124,88,45654,1,0,0:0:0:0:
408,272,46004,1,8,0:0:0:0:
104,84,46702,1,0,0:0:0:0:
372,280,47052,1,8,0:0:0:0:
380,280,47225,1,8,0:0:0:0:
100,108,47401,1,0,0:0:0:0:
336,320,48100,1,8,0:0:0:0:
100,100,48449,1,0,0:0:0:0:
116,120,48623,1,0,0:0:0:0:
372,280,48798,1,8,0:0:0:0:
168,104,49497,1,0,0:0:0:0:
392,320,49846,5,8,0:0:0:0:
144,284,50195,5,4,0:0:0:0:
160,92,50864,1,0,0:0:0:0:
156,104,51533,1,0,0:0:0:0:
396,312,52203,1,8,0:0:0:0:
400,324,52538,1,8,0:0:0:0:
168,116,52872,1,0,0:0:0:0:
200,124,53542,1,0,0:0:0:0:
168,116,54211,1,0,0:0:0:0:
372,296,54881,1,8,0:0:0:0:
372,296,55215,1,8,0:0:0:0:
176,132,55550,1,0,0:0:0:0:
140,108,55885,1,0,0:0:0:0:
376,312,56220,1,8,0:0:0:0:
168,104,56889,1,0,0:0:0:0:
148,116,57224,1,0,0:0:0:0:
396,296,57559,1,8,0:0:0:0:
168,112,58228,1,0,0:0:0:0:
332,260,58897,1,8,0:0:0:0:
128,92,59567,1,0,0:0:0:0:
148,112,59902,1,0,0:0:0:0:
364,284,60236,1,8,0:0:0:0:
364,284,60571,1,8,0:0:0:0:
140,288,60906,1,4,0:0:0:0:
444,304,61575,1,8,0:0:0:0:
400,292,62245,1,8,0:0:0:0:
400,292,62579,1,8,0:0:0:0:
424,328,62747,1,8,0:0:0:0:
408,296,63249,1,8,0:0:0:0:
132,104,63584,1,0,0:0:0:0:
416,288,64253,1,8,0:0:0:0:
160,128,64923,1,0,0:0:0:0:
132,120,65257,1,0,0:0:0:0:
400,304,65425,1,0,0:0:0:0:
400,304,65927,1,8,0:0:0:0:
148,100,66261,1,0,0:0:0:0:
360,296,66931,1,8,0:0:0:0:
192,124,67600,1,0,0:0:0:0:
144,316,68102,1,4,0:0:0:0:
144,116,68605,1,0,0:0:0:0:
160,96,68939,1,0,0:0:0:0:
380,260,69609,1,8,0:0:0:0:
392,272,70278,1,8,0:0:0:0:
364,80,70780,1,12,0:0:0:0:
388,272,71282,1,8,0:0:0:0:
372,280,71617,1,8,0:0:0:0:
408,292,72287,1,8,0:0:0:0:
152,104,72956,1,0,0:0:0:0:
140,112,73291,1,0,0:0:0:0:
396,272,73625,1,8,0:0:0:0:
420,304,73960,1,8,0:0:0:0:
156,112,74295,1,0,0:0:0:0:
92,264,74964,2,0,L|348:124,1,268.239996756284
148,264,76303,5,4,0:0:0:0:
408,292,76652,1,8,0:0:0:0:
128,296,77001,5,4,0:0:0:0:
132,132,77350,1,0,0:0:0:0:
388,256,77700,1,8,0:0:0:0:
380,280,77874,1,8,0:0:0:0:
376,260,78049,1,8,0:0:0:0:
144,100,78399,1,0,0:0:0:0:
132,104,78748,1,0,0:0:0:0:
360,232,79097,1,8,0:0:0:0:
344,248,79447,1,8,0:0:0:0:
144,100,79796,1,0,0:0:0:0:
412,244,80495,1,8,0:0:0:0:
324,244,80669,1,8,0:0:0:0:
364,248,80844,1,8,0:0:0:0:
156,96,81193,1,0,0:0:0:0:
108,84,81543,1,0,0:0:0:0:
316,236,81892,1,8,0:0:0:0:
124,88,82241,1,0,0:0:0:0:
408,272,82591,1,8,0:0:0:0:
160,96,83114,1,0,0:0:0:0:
104,84,83289,1,0,0:0:0:0:
100,100,83639,1,0,0:0:0:0:
100,108,83988,1,0,0:0:0:0:
348,284,84511,1,8,0:0:0:0:
336,320,84687,1,8,0:0:0:0:
372,280,85036,1,8,0:0:0:0:
372,280,85385,1,8,0:0:0:0:
148,92,85734,1,0,0:0:0:0:
408,284,86084,1,8,0:0:0:0:
400,308,86258,1,8,0:0:0:0:
392,320,86433,5,8,0:0:0:0:
144,284,86782,5,4,0:0:0:0:
376,296,87306,1,8,0:0:0:0:
400,268,87481,5,8,0:0:0:0:
160,120,88005,1,0,0:0:0:0:
116,80,88180,1,0,0:0:0:0:
360,268,88704,1,8,0:0:0:0:
384,112,88878,1,12,0:0:0:0:
