osu file format v14

[General]
AudioFilename: audio.mp3
AudioLeadIn: 0
PreviewTime: 68223
Countdown: 0
SampleSet: Soft
StackLeniency: 0.4
Mode: 0
LetterboxInBreaks: 0
WidescreenStoryboard: 1

[Editor]
Bookmarks: 24080,113051,119908,197908,203051,276314,279742
DistanceSpacing: 0.9
BeatDivisor: 4
GridSize: 8
TimelineZoom: 2.900005

[Metadata]
Title:Yumemiru Milky Way feat. Aitsuki Nakuru
TitleUnicode:夢みるMilky Way feat. 藍月なくる
Artist:Risa Yuzuki
ArtistUnicode:Risa Yuzuki
Creator:Age17
Version:gazimal's Insane
Source:
Tags:j-pop jpop japanese Stellalude featured artist fa gazimal
BeatmapID:4002592
BeatmapSetID:1934189

[Difficulty]
HPDrainRate:5
CircleSize:4
OverallDifficulty:8
ApproachRate:9
SliderMultiplier:1.8
SliderTickRate:1

[Events]
//Background and Video events
0,0,"84771451_p0 (1)_waifu2x_art_noise3_scale.png",0,0
//Break Periods
2,113251,119308
2,198108,202280
//Storyboard Layer 0 (Background)
//Storyboard Layer 1 (Fail)
//Storyboard Layer 2 (Pass)
//Storyboard Layer 3 (Foreground)
//Storyboard Layer 4 (Overlay)
//Storyboard Sound Samples

[TimingPoints]
423,342.857142857143,4,2,1,40,1,0
423,-333.333333333333,4,2,1,40,0,0
1108,-166.666666666667,4,2,1,40,0,0
2137,-166.666666666667,4,2,1,50,0,0
3508,-166.666666666667,4,2,1,45,0,0
3851,-166.666666666667,4,2,1,40,0,0
4537,-333.333333333334,4,2,1,40,0,0
4880,-133.333333333333,4,2,1,60,0,0
5223,-83.3333333333333,4,2,1,60,0,0
6080,-133.333333333333,4,2,1,60,0,0
6594,-100,4,2,1,60,0,0
7623,-83.3333333333333,4,2,1,60,0,0
7965,-133.333333333333,4,2,1,60,0,0
8480,-100,4,2,1,60,0,0
10365,-133.333333333333,4,2,1,60,0,0
10708,-83.3333333333333,4,2,1,60,0,0
11223,-100,4,2,1,60,0,0
12594,-200,4,2,1,60,0,0
13108,-76.9230769230769,4,2,1,60,0,0
13451,-133.333333333333,4,2,1,60,0,0
13965,-100,4,2,1,60,0,0
15337,-200,4,2,1,60,0,0
15851,-76.9230769230769,4,2,1,60,0,0
16194,-133.333333333333,4,2,1,60,0,0
16708,-100,4,2,1,60,0,0
18080,-200,4,2,1,60,0,0
18594,-76.9230769230769,4,2,1,60,0,0
18937,-133.333333333333,4,2,1,60,0,0
19451,-100,4,2,1,60,0,0
19794,-133.333333333333,4,2,1,60,0,0
19965,-83.3333333333333,4,2,1,60,0,0
20651,-133.333333333333,4,2,1,60,0,0
21508,-83.3333333333333,4,2,1,60,0,0
23737,-200,4,2,1,60,0,0
25108,-100,4,2,1,50,0,0
25451,-133.333333333333,4,2,1,50,0,0
33680,-100,4,2,1,50,0,0
34023,-100,4,2,1,55,0,0
35051,-100,4,2,1,60,0,0
36080,-100,4,2,1,50,0,0
36423,-133.333333333333,4,2,1,50,0,0
44137,-100,4,2,1,55,0,0
45165,-83.3333333333333,4,2,1,55,0,0
45680,-100,4,2,1,60,0,0
46194,-133.333333333333,4,2,1,60,0,0
46880,-100,4,2,1,60,0,0
47737,-133.333333333333,4,2,1,60,0,0
48423,-100,4,2,1,60,0,0
49280,-133.333333333333,4,2,1,60,0,0
51165,-100,4,2,1,60,0,0
52023,-133.333333333333,4,2,1,60,0,0
53565,-83.3333333333333,4,2,1,60,0,0
53908,-133.333333333333,4,2,1,60,0,0
54251,-100,4,2,1,60,0,0
54594,-133.333333333333,4,2,1,60,0,0
55108,-100,4,2,1,60,0,0
55623,-133.333333333333,4,2,1,60,0,0
56651,-100,4,2,1,60,0,0
57165,-133.333333333333,4,2,1,60,0,0
59394,-83.3333333333333,4,2,1,60,0,0
59908,-133.333333333333,4,2,1,60,0,0
62137,-100,4,2,1,60,0,0
62651,-133.333333333333,4,2,1,60,0,0
64880,-333.333333333333,4,2,1,65,0,0
65223,-76.9230769230769,4,2,1,65,0,0
65565,-200,4,2,1,60,0,0
66080,-83.3333333333333,4,2,1,60,0,0
66594,-200,4,2,1,50,0,0
66937,-200,4,2,1,55,0,0
67623,-133.333333333333,4,2,1,60,0,0
68308,-133.333333333333,4,2,1,65,0,0
68994,-76.9230769230769,4,2,1,70,0,1
69337,-100,4,2,1,70,0,1
70365,-83.3333333333333,4,2,1,70,0,1
70708,-100,4,2,1,70,0,1
71737,-90.9090909090909,4,2,1,70,0,1
74480,-76.9230769230769,4,2,1,70,0,1
74823,-100,4,2,1,70,0,1
75851,-83.3333333333333,4,2,1,70,0,1
76880,-133.333333333333,4,2,1,70,0,1
77737,-71.4285714285714,4,2,1,70,0,1
78765,-133.333333333333,4,2,1,80,0,1
79108,-133.333333333333,4,2,1,80,0,0
79451,-133.333333333333,4,2,1,70,0,0
79623,-83.3333333333333,4,2,1,70,0,0
79965,-83.3333333333333,4,2,1,70,0,1
80137,-100,4,2,1,70,0,1
82194,-133.333333333333,4,2,1,70,0,1
82708,-83.3333333333333,4,2,1,70,0,1
83565,-100,4,2,1,70,0,1
88708,-83.3333333333333,4,2,1,70,0,1
90251,-133.333333333333,4,2,1,70,0,1
90937,-133.333333333333,4,2,1,70,0,0
92137,-71.4285714285714,4,2,1,70,0,0
92480,-100,4,2,1,80,0,0
93165,-100,4,2,1,70,0,0
93337,-133.333333333333,4,2,1,70,0,0
93680,-200,4,2,1,60,0,0
94023,-133.333333333333,4,2,1,60,0,0
94365,-83.3333333333333,4,2,1,60,0,0
95223,-133.333333333333,4,2,1,60,0,0
95737,-100,4,2,1,60,0,0
96765,-83.3333333333333,4,2,1,60,0,0
97108,-133.333333333333,4,2,1,60,0,0
97623,-100,4,2,1,60,0,0
99508,-133.333333333333,4,2,1,60,0,0
99851,-83.3333333333333,4,2,1,60,0,0
100365,-100,4,2,1,60,0,0
101737,-200,4,2,1,60,0,0
102251,-76.9230769230769,4,2,1,60,0,0
102594,-133.333333333333,4,2,1,60,0,0
103108,-100,4,2,1,60,0,0
104480,-200,4,2,1,60,0,0
104994,-76.9230769230769,4,2,1,60,0,0
105337,-133.333333333333,4,2,1,60,0,0
105851,-100,4,2,1,60,0,0
107223,-200,4,2,1,60,0,0
107737,-76.9230769230769,4,2,1,60,0,0
108080,-133.333333333333,4,2,1,60,0,0
108594,-100,4,2,1,60,0,0
108937,-133.333333333333,4,2,1,60,0,0
109108,-76.9230769230769,4,2,1,60,0,0
109794,-133.333333333333,4,2,1,60,0,0
110651,-83.3333333333333,4,2,1,60,0,0
112880,-83.3333333333333,4,2,1,40,0,0
119908,-125,4,2,1,40,0,0
120765,-200,4,2,1,40,0,0
121108,-83.3333333333333,4,2,1,50,0,0
122823,-133.333333333333,4,2,1,50,0,0
124194,-133.333333333333,4,2,1,60,0,0
125223,-100,4,2,1,50,0,0
125565,-133.333333333333,4,2,1,50,0,0
133108,-83.3333333333333,4,2,1,50,0,0
133280,-83.3333333333333,4,2,1,55,0,0
134823,-100,4,2,1,60,0,0
135337,-133.333333333333,4,2,1,60,0,0
136023,-100,4,2,1,60,0,0
136880,-133.333333333333,4,2,1,60,0,0
137565,-100,4,2,1,60,0,0
138080,-133.333333333333,4,2,1,60,0,0
139108,-133.333333333333,4,2,1,65,0,0
139280,-83.3333333333333,4,2,1,65,0,0
139537,-83.3333333333333,4,2,1,60,0,0
139623,-133.333333333333,4,2,1,60,0,0
140308,-100,4,2,1,60,0,0
142023,-133.333333333333,4,2,1,60,0,0
143051,-333.333333333333,4,2,1,65,0,0
143394,-76.9230769230769,4,2,1,65,0,0
143651,-76.9230769230769,4,2,1,60,0,0
143737,-200,4,2,1,60,0,0
144251,-83.3333333333333,4,2,1,60,0,0
144594,-83.3333333333333,4,2,1,45,0,0
144765,-200,4,2,1,45,0,0
145280,-200,4,2,1,55,0,0
145794,-133.333333333333,4,2,1,55,0,0
145965,-133.333333333333,4,2,1,60,0,0
146651,-133.333333333333,4,2,1,65,0,0
147165,-76.9230769230769,4,2,1,70,0,1
147508,-100,4,2,1,70,0,1
148537,-83.3333333333333,4,2,1,70,0,1
148880,-100,4,2,1,70,0,1
149908,-83.3333333333333,4,2,1,70,0,1
152651,-66.6666666666667,4,2,1,70,0,1
152994,-100,4,2,1,70,0,1
153851,-83.3333333333333,4,2,1,70,0,1
155051,-133.333333333333,4,2,1,70,0,1
155908,-71.4285714285714,4,2,1,70,0,1
156594,-71.4285714285714,4,2,1,80,0,1
156937,-100,4,2,1,80,0,1
157280,-100,4,2,1,80,0,0
157623,-100,4,2,1,70,0,0
157794,-83.3333333333333,4,2,1,70,0,0
158137,-83.3333333333333,4,2,1,70,0,1
158308,-100,4,2,1,70,0,1
160365,-133.333333333333,4,2,1,70,0,1
160880,-83.3333333333333,4,2,1,70,0,1
161394,-100,4,2,1,70,0,1
166880,-66.6666666666667,4,2,1,70,0,1
167565,-71.4285714285714,4,2,1,60,0,0
168080,-100,4,2,1,60,0,0
168937,-83.3333333333333,4,2,1,60,0,0
169623,-133.333333333333,4,2,1,60,0,0
170308,-83.3333333333333,4,2,1,60,0,0
172194,-100,4,2,1,60,0,0
173051,-83.3333333333333,4,2,1,60,0,0
173737,-100,4,2,1,60,0,0
174423,-83.3333333333333,4,2,1,60,0,0
174765,-133.333333333333,4,2,1,60,0,0
175794,-83.3333333333333,4,2,1,60,0,0
176308,-100,4,2,1,60,0,0
178023,-133.333333333333,4,2,1,60,0,0
179565,-200,4,2,1,60,0,0
181965,-133.333333333333,4,2,1,60,0,0
182308,-200,4,2,1,60,0,0
184194,-100,4,2,1,60,0,0
184708,-133.333333333333,4,2,1,60,0,0
185051,-200,4,2,1,60,0,0
186080,-133.333333333333,4,2,1,60,0,0
186423,-200,4,2,1,60,0,0
187451,-133.333333333333,4,2,1,60,0,0
188137,-100,4,2,1,60,0,0
188480,-100,4,2,1,45,0,0
188823,-100,4,2,1,50,0,0
189165,-100,4,2,1,55,0,0
189337,-100,4,2,1,60,0,0
189680,-83.3333333333333,4,2,1,65,0,0
191908,-133.333333333333,4,2,1,65,0,0
192423,-83.3333333333333,4,2,1,65,0,0
193623,-100,4,2,1,65,0,0
194480,-83.3333333333333,4,2,1,65,0,0
195680,-100,4,2,1,65,0,0
202880,-100,4,2,1,40,0,0
203051,-333.333333333333,4,2,1,50,0,0
203394,-83.3333333333333,4,2,1,50,0,0
204080,-100,4,2,1,50,0,0
206137,-333.333333333333,4,2,1,60,0,0
206480,-83.3333333333333,4,2,1,60,0,0
206823,-133.333333333333,4,2,1,60,0,0
207165,-83.3333333333333,4,2,1,60,0,0
207508,-133.333333333333,4,2,1,60,0,0
207851,-83.3333333333333,4,2,1,60,0,0
209223,-100,4,2,1,60,0,0
209565,-133.333333333333,4,2,1,60,0,0
210594,-333.333333333333,4,2,1,60,0,0
210937,-100,4,2,1,50,0,0
211280,-100,4,2,1,60,0,0
211623,-76.9230769230769,4,2,1,70,0,1
211965,-100,4,2,1,70,0,1
212994,-83.3333333333333,4,2,1,70,0,1
213337,-100,4,2,1,70,0,1
214365,-83.3333333333333,4,2,1,70,0,1
214708,-133.333333333333,4,2,1,70,0,1
214880,-83.3333333333333,4,2,1,70,0,1
215737,-100,4,2,1,70,0,1
217108,-83.3333333333333,4,2,1,70,0,1
217451,-100,4,2,1,70,0,1
218480,-83.3333333333333,4,2,1,70,0,1
218823,-100,4,2,1,70,0,1
219508,-133.333333333333,4,2,1,70,0,1
220365,-71.4285714285714,4,2,1,70,0,1
221051,-71.4285714285714,4,2,1,80,0,1
221394,-100,4,2,1,80,0,1
221737,-100,4,2,1,80,0,0
222080,-100,4,2,1,70,0,0
222251,-83.3333333333333,4,2,1,70,0,0
222594,-100,4,2,1,70,0,1
224823,-133.333333333333,4,2,1,70,0,1
225337,-83.3333333333333,4,2,1,70,0,1
225851,-100,4,2,1,70,0,1
227565,-83.3333333333333,4,2,1,70,0,1
230823,-133.333333333333,4,2,1,70,0,1
231337,-71.4285714285714,4,2,1,70,0,1
232365,-133.333333333333,4,2,1,70,0,1
233565,-71.4285714285714,4,2,1,70,0,1
234251,-133.333333333333,4,2,1,60,0,1
234937,-71.4285714285714,4,2,1,60,0,1
235623,-133.333333333333,4,2,1,60,0,1
236308,-71.4285714285714,4,2,1,60,0,1
236994,-133.333333333333,4,2,1,60,0,1
237680,-71.4285714285714,4,2,1,60,0,1
238365,-133.333333333333,4,2,1,60,0,1
239051,-71.4285714285714,4,2,1,60,0,1
239737,-133.333333333333,4,2,1,60,0,1
240423,-71.4285714285714,4,2,1,60,0,1
241108,-133.333333333333,4,2,1,60,0,1
242308,-71.4285714285714,4,2,1,60,0,1
242994,-66.6666666666667,4,2,1,70,0,1
243337,-100,4,2,1,70,0,1
243680,-100,4,2,1,70,0,0
244194,-83.3333333333333,4,2,1,70,0,0
244537,-83.3333333333333,4,2,1,70,0,1
248823,-166.666666666667,4,2,1,70,0,1
252765,-133.333333333333,4,2,1,70,0,1
253280,-71.4285714285714,4,2,1,70,0,1
253965,-66.6666666666667,4,2,1,70,0,1
254823,-83.3333333333333,4,2,1,70,0,1
255508,-83.3333333333333,4,2,1,60,0,0
256708,-62.5,4,2,1,80,0,0
257051,-100,4,2,1,80,0,0
257737,-100,4,2,1,70,0,0
258251,-200,4,2,1,60,0,0
258594,-100,4,2,1,60,0,0
258937,-76.9230769230769,4,2,1,60,0,0
259451,-100,4,2,1,60,0,0
259794,-133.333333333333,4,2,1,60,0,0
260308,-100,4,2,1,60,0,0
261337,-83.3333333333333,4,2,1,60,0,0
261680,-133.333333333333,4,2,1,60,0,0
262194,-100,4,2,1,60,0,0
264080,-133.333333333333,4,2,1,60,0,0
264423,-71.4285714285714,4,2,1,60,0,0
264937,-100,4,2,1,60,0,0
265794,-133.333333333333,4,2,1,60,0,0
266308,-200,4,2,1,60,0,0
266823,-71.4285714285714,4,2,1,60,0,0
267165,-133.333333333333,4,2,1,60,0,0
267680,-100,4,2,1,60,0,0
269051,-200,4,2,1,60,0,0
269565,-71.4285714285714,4,2,1,60,0,0
269908,-133.333333333333,4,2,1,60,0,0
270423,-100,4,2,1,60,0,0
271794,-200,4,2,1,60,0,0
272308,361.44578313253,4,2,1,60,1,0
272308,-66.6666666666667,4,2,1,60,0,0
272669,-133.333333333333,4,2,1,60,0,0
273030,387.096774193548,4,2,1,60,1,0
273223,379.746835443038,4,2,1,60,1,0
273223,-100,4,2,1,60,0,0
273792,392.156862745098,4,2,1,50,1,0
273792,-133.333333333333,4,2,1,50,0,0
274184,-153.846153846153,4,2,1,45,0,0
274576,447.761194029851,4,2,1,40,1,0
274576,-181.818181818181,4,2,1,40,0,0
275023,437.956204379562,4,2,1,40,1,0
275679,422.535211267606,4,2,1,40,1,0
275679,-133.333333333333,4,2,1,40,0,0
276314,428.571428571429,4,2,1,40,1,0
276314,-133.333333333333,4,2,1,40,0,0
277171,-133.333333333333,4,2,1,30,0,0
278028,-133.333333333333,4,2,1,20,0,0
278885,-133.333333333333,4,2,1,10,0,0
279881,342.857142857143,4,2,1,30,1,0
279881,-285.714285714284,4,2,1,30,0,0

[Colours]
Combo1 : 255,128,255
Combo2 : 23,139,255
Combo3 : 128,255,255
Combo4 : 128,128,255

[HitObjects]
83,265,423,6,0,L|76:233,2,26.9999991760254,2|2|2,0:2|0:2|0:2,0:0:0:0:
4,278,937,1,2,0:2:0:0:
144,359,1108,2,0,L|157:296,2,53.9999983520508,2|2|2,0:2|0:2|0:2,0:0:0:0:
226,348,1623,1,2,0:2:0:0:
57,375,1794,6,0,L|62:348,2,26.9999991760254,2|2|2,0:2|0:2|2:2,0:0:0:0:
162,223,2137,5,0,3:0:0:0:
162,223,2823,2,0,L|135:217,3,26.9999991760254,2|2|2|2,0:2|0:2|0:2|0:2,0:0:0:0:
93,152,3165,1,0,1:0:0:0:
74,139,3251,1,0,1:0:0:0:
51,143,3337,1,0,1:0:0:0:
33,157,3423,1,0,1:0:0:0:
28,176,3508,22,0,L|22:149,3,26.9999991760254,8|8|8|8,2:3|2:3|2:3|2:3,0:0:0:0:
43,62,3851,2,0,L|48:35,3,26.9999991760254,4|4|4|4,2:3|2:3|2:3|2:3,0:0:0:0:
124,2,4194,1,4,2:3:0:0:
175,86,4365,5,0,1:3:0:0:
175,86,4451,1,0,1:3:0:0:
175,86,4537,2,0,L|128:76,1,40.4999987640381,4|0,1:1|0:0,0:0:0:0:
255,37,4880,6,0,L|354:15,1,101.250003862381,4|0,3:2|0:0,0:0:0:0:
432,64,5223,22,0,B|466:115|406:155|403:153|400:151|319:144|325:218,1,215.999993408203,6|0,3:2|1:2,0:0:0:0:
329,379,5737,2,0,P|293:338|243:320,1,107.999996704102,6|0,3:2|0:0,0:0:0:0:
391,290,6080,2,0,P|412:264|443:253,2,67.5000025749208,2|10|2,0:2|2:2|2:2,0:0:0:0:
148,380,6594,2,0,L|166:291,1,90,2|2,3:2|2:3,0:0:0:0:
15,125,6937,1,10,2:2:0:0:
196,196,7108,6,0,B|145:146|83:163|83:163|65:192|22:207,1,180,2|0,3:2|0:0,0:0:0:0:
255,264,7623,2,0,L|413:230,1,161.999995056153,8|2,2:2|2:3,0:0:0:0:
482,302,7965,2,0,L|394:321,2,67.5000025749208,0|2|8,3:2|2:3|3:2,0:0:0:0:
405,146,8480,5,2,0:0:0:0:
405,146,8565,1,2,2:3:0:0:
405,146,8651,2,0,P|429:109|472:102,1,90,0|2,3:0|2:3,0:0:0:0:
277,109,8994,2,0,P|252:72|209:65,1,90,2|0,1:2|1:0,0:0:0:0:
210,66,9251,1,0,1:0:0:0:
210,66,9337,1,2,1:1:0:0:
165,160,9508,1,10,2:2:0:0:
61,152,9680,1,10,2:2:0:0:
21,68,9851,22,0,L|29:18,1,45,10|0,2:2|0:0,0:0:0:0:
100,250,10194,5,2,2:3:0:0:
100,250,10280,1,2,2:2:0:0:
100,250,10365,2,0,B|83:289|50:295|50:295|72:277|69:257,1,101.250003862381,10|0,2:2|0:0,0:0:0:0:
165,160,10708,6,0,B|238:131|271:195|271:195|284:253|362:259,1,215.999993408203,6|8,3:2|2:2,0:0:0:0:
445,156,11223,2,0,L|356:174,1,90,2|0,0:0|0:0,0:0:0:0:
462,276,11565,21,2,1:2:0:0:
465,265,11651,1,0,1:2:0:0:
460,254,11737,1,10,0:2:0:0:
451,245,11823,1,0,1:3:0:0:
439,241,11908,1,2,1:2:0:0:
426,242,11994,1,0,1:2:0:0:
419,249,12080,6,0,L|407:303,3,45,10|0|0|0,2:3|1:2|1:2|1:2,0:0:0:0:
390,382,12423,1,4,1:3:0:0:
332,254,12594,6,0,P|288:257|265:293,1,90,4|0,1:1|0:0,0:0:0:0:
185,384,13108,22,0,P|154:302|89:245,1,175.499991966248,12|0,2:2|0:0,0:0:0:0:
60,168,13451,2,0,P|26:188|-1:195,2,67.5000025749208,2|2|10,3:2|2:1|2:2,0:0:0:0:
178,81,13965,2,0,P|140:56|97:46,1,90,2|0,2:1|3:2,0:0:0:0:
183,205,14308,5,2,2:1:0:0:
183,205,14480,1,8,2:2:0:0:
293,117,14651,5,2,2:1:0:0:
293,117,14823,1,0,3:2:0:0:
403,205,14994,21,2,2:1:0:0:
403,205,15165,2,0,L|412:160,1,45,8|0,2:2|0:0,0:0:0:0:
431,52,15337,6,0,P|448:86|501:99,1,90,6|2,3:2|2:1,0:0:0:0:
325,8,15851,6,0,P|242:35|183:99,1,175.499991966248,10|0,2:2|0:0,0:0:0:0:
122,165,16194,2,0,P|100:140|68:122,2,67.5000025749208,2|2|10,3:2|2:1|2:2,0:0:0:0:
213,249,16708,2,0,P|176:275|128:291,1,90,2|0,2:1|3:2,0:0:0:0:
282,159,17051,21,2,2:1:0:0:
282,159,17223,1,8,2:2:0:0:
440,246,17394,5,2,2:1:0:0:
440,246,17565,2,0,L|430:292,3,45,0|0|2|0,3:2|1:2|2:1|1:2,0:0:0:0:
387,370,17908,5,8,2:2:0:0:
387,370,17994,1,8,2:2:0:0:
387,370,18080,2,0,P|355:340|298:338,1,90,6|2,3:2|2:1,0:0:0:0:
232,221,18594,22,0,P|175:289|90:316,1,175.499991966248,10|0,2:2|0:0,0:0:0:0:
13,297,18937,2,0,L|29:375,2,67.5000025749208,2|2|10,3:2|2:1|2:2,0:0:0:0:
51,186,19451,6,0,B|3:175|-4:124|-4:124|16:157|41:160,1,135,2|0,2:1|0:0,0:0:0:0:
27,156,19794,2,0,P|14:173|-13:190,1,33.7500012874604,2|0,2:1|0:0,0:0:0:0:
70,89,19965,2,0,B|186:64|186:64|201:85|224:91,1,161.999995056153,10|0,2:2|0:0,0:0:0:0:
251,21,20308,1,2,3:2:0:0:
164,149,20480,1,2,0:0:0:0:
313,157,20651,2,0,L|294:70,1,67.5000025749208,2|0,1:1|0:0,0:0:0:0:
435,0,20994,5,10,3:2:0:0:
429,24,21080,1,0,1:0:0:0:
424,49,21165,1,2,1:2:0:0:
419,74,21251,1,0,1:2:0:0:
413,99,21337,1,10,2:2:0:0:
447,178,21508,22,0,B|487:174|518:207|518:207|496:167|512:126,1,161.999995056153,6|0,3:2|0:0,0:0:0:0:
413,99,21851,2,0,P|385:110|366:138,1,53.9999983520508,0|0,3:2|1:2,0:0:0:0:
362,221,22023,1,14,2:2:0:0:
362,221,22537,5,2,3:2:0:0:
360,253,22708,1,2,3:2:0:0:
324,289,22880,1,2,3:2:0:0:
243,295,23051,1,2,1:2:0:0:
189,228,23223,1,2,1:2:0:0:
127,162,23394,1,10,1:2:0:0:
38,181,23565,1,10,1:2:0:0:
5,272,23737,6,0,P|22:284|33:298,2,22.5,2|2|2,2:3|2:3|2:3,0:0:0:0:
94,366,24080,21,6,3:2:0:0:
277,218,24423,5,10,3:2:0:0:
94,366,24765,5,10,3:2:0:0:
277,218,25108,22,0,L|253:327,1,90,6|2,3:2|0:2,0:0:0:0:
395,372,25451,2,0,P|368:347|328:346,2,67.5000025749208,2|2|2,1:2|0:2|3:2,0:0:0:0:
399,376,26137,5,2,1:2:0:0:
399,376,26308,1,2,0:2:0:0:
493,254,26480,6,0,P|470:278|440:293,1,67.5000025749208,2|0,3:2|3:2,0:0:0:0:
277,218,26823,1,2,1:2:0:0:
377,170,26994,2,0,L|362:236,1,67.5000025749208,2|0,0:2|3:2,0:0:0:0:
304,125,27337,1,2,0:2:0:0:
304,125,27508,1,2,1:2:0:0:
486,133,27680,2,0,L|471:66,1,67.5000025749208,2|0,0:2|3:2,0:0:0:0:
387,88,28023,21,2,3:2:0:0:
256,18,28195,2,0,P|287:25|322:32,1,67.5000025749208,0|0,1:2|0:0,0:0:0:0:
136,198,28537,2,0,P|109:177|105:145,1,67.5000025749208,2|0,3:2|3:2,0:0:0:0:
220,154,28880,2,0,P|215:121|189:101,1,67.5000025749208,2|0,1:2|1:2,0:0:0:0:
109,56,29137,5,0,1:2:0:0:
109,56,29223,2,0,L|42:70,1,67.5000025749208,0|0,3:2|0:0,0:0:0:0:
2,331,29565,6,0,P|42:289|129:288,2,135.000005149842,2|2|2,1:2|3:2|1:2,0:0:0:0:
221,374,30594,2,0,P|214:339|206:307,2,67.5000025749208,2|0|2,3:2|3:2|1:2,0:0:0:0:
132,364,31108,1,2,0:2:0:0:
304,356,31280,2,0,P|296:323|289:290,1,67.5000025749208,2|0,3:2|3:2,0:0:0:0:
371,205,31623,2,0,P|387:233|417:248,1,67.5000025749208,2|2,1:2|1:2,0:0:0:0:
512,157,31965,22,0,L|445:171,1,67.5000025749208,2|0,3:2|0:0,0:0:0:0:
378,36,32308,1,2,1:2:0:0:
316,104,32480,2,0,L|382:118,1,67.5000025749208,2|0,0:2|3:2,0:0:0:0:
279,17,32823,2,0,P|248:29|229:56,1,67.5000025749208,2|0,0:2|1:2,0:0:0:0:
206,193,33165,2,0,P|186:165|155:153,1,67.5000025749208,2|0,0:2|3:2,0:0:0:0:
0,173,33508,1,2,3:2:0:0:
51,23,33680,6,0,L|72:124,1,90,8|2,0:2|1:2,0:0:0:0:
69,111,33937,1,0,1:2:0:0:
69,111,34023,5,10,3:2:0:0:
151,64,34194,1,2,3:2:0:0:
82,220,34365,21,2,3:2:0:0:
0,173,34536,1,2,3:2:0:0:
156,153,34708,5,2,3:2:0:0:
156,153,35051,5,10,3:2:0:0:
78,374,35394,21,10,3:2:0:0:
156,153,35737,5,10,3:2:0:0:
78,374,36080,6,0,L|171:354,1,90,6|0,3:2|0:0,0:0:0:0:
286,295,36423,2,0,L|271:361,2,67.5000025749208,2|2|2,1:2|3:2|3:2,0:0:0:0:
290,298,37108,21,2,1:2:0:0:
290,298,37280,1,2,0:2:0:0:
381,260,37451,6,0,B|377:235|350:231|350:231|366:245|368:258,1,67.5000025749208,2|0,3:2|0:0,0:0:0:0:
492,375,37794,1,2,1:2:0:0:
417,349,37965,2,0,P|433:319|461:301,1,67.5000025749208,2|0,0:2|3:2,0:0:0:0:
512,190,38308,2,0,L|445:175,1,67.5000025749208,2|0,0:2|1:2,0:0:0:0:
317,125,38651,2,0,L|383:110,1,67.5000025749208,2|0,0:2|3:2,0:0:0:0:
262,205,38994,5,2,3:2:0:0:
215,123,39165,2,0,P|166:77|101:62,2,135.000005149842,2|0|0,1:2|3:2|1:2,0:0:0:0:
270,212,40023,21,0,1:2:0:0:
270,212,40108,1,0,1:2:0:0:
270,212,40194,2,0,P|242:233|191:240,1,67.5000025749208,2|0,3:2|0:0,0:0:0:0:
44,192,40537,1,2,1:2:0:0:
113,290,40708,2,0,L|127:223,1,67.5000025749208,2|0,0:2|3:2,0:0:0:0:
17,318,41051,2,0,L|31:384,1,67.5000025749208,2|0,0:2|1:2,0:0:0:0:
172,377,41394,6,0,P|199:356|232:348,1,67.5000025749208,2|0,0:2|3:2,0:0:0:0:
433,363,41737,1,2,3:2:0:0:
349,375,41908,2,0,L|367:288,1,67.5000025749208,2|0,1:2|0:0,0:0:0:0:
270,212,42251,2,0,L|288:299,1,67.5000025749208,2|2,3:2|3:2,0:0:0:0:
195,267,42594,1,0,1:1:0:0:
345,161,42765,5,2,1:2:0:0:
345,161,42851,1,0,1:2:0:0:
345,161,42937,2,0,P|320:138|288:128,1,67.5000025749208,0|2,3:2|0:2,0:0:0:0:
135,161,43280,2,0,P|192:139|224:64,1,135.000005149842,2|2,1:2|3:2,0:0:0:0:
0,72,43794,1,2,0:2:0:0:
67,0,43965,21,10,2:2:0:0:
67,0,44051,1,8,2:2:0:0:
67,0,44137,2,0,B|88:97|88:97|64:116|59:140,1,135,10|0,3:2|0:0,0:0:0:0:
58,198,44480,5,10,3:2:0:0:
239,259,44651,1,10,3:2:0:0:
239,259,44994,5,10,3:2:0:0:
73,371,45165,2,0,P|29:313|128:321,1,215.999993408203,14|0,3:2|1:2,0:0:0:0:
158,384,45594,21,0,1:2:0:0:
158,384,45680,2,0,P|237:355|347:342,1,180,14|10,3:2|2:2,0:0:0:0:
475,312,46194,2,0,P|453:338|436:367,1,67.5000025749208,2|0,3:2|0:0,0:0:0:0:
376,244,46537,2,0,P|358:215|337:188,1,67.5000025749208,2|8,0:2|2:2,0:0:0:0:
333,48,46880,6,0,B|379:13|435:49|435:49|448:86|497:94,1,180,2|2,3:2|0:2,0:0:0:0:
274,137,47394,2,0,B|244:121|256:85|256:85|268:104|283:111,1,90,10|0,2:2|3:2,0:0:0:0:
256,220,47737,2,0,P|223:228|200:251,2,67.5000025749208,2|2|10,0:2|0:2|2:2,0:0:0:0:
268,306,48251,1,2,0:2:0:0:
151,382,48423,6,0,L|122:249,1,135,2|0,3:2|0:0,0:0:0:0:
107,178,48765,1,10,2:2:0:0:
41,322,48937,2,0,B|10:313|10:275|10:275|21:296|40:302,1,90,2|0,3:2|0:0,0:0:0:0:
200,251,49280,2,0,P|223:228|256:220,1,67.5000025749208,2|8,0:2|2:2,0:0:0:0:
412,191,49623,2,0,L|397:261,1,67.5000025749208,2|0,3:2|0:0,0:0:0:0:
489,237,49965,21,2,0:2:0:0:
320,151,50137,2,0,L|305:80,1,67.5000025749208,10|0,2:2|3:2,0:0:0:0:
457,97,50480,2,0,P|424:90|399:68,2,67.5000025749208,2|2|10,0:2|0:2|2:2,0:0:0:0:
464,18,50994,1,2,0:2:0:0:
320,151,51165,6,0,P|248:162|198:206,1,135,2|0,3:2|0:0,0:0:0:0:
153,262,51508,1,10,2:2:0:0:
52,124,51680,2,0,B|40:92|3:90|3:90|23:104|25:123,1,90,2|0,3:2|0:0,0:0:0:0:
124,186,52023,2,0,L|142:99,1,67.5000025749208,2|8,0:2|2:2,0:0:0:0:
242,0,52365,2,0,L|260:86,1,67.5000025749208,2|0,3:2|0:0,0:0:0:0:
399,205,52708,5,2,0:2:0:0:
320,151,52880,2,0,L|301:237,1,67.5000025749208,10|0,2:2|3:2,0:0:0:0:
349,372,53223,1,2,0:2:0:0:
398,302,53394,1,2,3:2:0:0:
398,302,53480,1,0,3:2:0:0:
398,302,53565,2,0,B|350:275|299:306|299:306|286:339|246:348,1,161.999995056153,14|0,3:2|0:0,0:0:0:0:
194,384,53908,22,0,P|170:359|140:344,1,67.5000025749208,2|0,3:2|0:0,0:0:0:0:
13,284,54251,2,0,L|101:265,1,90,8|0,2:2|0:0,0:0:0:0:
230,204,54594,2,0,L|215:270,2,67.5000025749208,2|2|10,3:2|3:2|2:2,0:0:0:0:
93,45,55108,6,0,P|18:30|34:105,1,180,2|0,3:2|3:2,0:0:0:0:
155,164,55623,2,0,P|176:137|206:123,1,67.5000025749208,8|0,2:2|0:0,0:0:0:0:
350,165,55965,2,0,P|316:160|289:140,1,67.5000025749208,0|2,3:2|2:1,0:0:0:0:
455,34,56308,5,10,2:2:0:0:
467,28,56394,1,2,1:3:0:0:
481,28,56480,1,10,2:3:0:0:
492,35,56565,1,6,2:3:0:0:
497,47,56651,22,0,L|468:179,1,135,14|0,3:2|0:0,0:0:0:0:
451,253,56994,1,10,2:2:0:0:
350,117,57165,2,0,P|316:121|289:141,1,67.5000025749208,2|0,0:2|3:2,0:0:0:0:
383,205,57508,2,0,P|355:224|322:228,1,67.5000025749208,2|8,0:2|2:2,0:0:0:0:
135,215,57851,5,2,0:2:0:0:
135,215,57937,1,8,2:2:0:0:
135,215,58023,1,0,3:2:0:0:
217,273,58194,2,0,L|233:194,1,67.5000025749208,2|10,0:2|2:2,0:0:0:0:
307,328,58537,1,2,0:2:0:0:
307,328,58708,1,2,3:2:0:0:
124,309,58880,2,0,L|142:395,2,67.5000025749208,2|10|2,0:2|2:2|0:2,0:0:0:0:
31,257,59308,5,8,2:2:0:0:
31,257,59394,2,0,L|67:84,1,161.999995056153,6|0,3:2|0:0,0:0:0:0:
80,23,59737,1,10,2:2:0:0:
202,134,59908,2,0,P|169:136|144:114,1,67.5000025749208,2|0,0:2|3:2,0:0:0:0:
233,42,60251,2,0,P|208:20|175:22,1,67.5000025749208,2|8,0:2|2:2,0:0:0:0:
299,121,60594,21,2,0:2:0:0:
299,121,60680,1,8,2:2:0:0:
299,121,60765,1,0,3:2:0:0:
411,31,60937,2,0,L|388:125,1,67.5000025749208,2|10,0:2|2:2,0:0:0:0:
350,255,61280,1,2,0:2:0:0:
446,256,61451,1,2,3:2:0:0:
373,174,61623,1,2,0:2:0:0:
261,207,61794,2,0,L|270:253,1,33.7500012874604,6|0,2:1|0:0,0:0:0:0:
208,349,61965,5,2,0:2:0:0:
208,349,62051,1,8,2:2:0:0:
208,349,62137,2,0,L|179:216,1,135,6|0,3:2|0:0,0:0:0:0:
167,145,62480,1,10,2:2:0:0:
99,285,62651,2,0,P|71:266|37:260,1,67.5000025749208,2|0,0:2|3:2,0:0:0:0:
269,324,62994,2,0,P|241:342|207:348,1,67.5000025749208,2|8,0:2|2:2,0:0:0:0:
379,254,63337,5,2,0:2:0:0:
379,254,63423,1,8,2:2:0:0:
379,254,63508,2,0,P|412:259|440:278,1,67.5000025749208,0|2,3:2|1:2,0:0:0:0:
375,370,63851,22,0,L|383:330,3,33.7500012874604,10|0|0|0,2:2|1:2|1:2|1:2,0:0:0:0:
288,238,64194,2,0,L|279:198,3,33.7500012874604,8|8|8|8,2:3|2:3|2:3|2:3,0:0:0:0:
400,137,64537,5,4,2:3:0:0:
401,128,64622,1,4,2:3:0:0:
403,120,64708,1,4,2:3:0:0:
405,112,64794,1,4,2:3:0:0:
407,104,64880,6,0,L|453:113,1,40.4999987640381,14|0,3:2|0:0,0:0:0:0:
368,29,65223,22,0,L|253:53,1,116.999994644165,14|0,3:2|0:0,0:0:0:0:
172,69,65480,1,0,1:0:0:0:
172,69,65565,2,0,L|178:37,3,22.5,2|2|2|2,3:2|2:3|3:2|2:3,0:0:0:0:
107,0,65908,2,0,L|102:22,1,22.5,10|0,2:2|0:0,0:0:0:0:
34,112,66080,6,0,B|4:150|31:188|76:189|78:186|80:182|117:166|162:194|137:248,1,215.999993408203,6|0,3:2|0:0,0:0:0:0:
33,367,66594,2,0,P|28:345|23:320,1,45,0|0,3:2|3:2,0:0:0:0:
143,248,66937,5,0,1:2:0:0:
143,248,67108,1,0,1:2:0:0:
248,355,67280,21,0,1:2:0:0:
248,355,67451,1,0,1:2:0:0:
106,339,67623,6,0,L|184:322,1,67.5000025749208,0|0,1:2|1:2,0:0:0:0:
304,259,67965,2,0,L|225:242,1,67.5000025749208,0|0,1:2|1:2,0:0:0:0:
26,189,68308,5,8,1:2:0:0:
205,118,68480,1,8,1:2:0:0:
143,248,68651,1,8,1:2:0:0:
64,60,68823,21,8,1:2:0:0:
64,60,68908,1,8,1:2:0:0:
64,60,68994,2,0,B|124:25|172:76|172:76|179:120|230:123,1,175.499991966248,14|0,3:2|0:0,0:0:0:0:
251,56,69337,2,0,P|290:34|332:18,1,90,14|2,2:2|0:2,0:0:0:0:
143,248,69680,2,0,P|182:226|224:210,1,90,10|0,2:2|3:2,0:0:0:0:
441,202,70023,1,10,2:2:0:0:
441,202,70108,1,2,2:3:0:0:
441,202,70194,1,2,3:2:0:0:
365,96,70365,6,0,L|331:254,1,161.999995056153,10|0,2:2|0:0,0:0:0:0:
306,346,70708,2,0,P|272:316|229:306,1,90,10|2,2:2|3:2,0:0:0:0:
229,306,70965,1,0,3:2:0:0:
229,306,71051,1,10,2:2:0:0:
331,254,71223,1,2,3:2:0:0:
144,171,71394,1,10,2:2:0:0:
365,96,71565,1,2,3:2:0:0:
207,0,71737,6,0,L|237:145,1,148.50000453186,10|0,2:2|0:0,0:0:0:0:
258,217,72080,1,10,2:2:0:0:
53,141,72251,2,0,B|59:108|103:99|103:99|81:115|74:135,1,99.0000030212403,2|8,0:2|2:2,0:0:0:0:
75,285,72594,2,0,P|46:245|7:216,1,99.0000030212403,2|8,3:2|2:2,0:0:0:0:
258,217,72937,1,2,3:2:0:0:
150,384,73108,22,0,L|173:274,1,99.0000030212403,10|0,2:2|0:0,0:0:0:0:
357,258,73451,2,0,B|342:287|304:286|304:286|324:274|329:251,1,99.0000030212403,8|0,2:2|0:0,0:0:0:0:
326,259,73708,1,0,3:2:0:0:
326,259,73794,1,10,2:2:0:0:
382,373,73965,1,2,3:2:0:0:
454,188,74137,1,10,2:2:0:0:
498,296,74308,5,2,3:2:0:0:
498,296,74394,1,2,2:3:0:0:
498,296,74480,2,0,L|326:259,1,175.499991966248,14|0,2:2|0:0,0:0:0:0:
258,217,74823,2,0,L|169:235,1,90,10|2,2:2|0:2,0:0:0:0:
169,235,75080,1,0,3:2:0:0:
169,235,75165,1,8,2:2:0:0:
21,321,75337,1,2,3:2:0:0:
207,356,75508,1,10,2:2:0:0:
77,241,75680,5,2,3:2:0:0:
77,241,75765,1,2,2:3:0:0:
77,241,75851,2,0,B|57:192|104:161|104:161|157:157|176:116,1,161.999995056153,8|0,2:2|0:0,0:0:0:0:
106,80,76194,2,0,B|95:44|54:34|54:34|74:58|72:71,1,107.999996704102,10|2,2:2|3:2,0:0:0:0:
249,145,76538,21,10,2:2:0:0:
243,118,76623,1,8,2:2:0:0:
237,92,76709,1,10,2:2:0:0:
232,65,76795,1,8,2:2:0:0:
226,39,76880,2,0,L|259:46,3,33.7500012874604,10|8|8|8,2:3|2:3|2:3|2:3,0:0:0:0:
332,99,77223,6,0,L|365:91,1,33.7500012874604,14|0,3:2|0:0,0:0:0:0:
477,72,77394,2,0,L|485:32,2,33.7500012874604,0|0|10,1:2|1:2|2:2,0:0:0:0:
434,171,77737,6,0,B|374:212|402:285|402:285|419:252|452:249,1,188.999994232178,2|0,3:1|0:0,0:0:0:0:
478,326,78080,2,0,P|398:277|304:272,1,188.999994232178,2|0,3:1|0:0,0:0:0:0:
227,276,78423,22,0,P|183:210|268:225,1,188.999994232178,14|0,3:2|0:0,0:0:0:0:
268,351,78765,2,0,P|248:360|232:375,1,33.7500012874604,10|0,3:2|0:0,0:0:0:0:
154,366,78937,2,0,P|156:344|151:322,1,33.7500012874604,10|0,3:2|0:0,0:0:0:0:
227,276,79108,5,10,3:2:0:0:
235,284,79451,1,10,2:2:0:0:
235,284,79537,1,2,2:3:0:0:
235,284,79623,2,0,B|219:277|205:263|205:263|68:292,1,161.999995056153,10|0,0:2|0:0,0:0:0:0:
7,307,79965,5,10,2:2:0:0:
99,205,80137,2,0,P|76:168|35:152,1,90,2|14,2:1|0:2,0:0:0:0:
213,128,80480,1,2,2:1:0:0:
195,40,80651,2,0,P|153:56|130:93,1,90,2|2,3:2|2:1,0:0:0:0:
294,154,80994,1,10,2:2:0:0:
366,0,81165,1,2,2:1:0:0:
407,86,81337,22,0,L|274:57,1,135,10|0,2:2|0:0,0:0:0:0:
195,40,81680,2,0,L|213:128,1,90,10|2,0:2|2:1,0:0:0:0:
45,185,82023,1,2,3:2:0:0:
122,239,82194,2,0,L|136:172,2,67.5000025749208,2|10|2,2:1|2:2|2:1,0:0:0:0:
291,333,82708,6,0,B|254:280|191:286|191:286|175:310|151:317,1,161.999995056153,10|0,2:2|0:0,0:0:0:0:
78,311,83051,1,10,0:2:0:0:
239,157,83223,2,0,B|233:120|192:115|192:115|212:132|215:148,1,107.999996704102,2|0,2:1|3:2,0:0:0:0:
326,241,83565,2,0,P|360:213|404:201,1,90,2|8,2:1|2:2,0:0:0:0:
476,350,83908,2,0,P|434:333|403:301,1,90,2|8,2:1|2:2,0:0:0:0:
512,163,84251,6,0,L|493:251,2,90,2|8|2,2:1|0:2|2:1,0:0:0:0:
389,13,84765,1,0,3:2:0:0:
412,92,84937,2,0,P|452:76|469:35,1,90,2|8,2:1|2:2,0:0:0:0:
333,75,85280,21,2,2:1:0:0:
333,75,85365,1,0,1:0:0:0:
333,75,85451,1,8,2:2:0:0:
281,137,85623,5,2,2:1:0:0:
196,139,85794,1,10,0:2:0:0:
143,78,85965,1,2,2:1:0:0:
106,155,86137,5,2,3:2:0:0:
81,21,86308,1,2,2:1:0:0:
7,62,86479,1,10,2:2:0:0:
23,145,86651,1,2,2:1:0:0:
143,78,86823,21,10,2:2:0:0:
81,21,86994,1,2,2:1:0:0:
23,145,87165,5,10,0:2:0:0:
7,62,87337,1,2,2:1:0:0:
109,159,87508,5,2,3:2:0:0:
109,159,87680,1,2,2:1:0:0:
213,26,87851,21,10,2:2:0:0:
229,10,87936,1,0,1:0:0:0:
253,11,88022,1,2,1:1:0:0:
268,28,88108,1,0,1:0:0:0:
268,52,88194,6,0,L|256:106,3,45,14|0|0|0,2:3|0:0|1:2|1:2,0:0:0:0:
331,155,88537,2,0,L|340:111,1,45,10|0,2:2|0:0,0:0:0:0:
396,215,88708,6,0,B|368:268|299:248|299:248|283:221|260:216,1,161.999995056153,2|0,3:1|0:0,0:0:0:0:
181,247,89051,2,0,B|192:288|168:328|168:328|191:288|238:285,1,161.999995056153,2|0,3:1|0:0,0:0:0:0:
331,155,89394,22,0,L|375:366,1,215.999993408203,14|2,3:2|2:1,0:0:0:0:
199,163,89908,5,10,0:2:0:0:
162,130,89994,1,2,2:3:0:0:
116,131,90080,1,2,2:1:0:0:
86,148,90165,1,2,2:3:0:0:
74,170,90251,2,0,L|66:136,3,33.7500012874604,2|2|2|2,3:2|2:3|2:1|2:3,0:0:0:0:
0,84,90594,2,0,L|25:61,3,33.7500012874604,10|2|2|2,0:2|2:3|2:3|2:3,0:0:0:0:
107,6,90937,5,2,2:3:0:0:
107,6,92137,22,0,B|136:144|136:144|109:168|99:194,1,188.999994232178,14|0,2:2|0:0,0:0:0:0:
25,157,92480,2,0,P|35:135|57:117,1,45,10|0,3:2|0:0,0:0:0:0:
197,51,92651,2,0,P|221:48|247:59,1,45,10|0,3:2|0:0,0:0:0:0:
374,146,92823,5,10,3:2:0:0:
374,146,93165,6,0,L|380:114,2,30,8|0|0,0:2|1:2|1:2,0:0:0:0:
445,194,93337,22,0,L|452:160,3,33.7500012874604,8|4|4|4,2:3|2:3|2:3|2:3,0:0:0:0:
371,231,93680,6,0,L|380:275,1,45,6|2,3:3|2:3,0:0:0:0:
357,346,93937,5,2,2:3:0:0:
357,346,94023,2,0,B|370:387|410:379|410:379|394:371|385:358,1,101.250003862381,4|0,3:2|0:0,0:0:0:0:
450,309,94365,22,0,L|238:353,1,215.999993408203,6|0,3:2|1:2,0:0:0:0:
77,375,94880,2,0,P|123:348|147:301,1,107.999996704102,6|0,3:2|0:0,0:0:0:0:
41,175,95223,2,0,P|62:201|97:212,2,67.5000025749208,2|10|2,0:2|2:2|2:2,0:0:0:0:
208,106,95737,2,0,L|119:124,1,90,2|2,3:2|2:3,0:0:0:0:
140,21,96080,1,10,2:2:0:0:
289,161,96251,6,0,B|321:107|396:109|396:109|409:137|441:147,1,180,2|0,3:2|0:0,0:0:0:0:
259,294,96765,2,0,B|203:270|212:204|212:204|227:235|261:243,1,161.999995056153,8|2,2:2|2:3,0:0:0:0:
339,316,97108,2,0,P|315:356|287:373,2,67.5000025749208,0|2|8,3:2|2:3|3:2,0:0:0:0:
297,168,97623,5,2,0:0:0:0:
297,168,97708,1,2,2:3:0:0:
297,168,97794,2,0,P|271:146|249:95,1,90,0|2,3:0|2:3,0:0:0:0:
74,9,98137,2,0,P|58:50|26:81,1,90,2|0,1:2|1:0,0:0:0:0:
26,81,98394,1,0,1:0:0:0:
26,81,98480,1,2,1:1:0:0:
128,120,98651,1,10,2:2:0:0:
156,209,98823,1,10,2:2:0:0:
85,281,98994,22,0,L|38:271,1,45,10|0,2:2|0:0,0:0:0:0:
279,319,99337,5,2,2:3:0:0:
279,319,99423,1,2,0:0:0:0:
279,319,99508,2,0,B|291:283|335:291|335:291|310:299|296:325,1,101.250003862381,10|0,2:2|0:0,0:0:0:0:
359,370,99851,6,0,B|277:320|288:238|288:238|315:218|326:192,1,215.999993408203,6|8,3:2|2:2,0:0:0:0:
402,42,100365,2,0,L|490:60,1,90,2|0,2:2|0:0,0:0:0:0:
250,163,100708,21,2,1:2:0:0:
237,154,100794,1,0,1:2:0:0:
232,140,100880,1,10,0:2:0:0:
236,124,100965,1,0,1:0:0:0:
246,112,101051,1,2,1:2:0:0:
262,108,101137,1,0,1:2:0:0:
278,110,101223,6,0,P|253:103|234:88,3,45,10|0|0|0,2:3|1:2|1:2|1:2,0:0:0:0:
179,10,101565,1,4,1:3:0:0:
60,123,101737,6,0,P|89:95|143:94,1,90,4|0,1:1|0:0,0:0:0:0:
250,163,102251,22,0,L|208:358,1,175.499991966248,12|0,2:2|0:0,0:0:0:0:
122,361,102594,2,0,L|138:282,2,67.5000025749208,2|2|10,3:2|2:1|2:2,0:0:0:0:
310,382,103108,2,0,P|338:348|381:336,1,90,2|0,2:1|3:2,0:0:0:0:
496,344,103451,5,2,2:1:0:0:
496,344,103623,1,8,2:2:0:0:
353,241,103794,5,2,2:1:0:0:
353,241,103965,1,0,3:2:0:0:
512,174,104137,21,2,2:1:0:0:
512,174,104308,2,0,L|502:129,1,45,8|0,2:2|0:0,0:0:0:0:
480,17,104480,6,0,P|454:50|399:54,1,90,6|2,3:2|2:1,0:0:0:0:
221,130,104994,6,0,B|265:79|334:90|334:90|349:125|388:132,1,175.499991966248,10|0,2:2|0:0,0:0:0:0:
347,206,105337,2,0,P|313:193|289:167,2,67.5000025749208,2|2|10,3:2|2:1|2:2,0:0:0:0:
481,285,105851,2,0,P|437:293|404:323,1,90,2|0,2:1|3:2,0:0:0:0:
269,384,106194,21,2,2:1:0:0:
269,384,106365,1,8,2:2:0:0:
141,298,106537,5,2,2:1:0:0:
141,298,106708,2,0,L|131:342,3,45,0|0|2|0,3:2|1:2|2:1|1:2,0:0:0:0:
37,368,107051,5,8,2:2:0:0:
37,368,107137,1,8,2:2:0:0:
37,368,107223,2,0,L|56:274,1,90,6|2,3:2|2:1,0:0:0:0:
80,96,107737,22,0,P|25:60|18:140,1,175.499991966248,10|0,2:2|0:0,0:0:0:0:
88,175,108080,2,0,P|114:195|134:223,2,67.5000025749208,2|2|10,3:2|2:1|2:2,0:0:0:0:
211,46,108594,6,0,B|216:105|165:126|165:126|183:104|181:84,1,135,2|0,2:1|0:0,0:0:0:0:
181,94,108937,2,0,P|197:97|211:106,1,33.7500012874604,2|0,2:1|0:0,0:0:0:0:
291,171,109108,2,0,B|416:144|416:144|421:119|441:100,1,175.499991966248,10|0,2:2|0:0,0:0:0:0:
496,157,109451,1,2,3:2:0:0:
361,75,109623,1,2,0:0:0:0:
321,254,109794,2,0,P|350:270|374:293,1,67.5000025749208,2|0,1:1|0:0,0:0:0:0:
454,376,110137,5,10,3:2:0:0:
460,352,110223,1,0,1:3:0:0:
465,327,110308,1,2,1:2:0:0:
470,302,110394,1,0,1:2:0:0:
476,277,110479,1,10,2:2:0:0:
374,293,110651,22,0,B|320:273|281:313|281:313|267:354|234:361,1,161.999995056153,6|0,3:2|0:0,0:0:0:0:
201,293,110994,2,0,P|178:277|145:273,1,53.9999983520508,0|0,3:2|1:2,0:0:0:0:
17,301,111165,1,14,2:2:0:0:
17,301,111680,5,2,3:2:0:0:
49,286,111851,1,2,3:2:0:0:
69,242,112023,1,2,3:2:0:0:
53,164,112194,1,2,1:2:0:0:
94,82,112365,1,2,1:2:0:0:
192,60,112537,1,10,1:2:0:0:
270,126,112708,1,10,1:2:0:0:
17,301,113051,5,2,2:2:0:0:
117,356,119908,22,0,B|121:327|156:307|156:307|111:310|76:353|103:392,1,180,6|0,2:3|0:0,0:0:0:0:
192,382,120423,1,6,2:3:0:0:
192,382,120594,1,8,2:3:0:0:
65,267,120765,6,0,P|42:244|6:235,1,67.5,0|0,1:3|1:2,0:0:0:0:
8,235,121108,6,0,B|94:228|111:147|67:113|17:108|-5:146|8:176,1,215.999993408203,14|2,3:2|0:2,0:0:0:0:
145,78,121794,22,0,B|193:149|272:123|279:68|258:22|214:22|196:49,1,215.999993408203,14|2,3:2|0:2,0:0:0:0:
358,204,122480,5,12,3:2:0:0:
377,222,122565,1,0,1:2:0:0:
403,222,122651,1,0,1:2:0:0:
421,208,122737,1,0,1:2:0:0:
422,193,122823,2,0,L|413:153,3,33.7500012874604,8|0|8|4,3:2|1:2|2:3|2:3,0:0:0:0:
440,91,123165,6,0,B|450:89|469:110|469:110|519:99|545:36|488:-1|452:10,1,202.500007724762,4|0,3:2|1:2,0:0:0:0:
452,9,123765,1,0,1:2:0:0:
452,9,123851,1,2,1:2:0:0:
99,121,124194,21,10,3:2:0:0:
377,43,124537,5,10,3:2:0:0:
99,121,124880,5,10,3:2:0:0:
377,43,125223,22,0,L|358:131,1,90,6|0,3:2|0:0,0:0:0:0:
277,38,125565,2,0,P|252:14|220:6,2,67.5000025749208,2|2|2,1:2|3:2|3:2,0:0:0:0:
281,42,126251,5,2,1:2:0:0:
281,42,126423,1,2,0:2:0:0:
144,0,126594,2,0,P|118:26|82:39,1,67.5000025749208,2|0,3:2|0:0,0:0:0:0:
163,121,126937,1,2,1:2:0:0:
53,140,127108,2,0,P|27:114|-9:101,1,67.5000025749208,2|0,0:2|3:2,0:0:0:0:
126,225,127451,2,0,L|192:210,1,67.5000025749208,2|0,0:2|1:2,0:0:0:0:
66,329,127794,2,0,L|0:314,1,67.5000025749208,2|0,0:2|3:2,0:0:0:0:
42,236,128137,5,2,3:2:0:0:
157,348,128308,2,0,P|207:303|273:295,2,135.000005149842,2|0|0,1:2|3:2|1:2,0:0:0:0:
332,384,129165,21,0,1:2:0:0:
332,384,129251,1,0,1:2:0:0:
332,384,129337,2,0,L|346:313,1,67.5000025749208,2|0,3:2|0:0,0:0:0:0:
491,228,129680,1,2,1:2:0:0:
476,312,129851,2,0,P|444:299|423:274,1,67.5000025749208,2|0,0:2|3:2,0:0:0:0:
356,166,130194,2,0,P|361:199|349:230,1,67.5000025749208,2|0,0:2|1:2,0:0:0:0:
255,321,130537,2,0,P|229:296|195:289,1,67.5000025749208,2|0,0:2|3:2,0:0:0:0:
42,329,130880,5,2,3:2:0:0:
108,259,131051,2,0,L|124:337,1,67.5000025749208,2|0,1:2|0:0,0:0:0:0:
181,200,131394,2,0,L|197:121,1,67.5000025749208,2|2,3:2|3:2,0:0:0:0:
279,183,131737,1,0,1:1:0:0:
103,137,131908,5,2,1:2:0:0:
103,137,131994,1,0,1:2:0:0:
103,137,132080,2,0,L|119:58,1,67.5000025749208,0|2,3:2|0:2,0:0:0:0:
260,23,132423,22,0,B|300:2|342:34|342:34|349:68|390:86,1,135.000005149842,2|2,1:2|3:2,0:0:0:0:
464,13,132937,1,2,0:2:0:0:
473,152,133108,5,10,2:2:0:0:
473,152,133194,1,8,2:2:0:0:
473,152,133280,2,0,B|532:126|525:62|525:62|511:84|482:92,1,161.999995056153,10|0,3:2|0:0,0:0:0:0:
385,149,133623,5,10,3:2:0:0:
445,341,133794,1,10,3:2:0:0:
445,341,134137,21,10,3:2:0:0:
272,281,134308,2,0,B|100:317|100:317|93:346|71:368,1,215.999993408203,14|0,3:2|1:2,0:0:0:0:
24,305,134737,5,0,1:2:0:0:
24,305,134823,2,0,B|-12:250|33:187|33:187|71:192|99:161,1,180,14|10,3:2|2:2,0:0:0:0:
11,52,135337,2,0,P|31:76|45:109,1,67.5000025749208,2|0,0:2|3:2,0:0:0:0:
155,229,135680,2,0,P|167:197|189:171,1,67.5000025749208,2|8,0:2|2:2,0:0:0:0:
353,97,136023,6,0,P|380:25|301:55,1,180,2|2,0:2|0:2,0:0:0:0:
320,201,136537,2,0,B|328:235|365:236|365:236|348:225|344:213,1,90,10|2,2:2|0:2,0:0:0:0:
466,138,136880,2,0,P|433:143|410:167,2,67.5000025749208,2|2|10,3:2|0:2|2:2,0:0:0:0:
353,97,137394,21,2,0:2:0:0:
353,97,137480,1,8,2:2:0:0:
353,97,137565,2,0,P|298:58|231:55,1,135,6|0,3:2|0:0,0:0:0:0:
158,73,137908,1,10,2:2:0:0:
56,153,138080,2,0,P|43:123|18:101,1,67.5000025749208,2|0,0:2|3:2,0:0:0:0:
140,251,138423,2,0,P|153:221|179:199,1,67.5000025749208,2|8,0:2|2:2,0:0:0:0:
74,365,138765,2,0,P|60:334|35:312,1,67.5000025749208,2|0,0:2|0:0,0:0:0:0:
221,268,139108,5,2,0:2:0:0:
341,384,139280,2,0,L|363:278,1,107.999996704102,14|2,2:2|1:2,0:0:0:0:
388,204,139537,1,0,1:2:0:0:
388,204,139623,2,0,L|421:211,3,33.7500012874604,10|0|2|0,3:2|1:2|1:2|1:2,0:0:0:0:
308,150,139965,5,10,3:2:0:0:
299,151,140050,1,0,1:2:0:0:
291,153,140136,1,2,1:2:0:0:
283,155,140222,1,0,1:2:0:0:
274,157,140308,22,0,B|293:93|365:80|365:80|384:100|418:105,1,180,6|10,3:2|2:2,0:0:0:0:
249,253,140823,2,0,B|216:247|211:212|211:212|225:230|241:234,1,90,2|0,0:2|3:2,0:0:0:0:
363,278,141165,2,0,P|327:304|299:340,1,90,2|8,0:2|2:2,0:0:0:0:
164,384,141508,5,2,0:2:0:0:
164,384,141594,1,8,2:2:0:0:
164,384,141680,2,0,P|136:348|100:321,1,90,0|2,3:2|1:2,0:0:0:0:
5,208,142023,6,0,L|38:200,3,33.7500012874604,10|0|0|0,2:2|1:2|1:2|1:2,0:0:0:0:
95,128,142365,2,0,L|117:153,3,33.7500012874604,8|8|8|8,2:3|2:3|2:3|2:3,0:0:0:0:
209,165,142709,21,4,2:3:0:0:
206,173,142794,1,4,2:3:0:0:
203,181,142880,1,4,2:3:0:0:
201,189,142966,1,4,2:3:0:0:
198,197,143051,6,0,P|187:222|168:233,1,40.4999987640381,14|0,3:2|0:0,0:0:0:0:
90,278,143394,6,0,P|145:291|181:337,1,116.999994644165,14|0,3:2|0:0,0:0:0:0:
251,383,143651,1,0,1:0:0:0:
251,383,143737,2,0,L|255:359,3,22.5,2|2|2|2,3:2|2:3|3:2|2:3,0:0:0:0:
334,371,144080,2,0,L|338:347,1,22.5,10|0,2:2|0:0,0:0:0:0:
431,224,144251,22,0,B|485:220|522:297|456:340|408:318|408:318|392:292|365:279,1,215.999993408203,6|2,3:2|3:2,0:0:0:0:
298,236,144765,2,0,P|322:229|352:226,1,45,2|2,3:2|3:2,0:0:0:0:
255,360,145108,5,2,3:2:0:0:
255,360,145280,1,0,1:2:0:0:
96,264,145451,5,0,1:2:0:0:
96,264,145623,1,0,1:2:0:0:
162,363,145794,22,0,L|176:296,1,67.5000025749208,0|0,1:2|1:2,0:0:0:0:
0,181,146137,2,0,L|14:247,1,67.5000025749208,0|0,1:2|1:2,0:0:0:0:
227,157,146480,5,0,1:2:0:0:
57,107,146651,1,8,1:2:0:0:
96,264,146823,1,8,1:2:0:0:
179,34,146994,5,8,1:2:0:0:
179,34,147080,1,8,1:2:0:0:
179,34,147165,2,0,B|229:9|285:55|285:55|298:97|344:104,1,175.499991966248,14|0,3:2|0:0,0:0:0:0:
360,31,147508,2,0,P|401:12|444:1,1,90,14|2,2:2|0:2,0:0:0:0:
142,186,147851,2,0,P|183:167|226:156,1,90,10|0,2:2|3:2,0:0:0:0:
417,258,148194,1,10,2:2:0:0:
417,258,148280,1,2,2:3:0:0:
417,258,148365,1,2,3:2:0:0:
353,366,148537,22,0,L|319:207,1,161.999995056153,10|0,2:2|0:0,0:0:0:0:
256,282,148880,2,0,P|222:312|179:324,1,90,10|2,2:2|3:2,0:0:0:0:
179,324,149137,1,0,3:2:0:0:
179,324,149223,1,10,2:2:0:0:
6,260,149394,1,2,3:2:0:0:
106,384,149565,1,10,2:2:0:0:
144,183,149737,1,2,3:2:0:0:
27,340,149908,6,0,B|89:320|105:253|105:253|79:242|76:209,1,161.999995056153,10|0,2:2|0:0,0:0:0:0:
71,151,150251,1,10,2:2:0:0:
188,261,150423,2,0,P|228:226|281:219,1,107.999996704102,2|8,0:2|2:2,0:0:0:0:
440,196,150765,2,0,P|387:190|347:156,1,107.999996704102,2|8,3:2|2:2,0:0:0:0:
355,266,151108,1,2,3:2:0:0:
259,135,151280,6,0,B|221:102|250:62|250:62|253:79|263:96,1,107.999996704102,10|0,2:2|0:0,0:0:0:0:
188,261,151623,2,0,P|140:235|87:226,1,107.999996704102,8|0,2:2|0:0,0:0:0:0:
87,226,151880,1,0,3:2:0:0:
87,226,151965,1,10,2:2:0:0:
2,187,152137,1,2,3:2:0:0:
175,104,152308,1,10,2:2:0:0:
53,33,152480,21,2,3:2:0:0:
53,33,152565,1,2,2:3:0:0:
53,33,152651,2,0,L|94:231,1,202.500007724762,14|0,2:2|0:0,0:0:0:0:
80,321,152994,2,0,P|39:292|-9:292,1,90,10|2,2:2|0:2,0:0:0:0:
0,289,153251,1,0,3:2:0:0:
0,289,153337,1,8,2:2:0:0:
94,231,153508,1,2,3:2:0:0:
168,384,153680,1,10,2:2:0:0:
277,291,153851,5,2,3:2:0:0:
277,291,153937,1,2,2:3:0:0:
277,291,154023,2,0,B|207:293|176:247|176:247|182:213|163:190,1,161.999995056153,8|0,2:2|0:0,0:0:0:0:
57,199,154365,2,0,B|62:223|47:251|47:251|65:227|94:230,1,107.999996704102,10|2,2:2|3:2,0:0:0:0:
266,195,154708,5,10,2:2:0:0:
287,179,154793,1,8,2:2:0:0:
312,168,154879,1,10,2:2:0:0:
339,163,154965,1,8,2:2:0:0:
366,165,155051,2,0,L|358:131,3,33.7500012874604,10|8|8|8,2:3|2:3|2:3|2:3,0:0:0:0:
453,86,155394,22,0,L|443:132,1,33.7500012874604,14|0,3:2|0:0,0:0:0:0:
416,265,155565,2,0,L|406:311,2,33.7500012874604,0|0|10,1:2|1:2|2:2,0:0:0:0:
296,384,155908,6,0,B|229:356|247:274|247:274|256:309|295:327,1,188.999994232178,2|0,3:1|0:0,0:0:0:0:
323,257,156251,2,0,L|138:296,1,188.999994232178,2|0,3:1|0:0,0:0:0:0:
62,314,156594,6,0,B|46:251|108:220|108:220|159:225|179:175,1,188.999994232178,14|0,3:2|0:0,0:0:0:0:
108,141,156937,2,0,P|92:123|57:115,1,45,10|0,3:2|0:0,0:0:0:0:
0,56,157108,2,0,P|23:51|48:24,1,45,10|0,3:2|0:0,0:0:0:0:
127,4,157280,21,10,3:2:0:0:
135,11,157623,5,10,2:2:0:0:
135,11,157708,1,2,2:3:0:0:
135,11,157794,2,0,B|263:38|263:38|273:59|289:76,1,161.999995056153,14|0,0:2|3:0,0:0:0:0:
340,14,158137,5,10,2:2:0:0:
310,171,158308,2,0,P|324:128|358:99,1,90,2|14,2:1|0:2,0:0:0:0:
352,252,158651,1,2,2:1:0:0:
447,249,158823,2,0,P|432:206|398:177,1,90,2|2,3:2|2:1,0:0:0:0:
266,250,159165,1,10,2:2:0:0:
215,384,159337,1,2,2:1:0:0:
52,295,159508,22,0,P|51:235|109:246,1,135,10|0,2:2|0:0,0:0:0:0:
129,324,159851,2,0,P|107:362|65:376,1,90,10|2,0:2|2:1,0:0:0:0:
184,264,160194,1,2,3:2:0:0:
215,384,160365,2,0,P|240:362|272:351,2,67.5000025749208,2|10|2,2:1|2:2|2:1,0:0:0:0:
410,357,160880,6,0,B|346:343|322:283|322:283|342:261|344:235,1,161.999995056153,10|0,2:2|0:0,0:0:0:0:
268,224,161223,1,10,0:2:0:0:
421,274,161394,2,0,P|454:244|496:229,1,90,2|0,2:1|3:2,0:0:0:0:
325,143,161737,2,0,P|367:157|401:186,1,90,2|8,2:1|2:2,0:0:0:0:
184,264,162080,2,0,L|202:175,1,90,2|8,2:1|2:2,0:0:0:0:
58,70,162423,6,0,L|76:158,2,90,2|8|2,2:1|0:2|2:1,0:0:0:0:
151,98,162937,1,0,3:2:0:0:
48,232,163108,2,0,B|24:231|3:245|3:245|15:224|10:202,1,90,2|8,2:1|2:2,0:0:0:0:
210,184,163451,21,2,2:1:0:0:
210,184,163537,1,0,1:0:0:0:
210,184,163623,1,8,2:2:0:0:
267,125,163794,5,2,2:1:0:0:
349,119,163965,1,10,0:2:0:0:
420,156,164137,1,2,2:1:0:0:
346,202,164308,5,2,3:2:0:0:
400,329,164480,1,2,2:1:0:0:
315,336,164651,1,10,2:2:0:0:
282,256,164823,1,2,2:1:0:0:
418,246,164994,21,10,2:2:0:0:
400,329,165165,1,2,2:1:0:0:
282,256,165337,5,10,0:2:0:0:
315,336,165508,1,2,2:1:0:0:
350,206,165680,5,2,3:2:0:0:
350,206,165851,1,2,2:1:0:0:
231,329,166023,1,10,2:2:0:0:
207,327,166108,1,0,1:0:0:0:
188,312,166194,1,2,1:1:0:0:
182,293,166280,1,0,1:0:0:0:
188,273,166365,22,0,L|143:282,3,45,14|0|0|0,2:3|0:0|1:2|1:2,0:0:0:0:
51,217,166708,2,0,L|95:207,1,45,10|0,2:2|0:0,0:0:0:0:
185,153,166880,38,0,B|192:118|226:112|224:124|287:102|269:25|204:8|168:35|161:79,1,202.500007724762,2|0,3:1|0:0,0:0:0:0:
185,153,167223,2,0,B|164:124|131:132|136:142|70:148|56:71|108:29|152:39|176:76,1,202.500007724762,2|0,3:1|0:0,0:0:0:0:
94,207,167565,22,0,B|147:122|257:132|257:132|275:159|313:167,1,251.999992309571,14|0,3:2|3:2,0:0:0:0:
427,207,168080,2,0,L|408:118,1,90,8|2,0:2|0:2,0:0:0:0:
408,118,168337,1,2,0:2:0:0:
408,118,168423,1,2,3:2:0:0:
510,181,168594,1,2,3:2:0:0:
343,296,168765,1,10,0:2:0:0:
465,375,168937,38,0,P|517:316|422:329,1,215.999993408203,2|0,3:2|3:2,0:0:0:0:
309,383,169451,1,8,0:2:0:0:
68,330,169623,22,0,L|107:321,1,33.7500012874604,2|0,0:2|0:0,0:0:0:0:
149,245,169794,2,0,L|175:274,1,33.7500012874604,2|0,3:2|0:0,0:0:0:0:
263,272,169965,2,0,L|232:361,1,67.5000025749208,2|8,3:2|0:2,0:0:0:0:
38,220,170308,38,0,B|14:173|40:133|86:136|87:140|88:143|139:156|161:114|140:66,1,215.999993408203,6|2,3:2|3:2,0:0:0:0:
45,37,170823,1,10,0:2:0:0:
45,37,170994,1,2,0:2:0:0:
208,168,171165,1,2,3:2:0:0:
308,125,171337,1,2,3:2:0:0:
287,22,171508,1,10,0:2:0:0:
193,23,171680,38,0,P|267:100|310:199,1,215.999993408203,2|2,3:2|3:2,0:0:0:0:
356,346,172194,2,0,P|380:306|425:287,1,90,10|2,0:2|0:2,0:0:0:0:
418,287,172451,1,0,0:0:0:0:
418,287,172537,1,0,3:2:0:0:
273,379,172708,2,0,P|257:357|232:339,1,45,4|0,1:1|0:0,0:0:0:0:
91,297,172880,1,2,0:2:0:0:
249,263,173051,22,0,L|61:302,1,161.999995056153,6|0,3:2|0:0,0:0:0:0:
15,316,173394,1,2,3:2:0:0:
15,316,173565,1,10,0:2:0:0:
104,209,173737,2,0,P|83:169|42:152,1,90,2|0,0:2|3:2,0:0:0:0:
22,232,174080,1,2,3:2:0:0:
167,136,174251,1,10,0:2:0:0:
61,35,174423,38,0,B|15:36|-11:2|-11:2|14:37|5:81,1,161.999995056153,2|0,3:2|0:0,0:0:0:0:
132,66,174765,2,0,L|144:0,2,67.5000025749208,2|10|2,3:2|0:2|0:2,0:0:0:0:
104,209,175280,1,2,3:2:0:0:
280,131,175451,1,2,3:2:0:0:
248,339,175623,2,0,L|214:331,1,33.7500012874604,10|0,0:2|0:0,0:0:0:0:
181,246,175794,38,0,L|392:290,1,215.999993408203,6|0,3:2|3:2,0:0:0:0:
476,384,176308,2,0,P|455:364|443:340,1,45,10|0,0:2|0:0,0:0:0:0:
398,211,176480,2,0,P|437:191|456:150,1,90,2|0,0:2|3:2,0:0:0:0:
355,0,176823,1,2,3:2:0:0:
280,131,176994,1,10,0:2:0:0:
162,0,177165,2,0,L|250:18,1,90,2|0,3:2|0:0,0:0:0:0:
131,184,177508,21,0,1:2:0:0:
86,188,177594,1,0,1:2:0:0:
52,163,177680,1,10,3:2:0:0:
51,127,177765,1,0,1:2:0:0:
72,105,177851,1,0,1:2:0:0:
96,99,177937,1,0,1:2:0:0:
113,102,178023,38,0,P|130:112|143:125,3,33.7500012874604,8|8|8|8,3:3|2:3|2:3|2:3,0:0:0:0:
216,177,178365,2,0,P|215:196|211:214,3,33.7500012874604,4|4|4|4,3:3|2:3|2:3|2:3,0:0:0:0:
150,270,178708,37,10,2:2:0:0:
150,270,178880,1,10,2:2:0:0:
297,318,179051,1,2,0:2:0:0:
229,384,179223,2,0,L|214:317,1,67.5000025749208,2|8,3:2|2:2,0:0:0:0:
306,273,179565,22,0,L|296:317,2,45,2|2|2,0:2|0:2|3:2,0:0:0:0:
512,147,180251,37,2,0:2:0:0:
512,147,180423,1,2,0:2:0:0:
365,195,180594,38,0,L|355:150,2,45,2|8|2,3:2|2:2|3:2,0:0:0:0:
365,195,181280,1,8,2:2:0:0:
306,273,181451,21,2,3:2:0:0:
192,219,181623,1,10,2:2:0:0:
103,299,181794,1,2,0:2:0:0:
103,299,181965,2,0,L|117:365,1,67.5000025749208,2|8,3:2|2:2,0:0:0:0:
14,282,182308,38,0,L|23:237,2,45,2|2|2,0:2|0:2|3:2,0:0:0:0:
14,282,182994,37,2,0:2:0:0:
38,273,183165,1,10,2:2:0:0:
72,236,183337,1,2,3:2:0:0:
67,164,183508,1,10,2:2:0:0:
0,120,183680,1,2,3:2:0:0:
106,33,183852,21,12,3:2:0:0:
107,49,183937,1,0,1:2:0:0:
102,65,184023,1,2,3:2:0:0:
92,78,184109,1,0,3:2:0:0:
77,86,184194,38,0,P|119:72|164:66,1,90,6|10,3:2|2:2,0:0:0:0:
311,119,184537,1,2,0:2:0:0:
240,85,184708,2,0,P|257:56|288:44,1,67.5000025749208,2|8,3:2|2:2,0:0:0:0:
407,82,185051,38,0,P|385:74|368:59,2,45,2|2|2,0:2|0:2|3:2,0:0:0:0:
350,247,185737,21,2,0:2:0:0:
350,247,185908,1,2,1:2:0:0:
491,188,186080,2,0,L|476:254,1,67.5000025749208,2|8,3:2|2:2,0:0:0:0:
447,375,186423,38,0,P|429:360|408:352,2,45,2|2|10,3:2|0:2|2:2,0:0:0:0:
313,384,186937,37,2,3:2:0:0:
350,247,187108,1,10,2:2:0:0:
207,298,187280,1,2,0:2:0:0:
207,298,187451,2,0,P|214:330|221:364,1,67.5000025749208,2|8,3:2|2:2,0:0:0:0:
41,321,187794,21,2,0:2:0:0:
41,321,187965,1,10,2:2:0:0:
140,384,188137,38,0,P|122:294|102:207,1,180,6|8,3:2|3:2,0:0:0:0:
1,167,188651,37,8,3:2:0:0:
72,117,188823,1,10,3:2:0:0:
51,40,188994,21,10,3:2:0:0:
158,94,189165,1,8,3:2:0:0:
178,176,189337,37,10,3:2:0:0:
206,170,189423,1,8,2:2:0:0:
234,164,189508,1,8,2:3:0:0:
262,158,189595,1,4,2:3:0:0:
290,152,189680,38,0,B|346:127|326:69|326:69|323:113|296:126,1,161.999995056153,6|0,3:2|0:0,0:0:0:0:
247,70,190023,1,10,2:2:0:0:
336,217,190194,2,0,B|392:198|437:229|437:229|400:185|417:105,1,215.999993408203,2|2,3:2|3:2,0:0:0:0:
361,306,190708,1,10,2:2:0:0:
504,156,190880,22,0,P|413:213|361:306,1,215.999993408203,2|2,3:2|3:2,0:0:0:0:
361,306,191308,1,0,3:2:0:0:
361,306,191394,1,10,2:2:0:0:
206,170,191565,1,2,3:2:0:0:
206,170,191908,38,0,P|251:188|274:232,1,101.250003862381,10|0,2:2|0:0,0:0:0:0:
274,232,192251,2,0,P|255:239|241:252,1,33.7500012874604,8|0,2:2|0:0,0:0:0:0:
210,321,192423,38,0,P|161:292|106:280,2,107.999996704102,2|2|10,3:2|0:2|2:2,0:0:0:0:
65,351,192937,2,0,P|-22:352|27:280,1,215.999993408203,2|2,3:2|3:2,0:0:0:0:
156,384,193451,1,10,2:2:0:0:
73,212,193623,22,0,B|66:154|122:137|122:137|179:144|205:92,1,180,2|0,3:2|3:2,0:0:0:0:
193,109,194051,1,0,3:2:0:0:
193,109,194137,1,8,2:2:0:0:
133,52,194308,1,0,3:2:0:0:
300,111,194480,38,0,B|296:67|260:58|260:58|281:79|282:109,1,107.999996704102,0|12,0:0|2:2,0:0:0:0:
338,198,194823,2,0,P|360:187|380:158,1,53.9999983520508,0|0,3:2|0:0,0:0:0:0:
383,76,194994,1,8,2:2:0:0:
193,109,195165,38,0,L|226:267,1,161.999995056153,4|0,3:2|0:0,0:0:0:0:
226,267,195508,1,10,2:2:0:0:
72,376,195680,2,0,B|100:313|165:317|165:317|186:351|224:354,1,180,2|2,3:2|3:2,0:0:0:0:
338,198,196194,1,10,2:2:0:0:
300,374,196365,22,0,L|339:186,1,180,2|2,3:2|3:2,0:0:0:0:
338,198,196794,1,0,3:2:0:0:
338,198,196880,1,10,2:2:0:0:
425,319,197051,2,0,P|468:318|487:279,1,90,2|0,3:2|0:0,0:0:0:0:
431,167,197394,37,10,2:2:0:0:
406,135,197480,1,8,2:2:0:0:
417,106,197565,1,8,2:2:0:0:
434,98,197651,1,8,2:2:0:0:
448,97,197737,1,8,2:3:0:0:
458,103,197823,1,4,2:3:0:0:
462,109,197908,1,6,3:2:0:0:
462,109,202880,37,0,3:1:0:0:
393,61,203051,2,0,P|403:43|420:33,1,40.4999987640381,2|0,1:1|0:0,0:0:0:0:
420,33,203394,22,0,L|208:77,1,215.999993408203,0|0,3:2|3:2,0:0:0:0:
42,26,203908,1,0,0:0:0:0:
86,122,204080,2,0,B|146:78|121:15|121:15|125:55|101:82,1,180,0|0,3:2|3:2,0:0:0:0:
7,126,204594,37,2,2:3:0:0:
7,126,204680,1,2,2:3:0:0:
7,126,204765,2,0,B|1:184|57:201|57:201|111:193|131:251,1,180,0|2,3:2|3:1,0:0:0:0:
86,122,205280,1,0,0:0:0:0:
129,314,205451,2,0,B|77:335|57:367|57:367|77:333|63:277,1,180,2|2,3:1|3:1,0:0:0:0:
208,273,205965,37,0,1:2:0:0:
208,273,206051,1,0,1:2:0:0:
208,273,206137,2,0,P|227:279|244:290,1,40.4999987640381,10|0,3:2|0:0,0:0:0:0:
241,368,206480,22,0,P|285:300|354:260,1,161.999995056153,4|2,3:2|0:2,0:0:0:0:
361,227,206823,2,0,P|376:229|397:241,1,33.7500012874604,8|0,0:2|0:0,0:0:0:0:
208,273,207165,38,0,P|163:205|94:165,1,161.999995056153,4|2,3:2|0:2,0:0:0:0:
88,132,207508,2,0,P|73:134|52:146,1,33.7500012874604,8|0,0:2|0:0,0:0:0:0:
351,108,207851,38,0,P|395:40|464:0,1,161.999995056153,4|2,3:2|0:2,0:0:0:0:
482,5,208194,1,4,0:2:0:0:
202,66,208880,22,0,P|179:38|146:24,2,71.9999978027344,8|8|0,2:2|2:3|1:2,0:0:0:0:
306,145,209223,38,0,P|328:118|365:106,2,60,8|8|8,2:3|2:3|2:3,0:0:0:0:
223,223,209565,38,0,P|210:201|183:178,2,45.0000017166138,4|4|4,2:3|2:3|2:3,0:0:0:0:
293,290,209908,21,0,3:2:0:0:
298,279,210022,37,0,3:2:0:0:
304,270,210136,37,0,3:2:0:0:
311,261,210250,21,0,3:2:0:0:
245,384,210423,37,2,0:2:0:0:
245,384,210508,1,2,2:3:0:0:
245,384,210594,2,0,P|233:367|218:353,1,40.4999987640381,6|0,3:2|0:0,0:0:0:0:
172,291,210937,38,0,P|208:264|223:213,1,90,2|2,2:2|2:3,0:0:0:0:
389,80,211280,21,10,2:2:0:0:
423,74,211365,1,10,2:2:0:0:
450,95,211451,1,10,2:2:0:0:
450,120,211537,1,10,2:2:0:0:
434,134,211623,38,0,L|246:94,1,175.499991966248,14|0,3:2|0:0,0:0:0:0:
207,27,211965,2,0,P|173:56|131:71,1,90,14|2,2:2|0:2,0:0:0:0:
298,266,212308,2,0,P|264:236|222:221,1,90,10|0,2:2|3:2,0:0:0:0:
14,275,212651,1,10,2:2:0:0:
14,275,212737,1,2,2:3:0:0:
14,275,212823,1,2,3:2:0:0:
128,384,212994,38,0,L|94:225,1,161.999995056153,10|0,2:2|0:0,0:0:0:0:
81,130,213337,2,0,P|49:161|7:174,1,90,10|2,2:2|3:2,0:0:0:0:
7,174,213594,1,0,3:2:0:0:
7,174,213680,1,10,2:2:0:0:
8,67,213851,1,2,3:2:0:0:
94,225,214023,1,10,2:2:0:0:
186,18,214194,1,2,3:2:0:0:
332,143,214365,22,0,B|300:84|238:79|238:79|219:95|190:96,1,161.999995056153,10|0,2:2|0:0,0:0:0:0:
214,171,214708,2,0,P|232:166|248:159,1,33.7500012874604,10|0,2:2|0:0,0:0:0:0:
357,48,214880,2,0,B|370:16|409:9|409:9|386:24|380:46,1,107.999996704102,2|8,0:2|2:2,0:0:0:0:
429,182,215223,2,0,L|452:77,1,107.999996704102,2|8,3:2|2:2,0:0:0:0:
489,237,215565,1,2,3:2:0:0:
325,278,215737,38,0,L|413:259,1,90,10|0,2:2|0:0,0:0:0:0:
195,377,216080,2,0,L|106:358,1,90,8|0,2:2|0:0,0:0:0:0:
106,358,216337,1,0,3:2:0:0:
106,358,216423,1,10,2:2:0:0:
228,260,216594,1,2,3:2:0:0:
32,220,216765,1,10,2:2:0:0:
178,86,216937,37,2,3:2:0:0:
178,86,217023,1,2,2:3:0:0:
178,86,217108,2,0,B|173:158|103:176|103:176|94:158|62:149,1,161.999995056153,14|0,2:2|0:0,0:0:0:0:
61,77,217451,2,0,P|43:36|7:8,1,90,10|2,2:2|0:2,0:0:0:0:
7,8,217708,1,0,3:2:0:0:
7,8,217794,1,8,2:2:0:0:
178,86,217965,1,2,3:2:0:0:
32,220,218137,1,10,2:2:0:0:
235,268,218308,21,2,3:2:0:0:
235,268,218394,1,2,2:3:0:0:
235,268,218480,2,0,B|182:247|144:281|144:281|129:317|95:325,1,161.999995056153,8|0,2:2|0:0,0:0:0:0:
12,296,218823,2,0,L|30:384,1,90,10|2,2:2|3:2,0:0:0:0:
155,192,219165,37,10,2:2:0:0:
161,165,219250,1,8,2:2:0:0:
167,139,219336,1,10,2:2:0:0:
172,112,219422,1,8,2:2:0:0:
178,86,219508,2,0,L|145:93,3,33.7500012874604,10|8|8|8,2:3|2:3|2:3|2:3,0:0:0:0:
47,41,219851,38,0,L|80:48,1,33.7500012874604,14|0,3:2|0:0,0:0:0:0:
262,93,220023,2,0,L|295:100,2,33.7500012874604,0|0|10,1:2|1:2|2:2,0:0:0:0:
366,247,220365,22,0,B|388:176|478:188|478:188|443:197|424:227,1,188.999994232178,2|0,3:1|0:0,0:0:0:0:
372,331,220708,2,0,B|345:347|308:343|291:305|293:302|295:299|294:264|262:237|226:260,1,188.999994232178,2|0,3:1|0:0,0:0:0:0:
130,350,221051,38,0,L|169:165,1,188.999994232178,14|0,3:2|0:0,0:0:0:0:
144,93,221394,2,0,L|81:106,1,45,10|0,3:2|0:0,0:0:0:0:
248,171,221565,2,0,L|310:184,1,45,10|0,3:2|0:0,0:0:0:0:
51,304,221737,37,10,3:2:0:0:
59,311,222080,21,10,2:2:0:0:
59,311,222165,1,2,2:3:0:0:
59,311,222251,2,0,P|46:252|121:278,1,161.999995056153,10|0,0:2|0:0,0:0:0:0:
130,350,222594,37,10,2:2:0:0:
287,316,222765,2,0,P|236:306|198:297,1,90,2|14,2:1|0:2,0:0:0:0:
375,338,223108,1,2,2:1:0:0:
436,233,223280,2,0,P|391:240|348:251,1,90,2|2,3:2|2:1,0:0:0:0:
119,265,223623,1,10,2:2:0:0:
190,96,223794,1,2,2:1:0:0:
22,140,223965,38,0,L|154:168,1,135,10|0,2:2|0:0,0:0:0:0:
214,212,224308,2,0,L|302:193,1,90,10|2,0:2|2:1,0:0:0:0:
489,167,224651,1,2,3:2:0:0:
416,63,224823,2,0,L|401:129,2,67.5000025749208,2|10|2,2:1|2:2|2:1,0:0:0:0:
301,193,225337,22,0,P|373:227|424:288,1,161.999995056153,10|0,2:2|0:0,0:0:0:0:
460,357,225680,1,10,0:2:0:0:
300,384,225851,2,0,P|336:358|382:352,1,90,2|0,2:1|3:2,0:0:0:0:
182,268,226194,2,0,P|218:293|264:300,1,90,2|8,2:1|2:2,0:0:0:0:
24,279,226537,2,0,L|42:367,1,90,2|8,2:1|2:2,0:0:0:0:
99,155,226880,38,0,L|117:66,2,90,2|8|2,2:1|0:2|2:1,0:0:0:0:
18,91,227394,1,0,3:2:0:0:
221,66,227565,2,0,B|211:31|178:20|178:20|194:38|193:59,1,107.999996704102,2|8,2:1|2:2,0:0:0:0:
292,202,227908,37,2,2:1:0:0:
292,202,227994,1,0,1:0:0:0:
292,202,228080,1,8,2:2:0:0:
301,118,228251,1,2,2:1:0:0:
378,83,228423,1,10,0:2:0:0:
446,132,228594,1,2,2:1:0:0:
360,248,228765,21,2,3:2:0:0:
437,215,228937,1,2,2:1:0:0:
349,332,229108,37,10,2:2:0:0:
281,281,229280,1,2,2:1:0:0:
428,300,229451,37,10,2:2:0:0:
418,383,229623,1,2,2:1:0:0:
360,248,229794,21,10,0:2:0:0:
437,215,229966,1,2,2:1:0:0:
353,336,230137,37,2,3:2:0:0:
353,336,230308,1,2,2:1:0:0:
223,384,230480,37,10,2:2:0:0:
206,363,230565,1,0,1:0:0:0:
183,348,230651,1,2,1:1:0:0:
157,341,230737,1,0,1:0:0:0:
130,343,230823,22,0,L|137:309,3,33.7500012874604,14|0|0|0,2:3|0:0|1:2|1:2,0:0:0:0:
63,264,231165,2,0,L|55:297,1,33.7500012874604,10|0,2:2|0:0,0:0:0:0:
133,215,231337,38,0,B|127:197|98:183|98:183|183:207|183:207|193:241|227:263,1,188.999994232178,2|0,3:1|0:0,0:0:0:0:
314,235,231680,2,0,B|358:208|335:150|335:150|273:137|253:200,1,188.999994232178,2|0,3:1|0:0,0:0:0:0:
245,315,232023,38,0,L|205:130,1,188.999994232178,14|0,3:2|0:0,0:0:0:0:
187,58,232365,2,0,L|147:66,1,33.7500012874604,8|8,2:2|2:2,0:0:0:0:
261,0,232537,2,0,L|300:8,3,33.7500012874604,8|8|8|8,3:2|2:2|2:2|2:2,0:0:0:0:
339,80,232880,21,8,3:3:0:0:
361,107,232965,1,8,2:3:0:0:
395,112,233051,1,8,2:3:0:0:
418,100,233137,1,8,2:3:0:0:
431,84,233223,1,4,3:3:0:0:
442,73,233308,1,4,2:3:0:0:
459,68,233394,1,4,2:3:0:0:
475,72,233480,1,4,2:3:0:0:
483,79,233565,38,0,B|453:215|453:215|421:223|401:243,1,188.999994232178,4|0,3:2|0:0,0:0:0:0:
467,294,233908,2,0,B|428:224|351:231|351:231|339:249|310:262,1,188.999994232178,4|0,1:1|0:0,0:0:0:0:
238,150,234251,38,0,P|270:157|288:185,1,67.5000025749208,0|0,3:2|0:0,0:0:0:0:
178,226,234594,2,0,P|196:253|228:261,1,67.5000025749208,8|2,2:2|2:3,0:0:0:0:
5,73,234937,22,0,B|12:145|91:144|91:144|63:131|52:95,1,188.999994232178,0|0,3:2|0:0,0:0:0:0:
125,69,235280,2,0,L|85:253,1,188.999994232178,8|0,2:2|0:0,0:0:0:0:
59,347,235623,38,0,P|40:319|9:306,1,67.5000025749208,0|0,3:2|0:0,0:0:0:0:
209,344,235965,2,0,P|190:371|159:384,1,67.5000025749208,8|0,2:2|1:3,0:0:0:0:
167,270,236223,37,0,1:3:0:0:
167,270,236308,2,0,B|188:261|202:250|202:250|347:280,1,188.999994232178,2|0,3:2|0:0,0:0:0:0:
427,291,236651,2,0,B|417:340|450:380|450:380|413:341|357:358,1,188.999994232178,10|0,2:2|0:0,0:0:0:0:
398,219,236994,22,0,P|425:192|464:182,1,67.5000025749208,0|2,3:2|0:2,0:0:0:0:
320,73,237337,2,0,P|356:82|385:111,1,67.5000025749208,8|2,2:2|0:2,0:0:0:0:
129,173,237680,38,0,B|104:146|117:104|159:98|161:101|162:104|209:106|229:62|202:23,1,188.999994232178,2|0,3:2|0:0,0:0:0:0:
121,28,238023,2,0,P|177:114|214:196,1,188.999994232178,8|0,2:2|0:0,0:0:0:0:
243,270,238365,38,0,P|269:249|287:219,1,67.5000025749208,2|2,3:2|0:2,0:0:0:0:
320,73,238708,2,0,P|336:101|363:122,1,67.5000025749208,2|2,2:3|1:2,0:0:0:0:
404,41,238965,21,0,1:2:0:0:
404,41,239051,2,0,L|219:80,1,188.999994232178,0|0,3:2|0:0,0:0:0:0:
97,110,239394,2,0,B|67:71|99:17|158:33|158:33|137:56|142:92,1,188.999994232178,4|0,1:1|0:0,0:0:0:0:
181,154,239737,38,0,P|155:179|125:190,1,67.5000025749208,0|0,3:2|0:0,0:0:0:0:
330,232,240080,2,0,P|304:207|274:195,1,67.5000025749208,8|2,2:2|2:3,0:0:0:0:
95,380,240423,38,0,B|173:344|143:270|143:270|133:310|101:330,1,188.999994232178,0|0,3:2|0:0,0:0:0:0:
67,260,240765,2,0,B|216:292|216:292|223:311|241:325,1,188.999994232178,8|0,2:2|0:0,0:0:0:0:
281,384,241108,22,0,P|307:361|315:328,1,67.5000025749208,2|0,2:3|0:0,0:0:0:0:
275,195,241451,37,2,2:3:0:0:
301,204,241537,1,0,1:2:0:0:
329,200,241623,1,0,1:2:0:0:
347,181,241708,1,0,1:2:0:0:
350,158,241794,38,0,L|342:124,1,33.7500012874604,8|0,3:3|0:0,0:0:0:0:
416,79,241965,2,0,L|424:113,2,33.7500012874604,0|0|10,1:2|1:2|2:2,0:0:0:0:
259,40,242308,22,0,B|198:-1|140:42|140:42|133:79|89:94,1,188.999994232178,2|0,3:1|0:0,0:0:0:0:
65,24,242651,2,0,L|104:208,1,188.999994232178,2|0,3:1|0:0,0:0:0:0:
90,287,242994,38,0,P|13:318|29:237,1,202.500007724762,14|0,3:2|0:0,0:0:0:0:
104,208,243337,38,0,P|127:213|146:229,1,45,8|0,3:2|0:0,0:0:0:0:
238,292,243508,2,0,P|231:268|235:244,1,45,8|0,3:2|0:0,0:0:0:0:
244,134,243680,21,8,3:2:0:0:
252,141,244023,37,0,3:2:0:0:
252,141,244108,1,0,3:2:0:0:
252,141,244194,2,0,B|264:134|278:117|278:117|336:128|336:128|347:169|382:180,1,161.999995056153,12|0,3:2|0:0,0:0:0:0:
413,109,244537,37,10,2:2:0:0:
380,259,244708,1,2,2:1:0:0:
476,246,244880,1,14,0:2:0:0:
490,156,245051,1,2,2:1:0:0:
376,178,245223,21,2,3:2:0:0:
424,256,245394,1,2,2:1:0:0:
380,325,245565,1,10,2:2:0:0:
420,361,245737,1,2,2:1:0:0:
312,284,245908,37,10,2:2:0:0:
227,290,246080,1,2,2:1:0:0:
176,355,246251,1,10,0:2:0:0:
132,373,246423,1,2,2:1:0:0:
90,363,246594,37,2,3:2:0:0:
131,291,246765,1,2,2:1:0:0:
0,263,246937,1,10,2:2:0:0:
9,347,247108,1,2,2:1:0:0:
77,229,247280,21,10,2:2:0:0:
77,229,247623,37,10,0:2:0:0:
24,126,247794,37,2,2:1:0:0:
116,155,247965,1,0,3:2:0:0:
77,229,248137,21,2,2:1:0:0:
223,159,248308,1,8,2:2:0:0:
169,80,248480,37,2,2:1:0:0:
351,146,248651,1,8,2:2:0:0:
235,211,248823,38,0,L|222:155,2,53.9999983520508,2|8|2,2:1|0:2|2:1,0:0:0:0:
264,331,249337,1,0,3:2:0:0:
432,344,249508,1,2,2:1:0:0:
354,262,249680,1,8,2:2:0:0:
271,339,249851,21,2,2:1:0:0:
271,339,249937,1,0,1:0:0:0:
271,339,250023,1,8,2:2:0:0:
235,211,250194,37,2,2:1:0:0:
165,266,250365,1,10,0:2:0:0:
83,128,250537,1,2,2:1:0:0:
153,183,250708,1,2,3:2:0:0:
229,44,250880,1,2,2:1:0:0:
159,99,251051,1,10,2:2:0:0:
145,13,251223,1,2,2:1:0:0:
243,129,251394,37,10,2:2:0:0:
243,129,251565,1,2,2:1:0:0:
380,79,251737,21,10,0:2:0:0:
380,79,251908,1,2,2:1:0:0:
318,176,252080,37,2,3:2:0:0:
229,44,252251,1,2,2:1:0:0:
72,171,252423,37,10,2:2:0:0:
42,181,252508,1,0,1:0:0:0:
20,160,252594,1,2,1:1:0:0:
28,131,252680,1,0,1:0:0:0:
59,126,252765,22,0,L|92:133,3,33.7500012874604,14|0|0|0,2:3|0:0|1:2|1:2,0:0:0:0:
167,179,253108,2,0,L|200:171,1,33.7500012874604,10|0,2:2|0:0,0:0:0:0:
366,129,253280,38,0,B|397:112|439:129|437:180|434:180|430:180|431:216|455:241|490:230,1,188.999994232178,2|0,3:1|0:0,0:0:0:0:
509,159,253623,2,0,B|486:131|441:129|422:177|425:178|429:179|413:212|381:225|354:201,1,188.999994232178,2|0,3:1|0:0,0:0:0:0:
289,161,253965,38,0,B|217:78|101:85|101:85|88:112|51:129,1,270.000010299683,14|2,3:2|2:1,0:0:0:0:
16,311,254480,21,10,0:2:0:0:
46,341,254565,1,2,2:3:0:0:
83,345,254651,1,2,2:1:0:0:
113,333,254737,1,2,2:3:0:0:
130,304,254823,1,2,3:2:0:0:
129,278,254908,1,2,2:3:0:0:
116,263,254994,1,2,2:1:0:0:
101,257,255080,1,2,2:3:0:0:
85,259,255165,1,10,0:2:0:0:
75,265,255251,1,2,2:3:0:0:
70,274,255337,1,2,2:3:0:0:
69,282,255423,1,2,2:3:0:0:
73,288,255508,37,2,2:3:0:0:
73,288,256708,38,0,B|124:291|202:217|133:158|83:164|73:217,1,216,14|0,2:2|0:0,0:0:0:0:
154,274,257051,2,0,P|173:291|191:300,1,45,10|0,3:2|0:0,0:0:0:0:
264,381,257223,2,0,P|288:373|305:361,1,45,10|0,3:2|0:0,0:0:0:0:
411,339,257394,21,10,3:2:0:0:
419,346,257737,37,8,0:2:0:0:
419,346,257823,1,0,1:2:0:0:
419,346,257908,2,0,L|409:299,3,45,8|4|4|4,2:3|2:3|2:3|2:3,0:0:0:0:
339,264,258251,38,0,L|348:217,1,45,6|2,3:3|2:3,0:0:0:0:
389,135,258508,21,2,2:3:0:0:
389,135,258594,2,0,B|388:120|368:99|368:99|418:123|418:123|421:154|446:172,1,135,4|0,3:2|0:0,0:0:0:0:
512,109,258937,38,0,L|266:161,1,233.999989288331,6|0,3:2|1:2,0:0:0:0:
104,68,259451,2,0,L|192:86,1,90,6|0,3:2|0:0,0:0:0:0:
254,243,259794,2,0,P|219:225|204:199,2,67.5000025749208,2|10|2,0:2|2:2|2:2,0:0:0:0:
409,301,260308,2,0,P|367:316|334:347,1,90,2|2,3:2|2:3,0:0:0:0:
83,307,260651,1,10,2:2:0:0:
119,383,260823,38,0,B|186:347|173:282|173:282|138:260|134:223,1,180,2|0,3:2|0:0,0:0:0:0:
63,117,261337,2,0,B|39:105|30:71|30:71|12:139|78:159,1,161.999995056153,8|2,2:2|2:3,0:0:0:0:
181,141,261680,2,0,P|215:120|252:115,2,67.5000025749208,0|2|8,3:2|2:3|3:2,0:0:0:0:
265,17,262194,21,2,0:0:0:0:
265,17,262280,1,2,2:3:0:0:
265,17,262365,2,0,P|305:34|334:68,1,90,0|2,3:0|2:3,0:0:0:0:
500,148,262708,2,0,P|460:165|431:199,1,90,2|0,1:2|1:0,0:0:0:0:
430,199,262965,1,0,1:0:0:0:
430,199,263051,1,2,1:1:0:0:
344,177,263223,1,10,2:2:0:0:
280,248,263394,1,10,2:2:0:0:
308,338,263565,38,0,L|370:351,1,45,10|0,2:2|0:0,0:0:0:0:
112,212,263908,37,2,2:3:0:0:
112,212,263994,1,2,2:3:0:0:
112,212,264080,2,0,B|99:180|62:177|62:177|84:193|82:224,1,101.250003862381,10|0,2:2|0:0,0:0:0:0:
11,235,264423,22,0,B|70:152|176:163|176:163|193:198|239:210,1,251.999992309571,6|8,3:2|2:2,0:0:0:0:
352,347,264937,2,0,L|333:258,1,90,2|0,2:2|0:0,0:0:0:0:
375,143,265280,37,2,1:2:0:0:
390,160,265365,1,0,1:2:0:0:
411,167,265451,1,10,0:2:0:0:
432,162,265537,1,0,1:0:0:0:
448,146,265622,1,2,1:2:0:0:
452,125,265708,1,0,1:2:0:0:
445,104,265794,38,0,P|428:92|409:87,3,33.7500012874604,10|0|0|0,2:3|1:2|1:2|1:2,0:0:0:0:
348,20,266137,1,4,1:3:0:0:
243,130,266308,22,0,L|261:41,1,90,4|0,1:1|0:0,0:0:0:0:
172,240,266823,38,0,B|131:305|59:276|59:276|94:269|117:231,1,188.999994232178,12|0,2:2|0:0,0:0:0:0:
43,200,267165,2,0,P|26:170|0:150,2,67.5000025749208,2|2|10,3:2|2:1|2:2,0:0:0:0:
177,42,267680,2,0,P|137:60|111:96,1,90,2|0,2:1|3:2,0:0:0:0:
176,244,268023,37,2,2:1:0:0:
176,244,268194,1,8,2:2:0:0:
380,170,268365,21,2,2:1:0:0:
380,170,268536,1,0,3:2:0:0:
234,111,268708,37,2,2:1:0:0:
234,111,268880,2,0,L|243:155,1,45,8|0,2:2|0:0,0:0:0:0:
250,279,269051,38,0,P|217:246|172:244,1,90,6|2,3:2|2:1,0:0:0:0:
333,381,269565,22,0,B|413:382|439:302|439:302|410:287|401:258,1,188.999994232178,10|0,2:2|0:0,0:0:0:0:
469,226,269908,2,0,P|493:189|523:175,2,67.5000025749208,2|2|10,3:2|2:1|2:2,0:0:0:0:
341,59,270423,2,0,P|380:79|410:113,1,90,2|0,2:1|3:2,0:0:0:0:
243,155,270765,37,2,2:1:0:0:
243,155,270937,1,8,2:2:0:0:
48,53,271108,37,2,2:1:0:0:
48,53,271280,2,0,L|57:97,3,45,0|0|2|0,3:2|1:2|2:1|1:2,0:0:0:0:
129,12,271623,21,8,2:2:0:0:
129,12,271708,1,8,2:2:0:0:
129,12,271794,2,0,L|147:100,1,90,6|2,3:2|2:2,0:0:0:0:
232,281,272308,38,0,B|213:271|201:247|201:247|126:275|126:275|124:320|71:343,1,202.500007724762,10|0,2:2|0:0,0:0:0:0:
51,267,272669,2,0,P|29:241|0:227,2,67.5000025749208,2|0|10,3:2|2:1|2:2,0:0:0:0:
249,362,273223,38,0,P|293:343|313:302,1,90,6|0,3:2|0:0,0:0:0:0:
291,201,273602,21,10,2:2:0:0:
291,201,273697,1,8,2:2:0:0:
291,201,273792,2,0,L|330:209,3,33.7500012874604,10|8|8|8,2:3|2:3|2:3|2:3,0:0:0:0:
390,259,274184,2,0,L|416:229,3,29.2499986610413,6|4|6|4,2:3|2:3|2:3|2:3,0:0:0:0:
484,208,274576,2,0,L|471:170,3,24.7500007553101,2|0|0|0,3:2|3:2|3:2|3:2,0:0:0:0:
395,154,275023,37,14,3:2:0:0:
395,154,275679,38,0,L|409:87,2,67.5000025749208,14|0|2,3:2|0:0|2:2,0:0:0:0:
227,287,276314,38,0,B|265:266|300:303|300:303|287:221|193:207|183:250|203:258|153:337|50:364|-58:273|-63:138|45:36|160:97|160:97|159:3|308:-31|368:93|283:171|283:171|257:157|218:165,1,1080.00004119873,14|0,3:2|0:0,0:0:0:0:
108,186,279881,38,0,L|105:204,4,12.5999996154785,0|0|0|0|8,3:0|3:0|3:0|3:0|2:2,0:0:0:0:
