osu file format v14

[General]
AudioFilename: audio.mp3
AudioLeadIn: 0
PreviewTime: 68223
Countdown: 0
SampleSet: Soft
StackLeniency: 0.4
Mode: 0
LetterboxInBreaks: 0
WidescreenStoryboard: 1

[Editor]
Bookmarks: 24080,197908,203051
DistanceSpacing: 0.9
BeatDivisor: 4
GridSize: 32
TimelineZoom: 2.900005

[Metadata]
Title:Yumemiru Milky Way feat. Aitsuki Nakuru
TitleUnicode:夢みるMilky Way feat. 藍月なくる
Artist:Risa Yuzuki
ArtistUnicode:Risa Yuzuki
Creator:Age17
Version:Stardust
Source:
Tags:j-pop jpop japanese Stellalude featured artist fa gazimal
BeatmapID:3996850
BeatmapSetID:1934189

[Difficulty]
HPDrainRate:5
CircleSize:4
OverallDifficulty:9
ApproachRate:9.3
SliderMultiplier:1.8
SliderTickRate:1

[Events]
//Background and Video events
0,0,"84771451_p0 (1)_waifu2x_art_noise3_scale.png",0,0
//Break Periods
2,198108,202023
//Storyboard Layer 0 (Background)
//Storyboard Layer 1 (Fail)
//Storyboard Layer 2 (Pass)
//Storyboard Layer 3 (Foreground)
//Storyboard Layer 4 (Overlay)
//Storyboard Sound Samples

[TimingPoints]
423,342.857142857143,4,2,1,40,1,0
1794,-142.857142857143,4,2,1,40,0,0
2137,-250,4,2,1,50,0,0
3508,-125,4,2,1,45,0,0
3851,-125,4,2,1,40,0,0
4880,-76.9230769230769,4,2,1,60,0,0
6594,-100,4,2,1,60,0,0
9851,-200,4,2,1,60,0,0
10365,-76.9230769230769,4,2,1,60,0,0
10708,-66.6666666666667,4,2,1,60,0,0
11223,-100,4,2,1,60,0,0
12594,-90.9090909090909,4,2,1,60,0,0
13108,-76.9230769230769,4,2,1,60,0,0
13965,-100,4,2,1,60,0,0
18080,-76.9230769230769,4,2,1,60,0,0
18594,-100,4,2,1,60,0,0
20651,-166.666666666667,4,2,1,60,0,0
20994,-100,4,2,1,60,0,0
21508,-76.9230769230769,4,2,1,60,0,0
22023,-66.6666666666667,4,2,1,60,0,0
25108,-66.6666666666667,4,2,1,50,0,0
25794,-125,4,2,1,50,0,0
33680,-100,4,2,1,50,0,0
34023,-100,4,2,1,55,0,0
35051,-100,4,2,1,60,0,0
36080,-100,4,2,1,50,0,0
37451,-125,4,2,1,50,0,0
44137,-90.9090909090909,4,2,1,55,0,0
45680,-90.9090909090909,4,2,1,60,0,0
46194,-111.111111111111,4,2,1,60,0,0
53565,-90.9090909090909,4,2,1,60,0,0
53908,-111.111111111111,4,2,1,60,0,0
56651,-100,4,2,1,60,0,0
58194,-90.9090909090909,4,2,1,60,0,0
59908,-100,4,2,1,60,0,0
60937,-90.9090909090909,4,2,1,60,0,0
62651,-100,4,2,1,60,0,0
64880,-90.9090909090909,4,2,1,65,0,0
65565,-125,4,2,1,60,0,0
66080,-90.9090909090909,4,2,1,60,0,0
66594,-90.9090909090909,4,2,1,50,0,0
66937,-90.9090909090909,4,2,1,55,0,0
67623,-90.9090909090909,4,2,1,60,0,0
68308,-90.9090909090909,4,2,1,65,0,0
68994,-83.3333333333333,4,2,1,70,0,1
77780,-83.3333333333333,4,2,1,5,0,1
78080,-83.3333333333333,4,2,1,70,0,1
78123,-83.3333333333333,4,2,1,5,0,1
78423,-133.333333333333,4,2,1,70,0,1
78765,-133.333333333333,4,2,1,80,0,1
79451,-133.333333333333,4,2,1,70,0,1
79623,-90.9090909090909,4,2,1,70,0,1
80651,-83.3333333333333,4,2,1,70,0,1
84251,-125,4,2,1,70,0,1
84937,-90.9090909090909,4,2,1,70,0,1
88708,-83.3333333333333,4,2,1,70,0,1
88751,-83.3333333333333,4,2,1,5,0,1
89051,-83.3333333333333,4,2,1,70,0,1
89094,-83.3333333333333,4,2,1,5,0,1
89394,-71.4285714285714,4,2,1,70,0,1
90937,-100,4,2,1,70,0,0
91451,-142.857142857143,4,2,1,70,0,0
92137,-133.333333333333,4,2,1,70,0,0
92480,-133.333333333333,4,2,1,80,0,0
93165,-100,4,2,1,70,0,0
93680,-166.666666666667,4,2,1,60,0,0
94023,-76.9230769230769,4,2,1,60,0,0
95737,-100,4,2,1,60,0,0
98994,-200,4,2,1,60,0,0
99508,-76.9230769230769,4,2,1,60,0,0
99851,-66.6666666666667,4,2,1,60,0,0
100365,-100,4,2,1,60,0,0
101737,-90.9090909090909,4,2,1,60,0,0
102251,-76.9230769230769,4,2,1,60,0,0
103108,-100,4,2,1,60,0,0
107223,-76.9230769230769,4,2,1,60,0,0
107737,-100,4,2,1,60,0,0
109794,-166.666666666667,4,2,1,60,0,0
110137,-100,4,2,1,60,0,0
110651,-76.9230769230769,4,2,1,60,0,0
111165,-66.6666666666667,4,2,1,60,0,0
113051,-100,4,2,1,40,0,0
113093,-100,4,2,1,5,0,0
113565,-125,4,2,1,40,0,0
113823,-125,4,2,1,5,0,0
113908,-125,4,2,1,40,0,0
113951,-125,4,2,1,5,0,0
114080,-125,4,2,1,40,0,0
114123,-125,4,2,1,5,0,0
114423,-125,4,2,1,40,0,0
114851,-125,4,2,1,5,0,0
114937,-125,4,2,1,40,0,0
115108,-125,4,2,1,5,0,0
115280,-125,4,2,1,40,0,0
115323,-125,4,2,1,5,0,0
115451,-125,4,2,1,40,0,0
115494,-125,4,2,1,5,0,0
116308,-125,4,2,1,40,0,0
116865,-125,4,2,1,5,0,0
117680,-125,4,2,1,40,0,0
117851,-125,4,2,1,5,0,0
118023,-125,4,2,1,40,0,0
118194,-125,4,2,1,5,0,0
118365,-125,4,2,1,40,0,0
119394,-125,4,2,1,40,0,0
121108,-125,4,2,1,50,0,0
121794,-111.111111111111,4,2,1,50,0,0
123165,-142.857142857143,4,2,1,50,0,0
124194,-142.857142857143,4,2,1,60,0,0
125223,-142.857142857143,4,2,1,50,0,0
125394,-125,4,2,1,50,0,0
133280,-90.9090909090909,4,2,1,55,0,0
134823,-90.9090909090909,4,2,1,60,0,0
135337,-111.111111111111,4,2,1,60,0,0
139108,-111.111111111111,4,2,1,65,0,0
139537,-111.111111111111,4,2,1,60,0,0
140308,-90.9090909090908,4,2,1,60,0,0
140823,-100,4,2,1,60,0,0
143051,-90.9090909090909,4,2,1,65,0,0
143651,-90.9090909090909,4,2,1,60,0,0
143737,-125,4,2,1,60,0,0
144251,-90.9090909090909,4,2,1,60,0,0
144594,-90.9090909090909,4,2,1,45,0,0
145280,-90.9090909090909,4,2,1,55,0,0
145965,-90.9090909090909,4,2,1,60,0,0
146651,-90.9090909090909,4,2,1,65,0,0
147165,-83.3333333333333,4,2,1,70,0,1
155951,-83.3333333333333,4,2,1,5,0,1
156251,-83.3333333333333,4,2,1,70,0,1
156294,-83.3333333333333,4,2,1,5,0,1
156594,-133.333333333333,4,2,1,80,0,1
157623,-133.333333333333,4,2,1,70,0,1
157794,-90.9090909090909,4,2,1,70,0,1
158823,-83.3333333333333,4,2,1,70,0,1
166923,-83.3333333333333,4,2,1,5,0,1
167223,-83.3333333333333,4,2,1,70,0,1
167265,-83.3333333333333,4,2,1,5,0,1
167565,-83.3333333333333,4,2,1,60,0,0
168765,-100,4,2,1,60,0,0
170308,-83.3333333333333,4,2,1,60,0,0
171165,-100,4,2,1,60,0,0
180594,-200,4,2,1,60,0,0
182651,-133.333333333333,4,2,1,60,0,0
184708,-200,4,2,1,60,0,0
188137,-133.333333333333,4,2,1,60,0,0
188480,-133.333333333333,4,2,1,45,0,0
188823,-133.333333333333,4,2,1,50,0,0
189165,-133.333333333333,4,2,1,55,0,0
189337,-133.333333333333,4,2,1,60,0,0
189680,-83.3333333333333,4,2,1,65,0,0
190194,-100,4,2,1,65,0,0
194651,-83.3333333333333,4,2,1,65,0,0
195165,-100,4,2,1,65,0,0
202880,-100,4,2,1,40,0,0
203051,-100,4,2,1,50,0,0
203394,-111.111111111111,4,2,1,50,0,0
206137,-111.111111111111,4,2,1,60,0,0
206480,-90.9090909090909,4,2,1,60,0,0
208194,-125,4,2,1,60,0,0
210594,-166.666666666667,4,2,1,60,0,0
210937,-100,4,2,1,50,0,0
211280,-100,4,2,1,60,0,0
211623,-83.3333333333333,4,2,1,70,0,1
220408,-83.3333333333333,4,2,1,5,0,1
220708,-83.3333333333333,4,2,1,70,0,1
220751,-83.3333333333333,4,2,1,5,0,1
221051,-133.333333333333,4,2,1,80,0,1
222080,-133.333333333333,4,2,1,70,0,1
222251,-90.9090909090909,4,2,1,70,0,1
231337,-83.3333333333333,4,2,1,70,0,1
231379,-83.3333333333333,4,2,1,5,0,1
231680,-83.3333333333333,4,2,1,70,0,1
231723,-83.3333333333333,4,2,1,5,0,1
232023,-83.3333333333333,4,2,1,70,0,1
232280,-83.3333333333333,4,2,1,5,0,1
232365,-83.3333333333333,4,2,1,70,0,1
233565,-200,4,2,1,70,0,1
233908,-66.6666666666667,4,2,1,70,0,1
234251,-66.6666666666667,4,2,1,60,0,1
234937,-90.9090909090909,4,2,1,60,0,1
239051,-200,4,2,1,60,0,1
239394,-66.6666666666667,4,2,1,60,0,1
240423,-90.9090909090909,4,2,1,60,0,1
240594,-90.9090909090909,4,2,1,5,0,1
240765,-90.9090909090909,4,2,1,60,0,1
240936,-90.9090909090909,4,2,1,5,0,1
241108,-90.9090909090909,4,2,1,60,0,1
241365,-90.9090909090909,4,2,1,5,0,1
241451,-90.9090909090909,4,2,1,60,0,1
242350,-90.9090909090909,4,2,1,5,0,1
242651,-90.9090909090909,4,2,1,60,0,1
242694,-90.9090909090909,4,2,1,5,0,1
242994,-133.333333333333,4,2,1,70,0,1
244194,-90.9090909090909,4,2,1,70,0,1
245223,-83.3333333333333,4,2,1,70,0,1
253323,-83.3333333333333,4,2,1,5,0,1
253623,-83.3333333333333,4,2,1,70,0,1
253665,-83.3333333333333,4,2,1,5,0,1
253965,-71.4285714285714,4,2,1,70,0,1
255508,-71.4285714285714,4,2,1,60,0,1
256708,-133.333333333333,4,2,1,80,0,1
257394,-133.333333333333,4,2,1,80,0,0
257737,-133.333333333333,4,2,1,70,0,0
258251,-166.666666666667,4,2,1,60,0,0
258594,-76.9230769230769,4,2,1,60,0,0
260308,-100,4,2,1,60,0,0
263565,-200,4,2,1,60,0,0
264080,-76.9230769230769,4,2,1,60,0,0
264937,-100,4,2,1,60,0,0
266308,-90.9090909090909,4,2,1,60,0,0
266823,-76.9230769230769,4,2,1,60,0,0
267680,-100,4,2,1,60,0,0
272308,361.44578313253,4,2,1,60,1,0
273030,387.096774193548,4,2,1,60,1,0
273223,379.746835443038,4,2,1,60,1,0
273792,392.156862745098,4,2,1,50,1,0
274184,-100,4,2,1,45,0,0
274576,447.761194029851,4,2,1,40,1,0
275023,437.956204379562,4,2,1,40,1,0
275679,422.535211267606,4,2,1,40,1,0
275679,-142.857142857143,4,2,1,40,0,0
276314,428.571428571429,4,2,1,40,1,0
276314,-153.846153846154,4,2,1,40,0,0
277171,-153.846153846154,4,2,1,30,0,0
278028,-153.846153846154,4,2,1,20,0,0
278885,-153.846153846154,4,2,1,10,0,0
279881,342.857142857143,4,2,1,30,1,0

[Colours]
Combo1 : 128,128,255
Combo2 : 23,139,255
Combo3 : 128,255,255

[HitObjects]
124,132,423,5,2,0:2:0:0:
172,202,594,1,2,0:2:0:0:
255,220,765,1,2,0:2:0:0:
334,187,937,1,2,0:2:0:0:
475,111,1108,5,2,0:2:0:0:
390,124,1280,1,2,0:2:0:0:
342,194,1451,1,2,0:2:0:0:
346,279,1623,1,2,0:2:0:0:
411,333,1794,2,0,P|430:336|450:345,2,31.4999990386963,2|2|2,0:2|0:2|2:2,0:0:0:0:
337,291,2137,6,0,B|281:305|281:305|269:302|269:302|208:319,1,126,0|0,3:0|0:0,0:0:0:0:
197,349,2823,5,2,0:2:0:0:
167,359,2908,1,2,0:2:0:0:
137,352,2994,1,2,0:2:0:0:
114,331,3080,1,2,0:2:0:0:
109,301,3165,5,0,1:0:0:0:
120,257,3250,1,0,1:0:0:0:
131,213,3336,1,0,1:0:0:0:
142,170,3422,1,0,1:0:0:0:
156,125,3508,2,0,L|169:75,3,36,8|8|8|8,2:3|2:3|2:3|2:3,0:0:0:0:
67,18,3851,2,0,L|80:68,3,36,4|4|4|4,2:3|2:3|2:3|2:3,0:0:0:0:
2,115,4194,1,4,2:3:0:0:
229,14,4365,5,0,1:3:0:0:
263,23,4451,1,0,1:3:0:0:
298,32,4537,1,4,1:1:0:0:
382,107,4708,1,2,2:3:0:0:
459,8,4880,6,0,P|429:88|409:176,1,175.499991966248,4|0,3:2|0:0,0:0:0:0:
382,196,5223,2,0,B|324:218|293:168|312:157|285:115|230:129,1,175.499991966248,6|0,3:2|0:0,0:0:0:0:
211,143,5565,1,0,1:2:0:0:
97,20,5737,6,0,B|131:60|131:60|91:191,1,175.499991966248,6|0,3:2|0:0,0:0:0:0:
85,207,6080,1,2,0:2:0:0:
185,328,6251,1,10,2:2:0:0:
251,220,6423,1,2,2:2:0:0:
96,352,6594,2,0,P|54:338|3:326,1,90,2|2,3:2|2:3,0:0:0:0:
0,326,6851,1,2,2:3:0:0:
0,326,6937,1,10,2:2:0:0:
177,232,7108,6,0,B|244:250|244:250|264:285|264:285|352:307,1,180,2|0,3:2|0:0,0:0:0:0:
404,130,7623,2,0,P|359:142|339:201,1,90,8|2,2:2|2:3,0:0:0:0:
503,255,7965,1,0,3:2:0:0:
490,236,8051,1,2,2:3:0:0:
472,223,8137,1,2,2:3:0:0:
450,218,8223,1,2,2:3:0:0:
428,221,8308,2,0,L|414:273,1,45,8|2,3:2|2:3,0:0:0:0:
340,368,8480,2,0,L|326:315,1,45,2|2,0:0|2:3,0:0:0:0:
256,241,8651,5,0,3:0:0:0:
243,260,8737,1,2,2:3:0:0:
225,273,8823,1,2,2:3:0:0:
203,278,8908,1,2,2:3:0:0:
181,275,8994,2,0,L|167:223,1,45,2|0,1:2|0:0,0:0:0:0:
215,126,9165,5,0,1:0:0:0:
215,126,9251,1,0,1:0:0:0:
215,126,9337,1,2,1:1:0:0:
71,261,9508,1,10,2:2:0:0:
11,90,9680,1,10,2:2:0:0:
105,125,9851,6,0,L|121:187,2,45,10|2|2,2:2|2:3|2:3,0:0:0:0:
131,106,10280,1,2,0:0:0:0:
131,106,10365,6,0,B|126:55|68:25|25:60|25:60|21:86|-5:107,1,175.499991966248,10|0,2:2|0:0,0:0:0:0:
0,117,10708,2,0,P|85:137|196:176,1,202.500007724762,6|0,3:2|0:0,0:0:0:0:
221,184,11051,1,8,2:2:0:0:
365,310,11223,6,0,P|407:293|470:281,1,90,2|0,0:0|0:0,0:0:0:0:
318,184,11565,1,2,1:2:0:0:
323,199,11651,1,0,1:2:0:0:
327,214,11737,1,10,0:2:0:0:
475,152,11908,1,2,1:2:0:0:
480,130,11994,1,0,1:2:0:0:
498,114,12080,5,10,2:3:0:0:
476,75,12165,1,0,1:2:0:0:
436,56,12251,1,0,1:2:0:0:
393,66,12337,1,0,1:2:0:0:
364,99,12423,1,4,1:3:0:0:
206,182,12594,6,0,B|227:242|297:229|317:178|317:178|288:157|283:120,1,198.000006042481,4|0,1:1|0:0,0:0:0:0:
42,23,13108,2,0,P|65:102|91:219,1,175.499991966248,12|0,2:2|0:0,0:0:0:0:
76,220,13451,1,2,3:2:0:0:
156,346,13623,1,2,2:1:0:0:
252,258,13794,1,10,2:2:0:0:
141,357,13965,2,0,P|99:343|42:330,1,90,2|0,2:1|3:2,0:0:0:0:
298,336,14308,6,0,L|353:350,1,45,2|0,2:1|0:0,0:0:0:0:
499,384,14480,1,8,2:2:0:0:
453,210,14651,6,0,L|398:224,1,45,2|0,2:1|0:0,0:0:0:0:
252,258,14823,1,0,3:2:0:0:
294,83,14994,6,0,L|349:97,1,45,2|0,2:1|0:0,0:0:0:0:
495,131,15165,1,8,2:2:0:0:
327,0,15337,6,0,P|245:6|206:90,1,180,6|2,3:2|2:1,0:0:0:0:
408,144,15851,2,0,P|418:102|433:48,1,90,10|2,2:2|2:1,0:0:0:0:
442,249,16194,1,2,3:2:0:0:
307,200,16365,1,2,2:1:0:0:
457,254,16537,1,10,2:2:0:0:
282,302,16708,2,0,P|237:313|195:326,1,90,2|0,2:1|3:2,0:0:0:0:
0,209,17051,6,0,L|17:275,1,45,2|0,2:1|0:0,0:0:0:0:
47,384,17223,1,8,2:2:0:0:
158,203,17394,6,0,L|175:136,1,45,2|0,2:1|0:0,0:0:0:0:
265,16,17565,1,0,3:2:0:0:
265,16,17651,1,0,1:2:0:0:
265,16,17737,2,0,L|248:83,1,45,2|0,1:2|1:0,0:0:0:0:
92,114,17908,1,8,2:2:0:0:
70,74,17994,1,8,2:2:0:0:
90,30,18080,6,0,B|146:-14|196:45|184:57|214:125|290:106,1,233.999989288331,6|2,3:2|2:1,0:0:0:0:
466,0,18594,2,0,B|431:-1|431:-1|395:75,1,90,10|2,2:2|2:1,0:0:0:0:
431,250,18937,1,2,3:2:0:0:
505,98,19108,1,2,2:1:0:0:
303,112,19280,1,10,2:2:0:0:
483,83,19451,2,0,P|467:125|456:170,1,90,2|0,2:1|3:2,0:0:0:0:
268,237,19794,5,2,2:1:0:0:
433,349,19965,2,0,P|422:305|406:263,1,90,10|2,2:2|2:1,0:0:0:0:
303,112,20308,2,0,L|290:159,1,45,2|0,3:2|0:0,0:0:0:0:
191,283,20480,2,0,L|178:235,1,45,2|0,0:0|0:0,0:0:0:0:
52,87,20651,6,0,L|75:173,1,80.9999975280763,2|0,1:1|0:0,0:0:0:0:
68,181,20994,6,0,L|56:137,1,45,10|0,3:2|0:0,0:0:0:0:
117,40,21165,1,2,1:2:0:0:
81,6,21251,1,0,1:2:0:0:
30,8,21337,1,10,2:2:0:0:
162,158,21508,2,0,L|372:108,1,175.499991966248,6|0,3:2|0:0,0:0:0:0:
394,177,21851,1,0,3:2:0:0:
409,181,21937,1,0,1:2:0:0:
424,185,22023,2,0,B|486:195|513:106|481:71|481:71|458:97|412:103,1,202.500007724762,14|0,2:2|0:0,0:0:0:0:
403,24,22365,5,2,3:2:0:0:
332,117,22537,1,2,3:2:0:0:
162,127,22708,5,2,3:2:0:0:
313,268,22880,1,2,3:2:0:0:
112,271,23051,5,2,1:2:0:0:
250,72,23223,1,2,1:2:0:0:
411,216,23394,5,10,1:2:0:0:
170,31,23565,1,10,1:2:0:0:
256,192,23737,5,2,2:3:0:0:
256,192,23823,1,2,2:3:0:0:
256,192,23908,1,2,2:3:0:0:
0,160,24080,5,6,3:2:0:0:
512,224,24423,5,10,3:2:0:0:
0,160,24765,5,10,3:2:0:0:
453,138,25108,5,6,3:2:0:0:
386,210,25280,1,2,0:2:0:0:
293,197,25451,1,2,1:2:0:0:
245,115,25623,1,2,0:2:0:0:
293,197,25794,2,0,P|280:234|269:287,1,72,2|0,3:2|0:0,0:0:0:0:
125,356,26137,5,2,1:2:0:0:
61,293,26308,1,2,0:2:0:0:
100,213,26480,2,0,P|133:194|170:213,1,72,2|0,3:2|3:2,0:0:0:0:
305,343,26823,5,2,1:2:0:0:
216,370,26994,2,0,P|207:335|195:301,1,72,2|0,0:2|3:2,0:0:0:0:
226,103,27337,5,2,0:2:0:0:
312,79,27508,1,2,1:2:0:0:
362,152,27680,2,0,P|361:190|327:212,1,72,2|0,0:2|3:2,0:0:0:0:
209,97,28023,5,2,3:2:0:0:
395,53,28194,1,0,1:2:0:0:
419,45,28537,5,2,3:2:0:0:
454,138,28708,1,0,3:2:0:0:
197,92,28880,1,2,1:2:0:0:
286,12,29051,1,0,1:2:0:0:
289,24,29137,1,0,1:2:0:0:
292,37,29223,1,0,3:2:0:0:
256,192,29565,5,2,1:2:0:0:
256,192,29908,5,2,3:2:0:0:
256,192,30251,5,2,1:2:0:0:
315,292,30594,6,0,P|308:330|292:376,2,72,2|0|2,3:2|3:2|1:2,0:0:0:0:
408,253,31108,1,2,0:2:0:0:
494,216,31280,2,0,P|501:178|516:131,1,72,2|0,3:2|3:2,0:0:0:0:
497,309,31623,5,2,1:2:0:0:
319,197,31794,1,2,1:2:0:0:
319,197,31880,1,0,1:2:0:0:
319,197,31965,2,0,P|283:209|241:217,1,72,2|0,3:2|0:0,0:0:0:0:
297,370,32308,5,2,1:2:0:0:
390,322,32480,2,0,P|397:284|410:244,1,72,2|0,0:2|3:2,0:0:0:0:
246,320,32823,6,0,P|274:345|302:376,1,72,2|0,0:2|1:2,0:0:0:0:
319,197,33165,2,0,P|283:209|241:217,1,72,2|0,0:2|3:2,0:0:0:0:
334,193,33508,1,2,3:2:0:0:
57,225,33680,6,0,P|67:164|130:162,1,135,8|0,0:2|1:2,0:0:0:0:
178,218,34023,6,0,P|151:209|114:202,1,45,10|0,3:2|0:0,0:0:0:0:
337,178,34194,2,0,P|358:172|380:164,1,45,2|0,3:2|0:0,0:0:0:0:
233,61,34365,6,0,P|227:82|220:104,1,45,2|0,3:2|0:0,0:0:0:0:
288,316,34537,2,0,P|293:294|300:272,1,45,2|0,3:2|0:0,0:0:0:0:
256,192,34708,5,2,3:2:0:0:
512,160,35051,5,10,3:2:0:0:
0,224,35394,5,10,3:2:0:0:
512,160,35737,5,10,3:2:0:0:
90,272,36080,5,6,3:2:0:0:
179,217,36251,2,0,P|189:172|203:125,2,90,0|2|2,0:0|1:2|3:2,0:0:0:0:
231,312,36765,1,2,3:2:0:0:
145,368,36937,1,2,2:3:0:0:
145,368,37023,1,2,2:3:0:0:
145,368,37108,5,2,1:2:0:0:
76,266,37280,1,2,0:2:0:0:
231,312,37451,2,0,P|268:320|309:331,1,72,2|0,3:2|0:0,0:0:0:0:
462,306,37794,5,2,1:2:0:0:
400,375,37965,2,0,P|388:338|378:297,1,72,2|0,0:2|3:2,0:0:0:0:
282,203,38308,2,0,P|293:166|303:125,1,72,2|0,0:2|1:2,0:0:0:0:
443,198,38651,6,0,P|408:207|373:215,2,72,2|0|2,0:2|3:2|3:2,0:0:0:0:
286,51,39165,2,0,B|246:51|228:81|240:95|216:135|174:131,1,144,2|0,1:2|3:2,0:0:0:0:
177,131,39680,1,0,3:2:0:0:
12,88,39851,1,0,1:2:0:0:
104,20,40023,1,0,1:2:0:0:
107,32,40108,1,0,1:2:0:0:
109,45,40194,6,0,B|124:107|124:107|134:116|134:116|156:204,1,144,2|2,3:2|1:2,0:0:0:0:
244,245,40708,2,0,P|291:238|303:193,1,72,2|0,0:2|3:2,0:0:0:0:
128,282,41051,2,0,P|157:319|202:307,1,72,2|0,0:2|1:2,0:0:0:0:
38,200,41394,2,0,P|20:244|53:277,1,72,2|0,0:2|3:2,0:0:0:0:
41,384,41737,5,2,3:2:0:0:
202,344,41908,2,0,P|256:325|330:309,1,108,2|0,1:2|0:0,0:0:0:0:
338,324,42251,1,2,3:2:0:0:
505,364,42423,1,2,3:2:0:0:
458,210,42594,2,0,P|444:245|433:300,1,72,0|2,1:1|1:2,0:0:0:0:
433,294,42851,1,0,1:2:0:0:
433,294,42937,5,0,3:2:0:0:
512,142,43108,2,0,P|483:119|434:131,2,72,2|2|0,0:2|1:2|0:0,0:0:0:0:
376,182,43623,1,2,3:2:0:0:
288,44,43794,2,0,L|297:9,1,36,2|0,0:2|0:0,0:0:0:0:
506,35,43965,1,10,2:2:0:0:
508,48,44051,1,8,2:2:0:0:
509,60,44137,6,0,P|428:78|328:108,1,148.50000453186,10|0,3:2|0:0,0:0:0:0:
290,138,44480,2,0,P|267:130|242:125,1,49.5000015106202,10|0,3:2|0:0,0:0:0:0:
92,19,44651,2,0,P|143:-5|189:64,1,148.50000453186,10|0,3:2|0:0,0:0:0:0:
126,143,44994,2,0,P|121:114|111:87,1,49.5000015106202,10|0,3:2|0:0,0:0:0:0:
284,56,45165,2,0,P|262:123|242:209,1,148.50000453186,14|2,3:2|2:3,0:0:0:0:
236,290,45508,1,0,1:2:0:0:
236,290,45594,1,0,1:2:0:0:
236,290,45680,6,0,P|335:296|316:219,1,198.000006042481,14|10,3:2|2:2,0:0:0:0:
159,154,46194,2,0,P|147:190|137:233,1,80.9999975280763,2|0,3:2|0:0,0:0:0:0:
58,369,46537,2,0,P|49:329|36:290,1,80.9999975280763,2|8,0:2|2:2,0:0:0:0:
236,290,46880,6,0,P|251:215|277:128,1,161.999995056153,2|2,3:2|0:2,0:0:0:0:
110,24,47394,2,0,P|71:32|51:71,1,80.9999975280763,10|0,2:2|3:2,0:0:0:0:
135,242,47737,5,2,0:2:0:0:
58,173,47908,1,2,0:2:0:0:
163,142,48080,1,10,2:2:0:0:
41,168,48251,5,2,0:2:0:0:
142,257,48423,2,0,P|199:238|293:217,1,121.499996292114,2|0,3:2|0:0,0:0:0:0:
279,201,48765,2,0,P|309:203|317:238,1,40.4999987640381,10|0,2:2|0:0,0:0:0:0:
383,312,48937,2,0,P|427:309|454:256,1,80.9999975280763,2|0,3:2|0:0,0:0:0:0:
260,329,49280,2,0,P|284:365|343:362,1,80.9999975280763,2|8,0:2|2:2,0:0:0:0:
428,195,49623,6,0,P|404:129|315:107,1,161.999995056153,2|2,3:2|0:2,0:0:0:0:
483,84,50137,2,0,P|490:44|502:5,1,80.9999975280763,10|0,2:2|3:2,0:0:0:0:
443,213,50480,5,2,0:2:0:0:
342,193,50651,1,2,0:2:0:0:
314,92,50823,1,10,2:2:0:0:
345,204,50994,5,2,0:2:0:0:
268,267,51165,2,0,P|211:244|121:227,1,121.499996292114,2|0,3:2|0:0,0:0:0:0:
127,240,51508,2,0,P|105:234|98:202,1,40.4999987640381,10|0,2:2|0:0,0:0:0:0:
74,89,51680,2,0,P|28:90|4:126,1,80.9999975280763,2|0,3:2|0:0,0:0:0:0:
187,47,52023,2,0,P|163:7|119:4,1,80.9999975280763,2|8,0:2|2:2,0:0:0:0:
147,151,52365,6,0,P|127:219|106:308,1,161.999995056153,2|2,3:2|0:2,0:0:0:0:
243,364,52880,2,0,B|233:323|233:323|197:309,1,80.9999975280763,10|0,2:2|3:2,0:0:0:0:
42,381,53223,1,2,0:2:0:0:
24,199,53394,1,2,3:2:0:0:
39,204,53480,1,0,3:2:0:0:
54,208,53565,2,0,B|98:218|98:218|103:228|103:228|147:242,1,99.0000030212403,14|2,3:2|0:2,0:0:0:0:
364,338,53908,6,0,P|422:312|417:234,1,121.499996292114,2|0,3:2|0:0,0:0:0:0:
449,229,54251,2,0,P|435:182|426:138,1,80.9999975280763,8|0,2:2|0:0,0:0:0:0:
311,29,54594,1,2,3:2:0:0:
462,44,54765,1,2,3:2:0:0:
314,154,54937,1,10,2:2:0:0:
314,154,55108,6,0,B|259:177|232:139|241:117|218:82|149:102,1,161.999995056153,2|0,3:2|3:2,0:0:0:0:
151,76,55537,1,0,3:2:0:0:
151,76,55623,2,0,P|107:86|92:128,1,80.9999975280763,8|0,2:2|0:0,0:0:0:0:
33,312,55965,1,0,3:2:0:0:
168,180,56137,1,2,2:1:0:0:
0,215,56308,1,10,2:2:0:0:
29,222,56394,1,2,1:3:0:0:
58,230,56480,1,10,2:3:0:0:
88,238,56565,1,6,2:3:0:0:
113,267,56651,6,0,B|161:283|194:232|173:218|204:175|260:184,1,180,14|10,3:2|2:2,0:0:0:0:
385,321,57165,2,0,P|441:303|450:247,1,90,2|0,0:2|3:2,0:0:0:0:
357,148,57508,2,0,P|370:189|381:234,1,90,2|8,0:2|2:2,0:0:0:0:
240,90,57851,1,2,0:2:0:0:
254,78,57937,1,8,2:2:0:0:
270,77,58023,1,0,3:2:0:0:
283,85,58108,1,0,1:2:0:0:
294,93,58194,6,0,P|337:53|323:-1,2,99.0000030212403,2|10|2,0:2|2:2|0:2,0:0:0:0:
140,129,58708,1,2,3:2:0:0:
12,83,58880,1,2,0:2:0:0:
114,23,59051,1,10,2:2:0:0:
5,219,59223,1,2,0:2:0:0:
5,219,59308,1,8,2:2:0:0:
5,219,59394,6,0,B|75:201|75:201|124:224|124:224|201:204,1,198.000006042481,6|10,3:2|2:2,0:0:0:0:
123,347,59908,2,0,P|73:335|54:287,1,90,2|0,0:2|3:2,0:0:0:0:
170,119,60251,2,0,P|183:161|192:205,1,90,2|8,0:2|2:2,0:0:0:0:
255,333,60594,1,2,0:2:0:0:
272,341,60680,1,8,2:2:0:0:
292,337,60765,1,0,3:2:0:0:
308,326,60851,1,0,1:2:0:0:
315,311,60937,6,0,P|325:263|341:216,2,99.0000030212403,2|10|2,0:2|2:2|0:2,0:0:0:0:
386,71,61451,1,2,3:2:0:0:
453,161,61623,1,2,0:2:0:0:
292,122,61794,2,0,P|287:97|279:74,1,49.5000015106202,6|0,2:1|0:0,0:0:0:0:
444,0,61965,1,2,0:2:0:0:
444,0,62051,1,8,2:2:0:0:
444,0,62137,6,0,B|493:23|493:23|470:88|448:183,1,198.000006042481,6|10,3:2|2:2,0:0:0:0:
283,144,62651,2,0,P|274:100|259:58,1,90,2|0,0:2|3:2,0:0:0:0:
342,281,62994,2,0,P|350:236|365:194,1,90,2|8,0:2|2:2,0:0:0:0:
273,359,63337,1,2,0:2:0:0:
273,359,63423,1,8,2:2:0:0:
273,359,63508,5,0,3:2:0:0:
184,193,63680,1,2,1:2:0:0:
85,346,63851,1,10,2:2:0:0:
83,337,63937,1,0,1:2:0:0:
80,328,64023,1,0,1:2:0:0:
78,318,64108,1,0,1:2:0:0:
61,297,64194,5,8,2:3:0:0:
77,267,64280,1,8,2:3:0:0:
118,256,64365,1,8,2:3:0:0:
162,276,64451,1,8,2:3:0:0:
185,317,64537,1,4,3:3:0:0:
222,353,64623,1,4,3:3:0:0:
273,359,64708,1,4,3:3:0:0:
324,338,64794,1,4,3:3:0:0:
348,291,64880,6,0,P|333:243|320:189,1,99.0000030212403,14|0,3:2|0:0,0:0:0:0:
178,4,65223,2,0,P|193:52|205:105,1,99.0000030212403,14|0,3:2|0:0,0:0:0:0:
231,113,65479,1,0,1:0:0:0:
231,113,65565,2,0,P|228:155|179:166,2,72,2|2|10,3:2|3:2|2:2,0:0:0:0:
32,146,66080,6,0,P|129:169|233:208,1,198.000006042481,6|0,3:2|0:0,0:0:0:0:
390,155,66594,5,0,3:2:0:0:
451,108,66765,1,0,3:2:0:0:
493,172,66937,5,0,1:2:0:0:
364,123,67108,1,0,1:2:0:0:
481,84,67279,5,0,1:2:0:0:
403,239,67451,1,0,1:2:0:0:
260,154,67622,5,0,1:2:0:0:
338,309,67794,1,0,1:2:0:0:
339,89,67965,5,0,1:2:0:0:
246,341,68137,1,0,1:2:0:0:
422,245,68308,5,8,1:2:0:0:
145,152,68479,1,8,1:2:0:0:
426,150,68651,5,8,1:2:0:0:
117,256,68822,1,8,1:2:0:0:
117,256,68908,1,8,1:2:0:0:
117,256,68994,6,0,B|144:152,1,107.999996704102,14|0,3:2|0:0,0:0:0:0:
254,21,69337,1,14,2:2:0:0:
219,238,69508,1,2,0:2:0:0:
52,76,69679,1,10,2:2:0:0:
312,140,69851,5,0,3:2:0:0:
312,140,69937,1,0,3:2:0:0:
312,140,70022,1,10,2:2:0:0:
33,69,70194,1,2,3:2:0:0:
215,0,70365,2,0,P|199:50|187:103,1,107.999996704102,10|0,2:2|0:0,0:0:0:0:
279,332,70708,5,10,2:2:0:0:
473,223,70879,1,2,3:2:0:0:
473,223,70965,1,0,3:2:0:0:
473,223,71051,1,10,2:2:0:0:
260,341,71222,5,2,3:2:0:0:
363,274,71394,1,10,2:2:0:0:
446,361,71565,1,2,3:2:0:0:
207,265,71737,6,0,P|195:213|172:132,1,107.999996704102,10|0,2:2|0:0,0:0:0:0:
302,182,72080,1,10,2:2:0:0:
98,273,72252,1,2,0:2:0:0:
89,303,72337,1,0,3:2:0:0:
81,334,72423,1,8,2:2:0:0:
61,90,72594,6,0,L|76:147,1,53.9999983520508,2|0,3:2|0:0,0:0:0:0:
107,242,72766,1,8,2:2:0:0:
256,334,72937,6,0,L|271:276,1,53.9999983520508,2|0,3:2|0:0,0:0:0:0:
302,182,73109,2,0,B|361:158|390:193|378:221|420:253|473:225,1,161.999995056153,10|0,2:2|0:0,0:0:0:0:
451,153,73452,2,0,P|463:98|478:41,1,107.999996704102,8|0,2:2|0:0,0:0:0:0:
485,24,73709,1,0,3:2:0:0:
485,24,73794,5,10,2:2:0:0:
257,90,73966,1,2,3:2:0:0:
442,234,74137,1,10,2:2:0:0:
237,76,74309,2,0,L|165:95,1,53.9999983520508,2|0,3:2|0:0,0:0:0:0:
25,129,74480,5,14,2:2:0:0:
135,3,74652,1,2,0:2:0:0:
9,145,74823,1,10,2:2:0:0:
225,186,74994,1,2,0:2:0:0:
225,186,75080,1,0,3:2:0:0:
225,186,75166,1,8,2:2:0:0:
53,356,75337,5,2,3:2:0:0:
321,286,75509,1,10,2:2:0:0:
200,384,75680,2,0,P|188:330|169:269,1,107.999996704102,2|8,3:2|2:2,0:0:0:0:
286,75,76023,5,2,0:2:0:0:
512,144,76194,1,10,2:2:0:0:
357,271,76366,1,2,3:2:0:0:
360,260,76452,1,0,3:2:0:0:
363,249,76537,5,10,2:2:0:0:
335,205,76623,1,8,2:2:0:0:
285,194,76709,1,10,2:2:0:0:
236,210,76794,1,8,2:2:0:0:
208,253,76880,1,10,2:3:0:0:
157,261,76966,1,8,2:3:0:0:
110,239,77052,1,8,2:3:0:0:
87,192,77137,1,8,2:3:0:0:
103,143,77223,5,14,3:2:0:0:
203,106,77394,1,0,1:2:0:0:
203,106,77480,1,0,1:2:0:0:
203,106,77566,1,10,2:2:0:0:
113,20,77737,6,0,L|121:52,1,26.9999991760254,2|0,3:1|0:0,0:0:0:0:
102,23,78080,6,0,L|109:50,1,26.9999991760254,2|0,3:1|0:0,0:0:0:0:
285,277,78423,6,0,P|271:323|262:371,1,67.5000025749208,14|0,3:2|0:0,0:0:0:0:
451,231,78766,5,10,3:2:0:0:
64,145,78937,1,10,3:2:0:0:
451,231,79108,1,10,3:2:0:0:
466,134,79451,5,10,2:2:0:0:
458,136,79537,1,2,2:3:0:0:
450,138,79623,2,0,B|406:148|406:148|373:183|373:183|310:197,1,148.50000453186,10|0,0:2|0:0,0:0:0:0:
239,209,79966,1,10,2:2:0:0:
153,142,80137,5,2,2:1:0:0:
307,289,80308,1,14,0:2:0:0:
309,305,80480,1,2,2:1:0:0:
378,67,80651,2,0,P|323:51|273:38,1,107.999996704102,2|2,3:2|2:1,0:0:0:0:
40,53,80994,5,10,2:2:0:0:
19,58,81166,1,2,2:1:0:0:
189,0,81337,2,0,P|172:53|161:105,1,107.999996704102,10|2,2:2|2:1,0:0:0:0:
259,265,81680,5,10,0:2:0:0:
263,286,81851,1,2,2:1:0:0:
65,145,82023,1,2,3:2:0:0:
15,256,82194,5,2,2:1:0:0:
162,209,82366,1,10,2:2:0:0:
323,167,82537,1,2,2:1:0:0:
323,167,82623,1,0,1:0:0:0:
323,167,82708,2,0,P|375:149|428:140,1,107.999996704102,10|2,2:2|2:1,0:0:0:0:
512,232,83051,1,10,0:2:0:0:
469,0,83223,6,0,L|452:60,1,53.9999983520508,2|0,2:1|0:0,0:0:0:0:
427,140,83394,1,0,3:2:0:0:
275,287,83566,6,0,L|258:226,1,53.9999983520508,2|0,2:1|0:0,0:0:0:0:
233,147,83737,1,8,2:2:0:0:
27,29,83908,6,0,P|68:70|120:48,1,107.999996704102,2|8,2:1|2:2,0:0:0:0:
360,57,84251,2,0,P|319:64|278:79,2,72,2|8|2,2:1|0:2|2:1,0:0:0:0:
202,0,84766,1,0,3:2:0:0:
26,184,84937,6,0,P|75:195|122:209,2,99.0000030212403,2|8|2,2:1|2:2|2:1,0:0:0:0:
7,184,85365,1,0,1:0:0:0:
7,184,85451,1,8,2:2:0:0:
176,137,85622,5,2,2:1:0:0:
103,345,85794,1,10,0:2:0:0:
270,338,85965,5,2,2:1:0:0:
193,142,86137,1,2,3:2:0:0:
371,176,86308,5,2,2:1:0:0:
286,337,86480,1,10,2:2:0:0:
463,352,86651,5,2,2:1:0:0:
387,280,86823,1,2,3:2:0:0:
388,180,86994,1,2,2:1:0:0:
512,266,87165,5,10,0:2:0:0:
480,346,87337,1,2,2:1:0:0:
274,151,87508,5,2,3:2:0:0:
511,98,87680,1,2,2:1:0:0:
365,38,87851,5,10,2:2:0:0:
361,50,87937,1,0,1:0:0:0:
357,63,88022,1,2,1:1:0:0:
354,76,88108,1,0,1:0:0:0:
351,89,88194,1,14,2:3:0:0:
206,225,88365,5,0,1:2:0:0:
202,213,88451,1,0,1:2:0:0:
198,200,88537,1,10,2:2:0:0:
75,45,88708,6,0,L|81:71,1,26.9999991760254,2|0,3:1|0:0,0:0:0:0:
62,50,89051,6,0,L|68:76,1,26.9999991760254,2|0,3:1|0:0,0:0:0:0:
264,289,89394,6,0,B|301:326|369:307|382:251|379:245|376:238|390:193|440:182|486:211,1,251.999992309571,14|2,3:2|2:1,0:0:0:0:
231,372,89908,5,10,0:2:0:0:
187,384,89994,1,2,2:3:0:0:
144,366,90080,1,2,2:1:0:0:
134,321,90165,1,2,2:3:0:0:
172,289,90251,5,2,3:2:0:0:
173,242,90337,1,2,2:3:0:0:
142,208,90423,1,2,2:1:0:0:
97,206,90508,1,2,2:3:0:0:
63,242,90594,5,10,0:2:0:0:
43,249,90680,1,2,2:3:0:0:
22,244,90765,1,2,2:3:0:0:
8,229,90851,1,2,2:3:0:0:
9,207,90937,1,2,2:3:0:0:
263,169,92137,6,0,P|253:201|248:235,1,67.5000025749208,14|0,2:2|0:0,0:0:0:0:
71,222,92480,5,10,3:2:0:0:
457,145,92651,1,10,3:2:0:0:
71,222,92822,1,10,3:2:0:0:
258,78,93165,6,0,P|242:70|220:71,2,30,8|0|0,0:2|1:2|1:2,0:0:0:0:
349,114,93337,5,8,2:3:0:0:
388,89,93423,1,4,2:3:0:0:
396,44,93508,1,4,2:3:0:0:
365,10,93594,1,4,2:3:0:0:
321,5,93680,6,0,L|330:40,1,26.9999991760254,6|0,3:3|0:0,0:0:0:0:
349,114,93851,2,0,L|358:149,1,26.9999991760254,2|0,2:3|0:0,0:0:0:0:
480,217,94023,6,0,B|429:194|395:229|411:247|378:294|322:266,1,175.499991966248,4|0,3:2|0:0,0:0:0:0:
297,262,94365,2,0,P|350:331|276:360,1,175.499991966248,6|0,3:2|0:0,0:0:0:0:
266,358,94708,1,0,1:2:0:0:
279,165,94880,6,0,P|201:135|158:211,1,175.499991966248,6|0,3:2|0:0,0:0:0:0:
165,231,95223,1,2,0:2:0:0:
297,262,95394,1,10,2:2:0:0:
178,367,95565,1,2,2:2:0:0:
48,269,95737,2,0,P|39:224|19:162,1,90,2|2,3:2|2:3,0:0:0:0:
24,166,95995,1,2,2:3:0:0:
24,166,96080,1,10,2:2:0:0:
53,13,96251,6,0,B|43:25|21:39|21:39|91:56|191:85,1,180,2|0,3:2|0:0,0:0:0:0:
319,202,96765,2,0,B|280:230|280:230|229:213,1,90,8|2,2:2|2:3,0:0:0:0:
328,24,97108,1,0,3:2:0:0:
349,20,97193,1,2,2:3:0:0:
370,27,97279,1,2,2:3:0:0:
384,44,97365,1,2,2:3:0:0:
388,66,97451,2,0,P|379:92|374:116,1,45,8|2,3:2|2:3,0:0:0:0:
266,137,97623,2,0,P|260:115|253:93,1,45,2|2,0:0|2:3,0:0:0:0:
154,74,97794,5,0,3:0:0:0:
133,70,97879,1,2,2:3:0:0:
112,77,97965,1,2,2:3:0:0:
98,94,98051,1,2,2:3:0:0:
94,116,98137,2,0,P|102:142|107:166,1,45,2|0,1:2|0:0,0:0:0:0:
142,256,98308,5,0,1:0:0:0:
137,272,98394,1,0,1:0:0:0:
132,289,98480,1,2,1:1:0:0:
13,202,98651,1,10,2:2:0:0:
189,155,98823,1,10,2:2:0:0:
132,289,98994,6,0,L|115:228,2,45,10|2|2,2:2|2:3|2:3,0:0:0:0:
142,321,99423,1,2,0:0:0:0:
142,321,99508,6,0,B|145:274|94:260|50:274|43:312|43:312|69:325|82:353,1,175.499991966248,10|0,2:2|0:0,0:0:0:0:
65,364,99851,2,0,P|164:333|261:311,1,202.500007724762,6|0,3:2|0:0,0:0:0:0:
289,303,100194,1,8,2:2:0:0:
442,154,100365,2,0,B|491:165|491:165|513:227,1,90,2|0,2:2|0:0,0:0:0:0:
436,344,100708,5,2,1:2:0:0:
418,352,100793,1,0,1:2:0:0:
399,351,100879,1,10,0:2:0:0:
383,341,100965,1,0,1:0:0:0:
374,325,101050,1,2,1:2:0:0:
373,306,101136,1,0,1:2:0:0:
395,278,101223,5,10,2:3:0:0:
392,229,101308,1,0,1:2:0:0:
358,195,101394,1,0,1:2:0:0:
309,194,101480,1,0,1:2:0:0:
273,227,101565,1,4,1:3:0:0:
239,384,101737,6,0,B|226:318|226:318|183:282|183:282|170:203,1,198.000006042481,4|0,1:1|0:0,0:0:0:0:
77,17,102251,2,0,P|-7:46|38:114,1,175.499991966248,12|0,2:2|0:0,0:0:0:0:
41,125,102594,1,2,3:2:0:0:
170,20,102765,1,2,2:1:0:0:
240,143,102937,1,10,2:2:0:0:
173,29,103108,2,0,P|157:74|145:134,1,90,2|0,2:1|3:2,0:0:0:0:
85,366,103451,6,0,L|70:310,1,45,2|0,2:1|0:0,0:0:0:0:
42,210,103623,1,8,2:2:0:0:
258,138,103794,6,0,L|243:193,1,45,2|0,2:1|0:0,0:0:0:0:
215,294,103966,1,0,3:2:0:0:
431,366,104136,6,0,L|416:310,1,45,2|0,2:1|0:0,0:0:0:0:
388,210,104308,1,8,2:2:0:0:
475,39,104480,6,0,B|479:55|502:68|502:68|367:102,1,180,6|2,3:2|2:1,0:0:0:0:
219,0,104994,2,0,B|180:24|180:24|169:70,1,90,10|2,2:2|2:1,0:0:0:0:
288,232,105337,1,2,3:2:0:0:
270,81,105508,1,2,2:1:0:0:
141,156,105680,1,10,2:2:0:0:
252,81,105851,2,0,B|241:115|241:115|245:128|245:128|234:167,1,90,2|0,2:1|3:2,0:0:0:0:
6,119,106194,6,0,L|64:100,1,45,2|0,2:1|0:0,0:0:0:0:
169,66,106365,1,8,2:2:0:0:
219,331,106537,6,0,L|160:312,1,45,2|0,2:1|0:0,0:0:0:0:
54,209,106708,1,0,3:2:0:0:
54,209,106794,1,0,1:2:0:0:
54,209,106880,2,0,L|113:228,1,45,2|0,2:1|0:0,0:0:0:0:
226,242,107051,1,8,2:2:0:0:
249,206,107137,1,8,2:2:0:0:
233,167,107223,6,0,B|178:120|103:172|96:221|96:221|126:257|104:296,1,233.999989288331,6|2,3:2|2:1,0:0:0:0:
292,367,107737,2,0,P|300:321|317:270,1,90,10|2,2:2|2:1,0:0:0:0:
304,92,108080,1,2,3:2:0:0:
417,39,108251,1,2,2:1:0:0:
512,116,108423,1,10,2:2:0:0:
406,54,108594,2,0,P|416:97|429:142,1,90,2|0,2:1|3:2,0:0:0:0:
413,311,108937,5,2,2:1:0:0:
512,310,109108,2,0,P|471:293|426:286,1,90,10|2,2:2|2:1,0:0:0:0:
351,164,109451,2,0,P|342:190|334:223,1,45,2|0,3:2|0:0,0:0:0:0:
247,332,109623,2,0,P|241:310|234:288,1,45,2|0,0:0|0:0,0:0:0:0:
152,128,109794,6,0,L|129:211,1,80.9999975280763,2|0,1:1|0:0,0:0:0:0:
118,210,110137,6,0,L|129:166,1,45,10|0,3:2|0:0,0:0:0:0:
153,40,110308,1,2,1:2:0:0:
199,46,110394,1,0,1:2:0:0:
228,80,110480,1,10,2:2:0:0:
27,24,110651,2,0,P|-8:81|54:163,1,175.499991966248,6|0,3:2|0:0,0:0:0:0:
118,210,110994,1,0,3:2:0:0:
131,206,111080,1,0,1:2:0:0:
144,202,111165,2,0,B|202:185|202:185|260:220|260:220|345:191,1,202.500007724762,14|0,2:2|0:0,0:0:0:0:
410,161,111508,5,2,3:2:0:0:
503,255,111680,1,2,3:2:0:0:
330,196,111851,5,2,3:2:0:0:
391,339,112023,1,2,3:2:0:0:
332,99,112194,5,2,1:2:0:0:
203,324,112366,1,2,1:2:0:0:
245,32,112537,5,10,1:2:0:0:
32,231,112708,1,10,1:2:0:0:
32,231,113051,6,0,L|24:199,1,22.5,2|0,2:2|0:0,0:0:0:0:
11,368,113565,6,0,P|61:352|124:337,1,108,2|0,2:2|0:0,0:0:0:0:
144,331,113908,2,0,L|152:298,1,18,2|0,2:2|0:0,0:0:0:0:
211,230,114080,2,0,L|219:262,1,18,2|0,2:2|0:0,0:0:0:0:
215,247,114423,6,0,B|264:235|295:280|281:305|307:339|370:322,1,180,2|0,2:2|0:0,0:0:0:0:
393,337,114937,2,0,P|430:309|430:270,1,72,2|0,2:2|0:0,0:0:0:0:
371,215,115280,2,0,L|363:238,1,18,2|0,2:3|0:0,0:0:0:0:
459,164,115451,2,0,L|451:140,1,18,2|0,2:3|0:0,0:0:0:0:
351,47,116308,6,0,P|364:83|372:128,2,72,2|2|2,2:2|2:3|2:3,0:0:0:0:
438,52,116823,2,0,P|441:59|444:70,1,18,2|0,2:3|0:0,0:0:0:0:
161,47,117680,6,0,P|148:83|139:128,1,72,2|0,2:2|0:0,0:0:0:0:
80,24,118023,2,0,P|67:60|58:105,1,72,2|0,2:3|0:0,0:0:0:0:
101,198,118365,5,2,2:3:0:0:
189,215,118537,1,2,2:3:0:0:
238,137,118708,2,0,P|261:104|312:106,1,72,2|0,2:0|2:0,2:0:0:0:
343,4,119051,2,0,P|383:8|407:53,1,72,2|0,2:0|2:0,2:0:0:0:
510,15,119394,2,0,P|529:70|494:152,1,144,2|2,2:2|2:2,0:0:0:0:
415,218,119908,5,6,2:3:0:0:
427,190,120423,5,6,2:3:0:0:
481,288,120594,1,8,2:3:0:0:
390,366,120765,1,0,1:3:0:0:
303,312,120937,1,0,1:2:0:0:
303,312,121023,1,0,1:2:0:0:
303,312,121108,6,0,B|340:280|333:208|283:179|241:189|241:189|267:200|272:225,1,216,14|0,3:2|0:0,0:0:0:0:
197,257,121794,2,0,B|172:301|94:305|52:252|66:201|66:201|80:231|113:234,1,242.999992584229,14|0,3:2|0:0,0:0:0:0:
140,151,122480,5,12,3:2:0:0:
144,135,122565,1,0,1:2:0:0:
140,117,122651,1,0,1:2:0:0:
123,108,122737,1,0,1:2:0:0:
77,110,122823,5,8,3:2:0:0:
33,82,122908,1,0,1:2:0:0:
33,33,122994,1,8,2:3:0:0:
74,1,123080,1,4,2:3:0:0:
124,6,123165,6,0,P|101:80|69:207,1,188.999994232178,4|0,3:2|1:2,0:0:0:0:
71,201,123765,1,0,1:2:0:0:
69,210,123851,1,2,1:2:0:0:
37,229,124194,5,10,3:2:0:0:
475,155,124537,5,10,3:2:0:0:
37,229,124880,5,10,3:2:0:0:
426,232,125223,5,6,3:2:0:0:
338,259,125394,2,0,P|325:292|316:332,2,72,0|2|2,0:0|1:2|3:2,0:0:0:0:
229,195,125908,1,2,3:2:0:0:
314,152,126080,1,2,2:3:0:0:
314,152,126165,1,2,2:3:0:0:
314,152,126251,5,2,1:2:0:0:
217,200,126423,1,2,0:2:0:0:
140,124,126594,2,0,P|131:88|118:55,1,72,2|0,3:2|0:0,0:0:0:0:
66,183,126937,5,2,1:2:0:0:
126,52,127108,2,0,P|139:85|147:120,1,72,2|0,0:2|3:2,0:0:0:0:
168,252,127451,2,0,P|190:223|216:199,1,72,2|0,0:2|1:2,0:0:0:0:
316,122,127794,6,0,P|280:116|246:106,2,72,2|0|2,0:2|3:2|3:2,0:0:0:0:
446,12,128308,2,0,B|487:27|487:27|514:132,1,144,2|0,1:2|3:2,0:0:0:0:
512,125,128823,1,0,3:2:0:0:
443,237,128994,1,0,1:2:0:0:
407,98,129165,1,0,1:2:0:0:
407,98,129251,1,0,1:2:0:0:
407,98,129337,6,0,L|446:247,1,144,2|2,3:2|1:2,0:0:0:0:
398,327,129851,2,0,P|430:345|474:326,1,72,2|0,0:2|3:2,0:0:0:0:
298,310,130194,2,0,P|298:346|336:375,1,72,2|0,0:2|1:2,0:0:0:0:
262,214,130537,2,0,P|230:232|224:280,1,72,2|0,0:2|3:2,0:0:0:0:
351,241,130880,5,2,3:2:0:0:
210,356,131051,2,0,P|156:338|133:287,1,108,2|0,1:2|0:0,0:0:0:0:
126,269,131394,1,2,3:2:0:0:
0,335,131565,1,2,3:2:0:0:
16,159,131737,2,0,P|27:196|39:245,1,72,0|2,1:1|1:2,0:0:0:0:
47,256,131994,1,0,1:2:0:0:
47,256,132080,1,0,3:2:0:0:
136,130,132251,5,2,0:2:0:0:
65,59,132423,2,0,P|32:42|-5:53,1,72,2|0,1:2|0:0,0:0:0:0:
122,145,132765,1,2,3:2:0:0:
191,34,132937,2,0,L|181:0,1,36,2|0,0:2|0:0,0:0:0:0:
283,98,133108,1,10,2:2:0:0:
281,108,133194,1,8,2:2:0:0:
279,118,133280,6,0,B|271:160|312:187|350:178|350:178|371:152|402:151,1,148.50000453186,10|0,3:2|0:0,0:0:0:0:
383,77,133623,2,0,P|376:100|370:124,1,49.5000015106202,10|0,3:2|0:0,0:0:0:0:
486,59,133794,2,0,P|465:130|448:202,1,148.50000453186,10|0,3:2|0:0,0:0:0:0:
436,284,134137,2,0,P|430:258|423:236,1,49.5000015106202,10|0,3:2|0:0,0:0:0:0:
360,361,134308,2,0,P|342:288|322:217,1,148.50000453186,14|2,3:2|2:3,0:0:0:0:
279,118,134651,1,0,1:2:0:0:
281,108,134737,1,0,1:2:0:0:
283,98,134823,6,0,B|207:108|207:108|173:153|173:153|91:168,1,198.000006042481,14|10,3:2|2:2,0:0:0:0:
41,27,135337,2,0,P|94:30|111:61,1,80.9999975280763,2|0,0:2|3:2,0:0:0:0:
21,187,135680,2,0,L|43:101,1,80.9999975280763,2|8,0:2|2:2,0:0:0:0:
206,25,136023,6,0,L|256:213,1,161.999995056153,2|2,0:2|0:2,0:0:0:0:
368,48,136537,2,0,B|346:18|346:18|293:15,1,80.9999975280763,10|2,2:2|0:2,0:0:0:0:
324,138,136880,1,2,3:2:0:0:
415,225,137051,1,2,0:2:0:0:
482,133,137223,1,10,2:2:0:0:
410,235,137394,5,2,0:2:0:0:
489,121,137565,2,0,P|447:134|395:147,1,80.9999975280763,6|0,3:2|0:0,0:0:0:0:
319,267,137908,6,0,P|300:259|277:255,1,40.4999987640381,10|0,2:2|0:0,0:0:0:0:
236,172,138080,2,0,P|193:179|172:224,1,80.9999975280763,2|0,0:2|3:2,0:0:0:0:
74,283,138423,2,0,P|65:240|50:195,1,80.9999975280763,2|8,0:2|2:2,0:0:0:0:
197,306,138765,2,0,P|184:344|177:384,1,80.9999975280763,2|0,0:2|0:0,0:0:0:0:
40,194,139108,5,2,0:2:0:0:
257,65,139280,1,14,2:2:0:0:
104,0,139451,1,2,1:2:0:0:
104,0,139537,1,0,1:2:0:0:
104,0,139623,5,10,3:2:0:0:
110,24,139708,1,0,1:2:0:0:
120,59,139794,1,2,1:2:0:0:
129,90,139880,1,0,1:2:0:0:
139,128,139965,1,10,3:2:0:0:
151,167,140051,1,0,1:2:0:0:
165,213,140137,1,2,1:2:0:0:
181,260,140223,1,0,1:2:0:0:
197,306,140308,6,0,B|256:332|290:273|275:259|308:208|376:232,1,198.000006042481,6|10,3:2|2:2,0:0:0:0:
436,365,140823,2,0,P|392:356|361:308,1,90,2|0,0:2|3:2,0:0:0:0:
451,188,141165,2,0,P|462:235|440:280,1,90,2|8,0:2|2:2,0:0:0:0:
431,102,141508,1,2,0:2:0:0:
431,102,141594,1,8,2:2:0:0:
431,102,141680,5,0,3:2:0:0:
297,153,141851,1,2,1:2:0:0:
306,0,142023,1,10,2:2:0:0:
308,10,142108,1,0,1:2:0:0:
311,21,142194,1,0,1:2:0:0:
314,32,142280,1,0,1:2:0:0:
337,50,142365,5,8,2:3:0:0:
300,27,142451,1,8,2:3:0:0:
258,37,142537,1,8,2:3:0:0:
229,68,142623,1,8,2:3:0:0:
215,108,142708,1,4,3:3:0:0:
178,130,142794,1,4,3:3:0:0:
135,130,142880,1,4,3:3:0:0:
100,105,142965,1,4,3:3:0:0:
84,64,143051,6,0,B|108:20|108:20|181:41,1,99.0000030212403,14|0,3:2|0:0,0:0:0:0:
374,197,143394,2,0,B|350:241|350:241|277:220,1,99.0000030212403,14|0,3:2|0:0,0:0:0:0:
282,216,143651,1,0,1:0:0:0:
282,216,143737,2,0,P|243:224|180:243,2,72,2|2|10,3:2|3:2|2:2,0:0:0:0:
196,379,144251,6,0,P|105:351|4:327,1,198.000006042481,6|2,3:2|3:2,0:0:0:0:
84,233,144765,5,2,3:2:0:0:
128,324,144937,1,2,3:2:0:0:
220,152,145108,5,2,3:2:0:0:
264,61,145280,1,0,1:2:0:0:
356,233,145451,5,0,1:2:0:0:
400,324,145623,1,0,1:2:0:0:
503,149,145794,5,0,1:2:0:0:
327,226,145965,1,0,1:2:0:0:
482,256,146137,5,0,1:2:0:0:
207,147,146308,1,0,1:2:0:0:
404,114,146480,5,0,1:2:0:0:
165,252,146651,1,8,1:2:0:0:
43,109,146823,5,8,1:2:0:0:
140,355,146994,1,8,1:2:0:0:
140,355,147080,1,8,1:2:0:0:
140,355,147165,6,0,L|244:326,1,107.999996704102,14|0,3:2|0:0,0:0:0:0:
407,92,147508,1,14,2:2:0:0:
482,256,147680,1,2,0:2:0:0:
263,167,147851,1,10,2:2:0:0:
512,148,148023,1,0,3:2:0:0:
512,148,148108,1,0,3:2:0:0:
512,148,148194,5,10,2:2:0:0:
243,159,148365,1,2,3:2:0:0:
403,334,148537,2,0,P|394:282|369:208,1,107.999996704102,10|0,2:2|0:0,0:0:0:0:
255,33,148880,5,10,2:2:0:0:
126,226,149051,1,2,3:2:0:0:
126,226,149137,1,0,3:2:0:0:
126,226,149223,1,10,2:2:0:0:
280,25,149394,5,2,3:2:0:0:
154,98,149565,1,10,2:2:0:0:
49,9,149737,1,2,3:2:0:0:
126,226,149908,6,0,B|96:333,1,107.999996704102,10|0,2:2|0:0,0:0:0:0:
13,165,150251,1,10,2:2:0:0:
205,274,150423,1,2,0:2:0:0:
196,304,150509,1,0,3:2:0:0:
188,335,150594,1,8,2:2:0:0:
108,137,150765,6,0,L|169:120,1,53.9999983520508,2|0,3:2|0:0,0:0:0:0:
260,97,150937,1,8,2:2:0:0:
458,283,151108,6,0,L|396:266,1,53.9999983520508,2|0,3:2|0:0,0:0:0:0:
306,243,151280,2,0,B|285:190|323:156|339:172|376:136|346:73,1,161.999995056153,10|0,2:2|0:0,0:0:0:0:
359,24,151623,2,0,P|388:78|442:77,1,107.999996704102,8|0,2:2|0:0,0:0:0:0:
456,77,151880,1,0,3:2:0:0:
456,77,151965,5,10,2:2:0:0:
306,243,152137,1,2,3:2:0:0:
188,30,152308,1,10,2:2:0:0:
18,202,152480,2,0,L|70:188,1,53.9999983520508,2|0,3:2|0:0,0:0:0:0:
169,165,152651,1,14,2:2:0:0:
91,94,152823,5,2,0:2:0:0:
152,265,152994,1,10,2:2:0:0:
268,124,153165,1,2,0:2:0:0:
268,124,153251,1,0,3:2:0:0:
268,124,153337,1,8,2:2:0:0:
18,202,153508,5,2,3:2:0:0:
297,324,153680,1,10,2:2:0:0:
123,369,153851,2,0,P|137:321|151:262,1,107.999996704102,2|8,3:2|2:2,0:0:0:0:
310,201,154194,5,2,0:2:0:0:
52,294,154365,1,10,2:2:0:0:
113,111,154537,1,2,3:2:0:0:
118,123,154623,1,0,3:2:0:0:
125,138,154708,5,10,2:2:0:0:
160,175,154794,1,8,2:2:0:0:
210,166,154880,1,10,2:2:0:0:
232,120,154965,1,8,2:2:0:0:
221,69,155051,1,10,2:3:0:0:
243,22,155137,1,8,2:3:0:0:
291,4,155223,1,8,2:3:0:0:
339,19,155308,1,8,2:3:0:0:
371,58,155394,5,14,3:2:0:0:
336,154,155565,1,0,1:2:0:0:
336,154,155651,1,0,1:2:0:0:
336,154,155737,1,10,2:2:0:0:
435,154,155908,6,0,L|442:127,1,26.9999991760254,2|0,3:1|0:0,0:0:0:0:
446,157,156251,6,0,L|453:130,1,26.9999991760254,2|0,3:1|0:0,0:0:0:0:
266,306,156594,6,0,P|256:267|241:231,1,67.5000025749208,14|0,3:2|0:0,0:0:0:0:
58,208,156937,5,10,3:2:0:0:
435,154,157108,1,10,3:2:0:0:
58,208,157280,1,10,3:2:0:0:
66,301,157623,5,10,2:2:0:0:
76,298,157708,1,2,2:3:0:0:
86,295,157794,2,0,B|126:277|126:277|157:164,1,148.50000453186,14|0,0:2|3:0,0:0:0:0:
173,95,158137,1,10,2:2:0:0:
82,5,158308,5,2,2:1:0:0:
238,160,158480,1,14,0:2:0:0:
255,166,158651,1,2,2:1:0:0:
26,168,158823,2,0,L|131:195,1,107.999996704102,2|2,3:2|2:1,0:0:0:0:
417,234,159165,5,10,2:2:0:0:
434,228,159337,1,2,2:1:0:0:
337,378,159508,2,0,P|319:327|308:273,1,107.999996704102,10|2,2:2|2:1,0:0:0:0:
281,101,159851,5,10,0:2:0:0:
276,85,160023,1,2,2:1:0:0:
507,153,160194,1,2,3:2:0:0:
482,2,160365,5,2,2:1:0:0:
355,175,160537,1,10,2:2:0:0:
235,9,160708,1,2,2:1:0:0:
235,9,160794,1,0,1:0:0:0:
235,9,160880,6,0,B|204:-10|204:-10|132:22,1,107.999996704102,10|2,2:2|2:1,0:0:0:0:
51,171,161223,1,10,0:2:0:0:
8,18,161394,6,0,L|22:71,1,53.9999983520508,2|0,2:1|0:0,0:0:0:0:
53,181,161565,1,0,3:2:0:0:
185,288,161737,6,0,L|199:234,1,53.9999983520508,2|0,2:1|0:0,0:0:0:0:
230,125,161908,1,8,2:2:0:0:
422,95,162080,6,0,P|392:140|336:143,1,107.999996704102,2|8,2:1|2:2,0:0:0:0:
141,159,162423,1,2,2:1:0:0:
323,256,162594,1,8,0:2:0:0:
211,384,162765,2,0,P|202:336|182:278,1,107.999996704102,2|0,2:1|3:2,0:0:0:0:
323,28,163108,5,2,2:1:0:0:
104,151,163280,1,8,2:2:0:0:
361,269,163451,1,2,2:1:0:0:
361,269,163537,1,0,1:0:0:0:
361,269,163623,1,8,2:2:0:0:
85,148,163794,5,2,2:1:0:0:
0,371,163965,1,10,2:2:0:0:
168,356,164137,5,2,2:1:0:0:
104,151,164308,1,2,3:2:0:0:
285,177,164480,5,2,2:1:0:0:
192,241,164651,1,10,2:2:0:0:
187,351,164823,1,2,2:1:0:0:
370,335,164994,5,10,2:2:0:0:
304,182,165165,1,2,2:1:0:0:
445,239,165337,5,10,0:2:0:0:
386,328,165508,1,2,2:1:0:0:
512,181,165680,5,2,3:2:0:0:
242,107,165851,1,2,2:1:0:0:
368,46,166023,5,10,2:2:0:0:
365,58,166108,1,0,1:0:0:0:
362,70,166194,1,2,1:1:0:0:
359,82,166280,1,0,1:0:0:0:
356,94,166365,1,14,2:3:0:0:
179,233,166537,5,0,1:2:0:0:
176,221,166622,1,0,1:2:0:0:
173,209,166708,1,10,2:2:0:0:
43,52,166880,6,0,L|53:92,1,26.9999991760254,2|0,3:1|0:0,0:0:0:0:
34,53,167223,6,0,L|44:93,1,26.9999991760254,2|0,3:1|0:0,0:0:0:0:
237,384,167565,6,0,B|255:311|255:311|314:278|314:278|333:207,1,215.999993408203,14|0,3:2|3:2,0:0:0:0:
278,41,168080,1,8,0:2:0:0:
462,94,168251,1,2,0:2:0:0:
462,94,168337,1,2,0:2:0:0:
462,94,168423,1,2,3:2:0:0:
351,131,168594,1,2,3:2:0:0:
271,32,168765,2,0,L|227:43,1,45,10|0,0:2|0:0,0:0:0:0:
132,35,168937,6,0,B|140:91|140:91|195:134|195:134|213:214,1,180,2|0,3:2|3:2,0:0:0:0:
104,287,169451,1,8,0:2:0:0:
58,186,169623,1,2,0:2:0:0:
247,272,169794,1,2,3:2:0:0:
115,365,169965,2,0,P|125:319|140:269,1,90,2|8,3:2|0:2,0:0:0:0:
188,103,170308,6,0,B|174:123|143:133|143:133|307:175,1,215.999993408203,6|2,3:2|3:2,0:0:0:0:
509,210,170823,1,10,0:2:0:0:
395,109,170994,1,2,0:2:0:0:
395,214,171165,2,0,L|482:190,2,90,2|2|10,3:2|3:2|0:2,0:0:0:0:
364,27,171680,6,0,B|316:47|316:47|295:199,1,180,2|2,3:2|3:2,0:0:0:0:
210,335,172194,1,10,0:2:0:0:
345,286,172365,1,2,0:2:0:0:
329,281,172451,1,0,0:0:0:0:
314,277,172537,1,0,3:2:0:0:
382,383,172708,6,0,L|426:372,1,45,4|0,1:1|0:0,0:0:0:0:
512,345,172880,1,2,0:2:0:0:
298,173,173051,6,0,B|246:160|216:199|224:218|194:264|132:241,1,180,6|2,3:2|3:2,0:0:0:0:
0,137,173565,1,10,0:2:0:0:
135,73,173737,2,0,P|120:117|106:178,1,90,2|0,0:2|3:2,0:0:0:0:
6,255,174080,1,2,3:2:0:0:
155,360,174251,1,10,0:2:0:0:
5,353,174423,6,0,B|60:336|60:336|98:283|98:283|155:269,1,180,2|2,3:2|3:2,0:0:0:0:
239,123,174937,1,10,0:2:0:0:
350,237,175108,1,2,0:2:0:0:
419,107,175280,5,2,3:2:0:0:
231,251,175451,1,2,3:2:0:0:
432,98,175623,1,10,0:2:0:0:
404,299,175794,6,0,P|319:272|191:242,1,180,6|0,3:2|3:2,0:0:0:0:
334,112,176308,2,0,L|347:161,1,45,10|0,0:2|0:0,0:0:0:0:
446,87,176480,2,0,B|422:43|422:43|372:22,1,90,2|0,0:2|3:2,0:0:0:0:
358,20,176737,1,0,0:0:0:0:
358,20,176823,1,2,3:2:0:0:
239,123,176994,1,10,0:2:0:0:
155,18,177165,6,0,P|92:29|85:115,1,135,2|0,3:2|0:0,0:0:0:0:
61,120,177508,1,0,1:2:0:0:
64,129,177593,1,0,1:2:0:0:
67,139,177679,1,10,3:2:0:0:
70,149,177765,1,0,1:2:0:0:
72,159,177850,1,0,1:2:0:0:
75,169,177936,1,0,1:2:0:0:
58,201,178023,5,8,3:3:0:0:
72,248,178108,1,8,2:3:0:0:
117,266,178194,1,8,2:3:0:0:
162,246,178280,1,8,2:3:0:0:
183,201,178365,1,4,3:3:0:0:
229,183,178451,1,4,2:3:0:0:
276,196,178537,1,4,2:3:0:0:
297,240,178623,1,4,2:3:0:0:
268,279,178708,6,0,P|254:323|244:372,2,90,10|10|2,2:2|2:2|0:2,0:0:0:0:
380,227,179223,1,2,3:2:0:0:
286,78,179394,1,8,2:2:0:0:
432,87,179565,5,2,0:2:0:0:
407,105,179737,1,2,0:2:0:0:
286,78,179908,1,2,3:2:0:0:
275,52,180251,5,2,0:2:0:0:
138,39,180423,1,2,0:2:0:0:
77,154,180594,2,0,P|84:175|90:205,2,45,2|8|2,3:2|2:2|3:2,0:0:0:0:
35,59,181280,5,8,2:2:0:0:
35,59,181365,1,0,1:2:0:0:
35,59,181451,1,2,3:2:0:0:
184,131,181623,1,10,2:2:0:0:
88,135,181793,1,2,0:2:0:0:
131,55,181965,2,0,P|135:33|143:11,1,45,2|8,3:2|2:2,0:0:0:0:
237,204,182308,5,2,0:2:0:0:
338,189,182480,1,2,0:2:0:0:
372,92,182651,2,0,B|344:54|289:65|289:65|280:90|259:100,1,135.000005149842,2|2,3:2|0:2,0:0:0:0:
355,199,183165,5,10,2:2:0:0:
413,274,183337,1,2,3:2:0:0:
504,228,183508,1,10,2:2:0:0:
408,294,183680,5,2,3:2:0:0:
405,304,183765,1,0,3:2:0:0:
402,314,183851,1,12,3:2:0:0:
399,324,183936,1,0,1:2:0:0:
397,333,184022,1,2,3:2:0:0:
395,341,184108,1,0,3:2:0:0:
393,350,184194,6,0,L|384:386,1,33.7500012874604,6|0,3:2|0:0,0:0:0:0:
276,288,184365,2,0,L|267:252,1,33.7500012874604,10|0,2:2|0:0,0:0:0:0:
214,373,184537,1,2,0:2:0:0:
131,319,184708,2,0,P|125:291|113:255,1,45,2|8,3:2|2:2,0:0:0:0:
35,182,185051,5,2,0:2:0:0:
43,152,185223,1,2,0:2:0:0:
182,189,185394,1,2,3:2:0:0:
190,219,185737,5,2,0:2:0:0:
318,247,185909,1,2,1:2:0:0:
399,147,186080,2,0,P|405:120|412:91,1,45,2|8,3:2|2:2,0:0:0:0:
450,224,186423,5,2,3:2:0:0:
413,240,186594,1,2,0:2:0:0:
306,155,186765,1,10,2:2:0:0:
306,155,186851,1,0,1:2:0:0:
306,155,186937,5,2,3:2:0:0:
335,40,187108,1,10,2:2:0:0:
306,155,187280,1,2,0:2:0:0:
176,189,187451,2,0,P|153:181|117:173,1,45,2|8,3:2|2:2,0:0:0:0:
19,172,187794,1,2,0:2:0:0:
61,249,187965,1,10,2:2:0:0:
202,92,188137,6,0,B|242:102|242:102|259:124|259:124|299:134,1,101.250003862381,6|0,3:2|0:0,0:0:0:0:
391,148,188480,1,8,3:2:0:0:
301,283,188651,1,8,3:2:0:0:
465,296,188823,5,10,3:2:0:0:
351,68,188994,1,10,3:2:0:0:
191,298,189165,1,8,3:2:0:0:
14,80,189337,5,10,3:2:0:0:
14,80,189423,1,8,2:2:0:0:
14,80,189508,1,8,2:3:0:0:
14,80,189594,1,4,2:3:0:0:
14,80,189680,6,0,B|87:92|87:92|117:138|117:138|211:156,1,215.999993408203,6|10,3:2|2:2,0:0:0:0:
287,2,190194,2,0,B|332:26|332:26|317:69|294:154,1,180,2|2,3:2|3:2,0:0:0:0:
162,239,190708,1,10,2:2:0:0:
136,312,190880,6,0,P|115:224|85:139,1,180,2|2,3:2|3:2,0:0:0:0:
81,125,191308,1,0,3:2:0:0:
78,114,191394,1,10,2:2:0:0:
21,310,191565,2,0,B|38:369|94:365|94:365|108:344|133:335,1,135,2|0,3:2|0:0,0:0:0:0:
218,312,191908,2,0,L|207:356,1,45,10|0,2:2|0:0,0:0:0:0:
225,291,192080,1,0,3:2:0:0:
415,334,192251,6,0,L|403:290,1,45,8|0,2:2|0:0,0:0:0:0:
420,188,192423,1,2,3:2:0:0:
329,170,192594,1,2,0:2:0:0:
313,266,192765,1,10,2:2:0:0:
497,175,192937,2,0,B|442:180|413:135|432:117|405:71|350:78,1,180,2|2,3:2|3:2,0:0:0:0:
195,104,193451,1,10,2:2:0:0:
295,7,193623,6,0,B|337:32|337:32|316:88|288:191,1,180,2|0,3:2|3:2,0:0:0:0:
109,72,194137,2,0,P|132:28|185:19,2,90,8|0|0,2:2|3:2|0:0,0:0:0:0:
155,290,194651,6,0,P|148:263|139:238,1,53.9999983520508,12|0,2:2|0:0,0:0:0:0:
44,188,194823,1,0,3:2:0:0:
195,104,194994,1,8,2:2:0:0:
37,22,195165,5,4,3:2:0:0:
93,101,195337,1,2,0:2:0:0:
195,104,195508,1,10,2:2:0:0:
323,29,195680,2,0,P|249:46|236:166,1,180,2|2,3:2|3:2,0:0:0:0:
102,289,196194,5,10,2:2:0:0:
251,280,196365,2,0,B|194:263|194:263|165:212|165:212|104:198,1,180,2|2,3:2|3:2,0:0:0:0:
273,285,196880,1,10,2:2:0:0:
347,118,197051,2,0,P|409:134|430:198,1,135,2|0,3:2|0:0,0:0:0:0:
447,228,197394,5,10,2:2:0:0:
444,236,197479,1,8,2:2:0:0:
442,245,197565,1,8,2:2:0:0:
439,254,197651,1,8,2:2:0:0:
437,263,197736,1,8,2:3:0:0:
435,272,197822,1,4,2:3:0:0:
448,306,197908,5,6,3:2:0:0:
179,29,202880,5,0,3:1:0:0:
256,192,203051,1,2,1:1:0:0:
271,173,203394,6,0,B|222:149|192:183|203:199|177:240|114:217,1,161.999995056153,0|0,3:2|3:2,0:0:0:0:
15,192,203908,1,0,0:0:0:0:
87,127,204080,2,0,B|120:166|120:166|73:282,1,161.999995056153,0|0,3:2|3:2,0:0:0:0:
141,375,204594,1,0,0:0:0:0:
11,384,204765,6,0,P|91:353|174:340,1,161.999995056153,0|2,3:2|3:1,0:0:0:0:
265,243,205280,1,0,0:0:0:0:
376,361,205451,2,0,P|419:341|408:230,1,161.999995056153,2|2,3:1|3:1,0:0:0:0:
305,73,205965,5,0,1:2:0:0:
309,53,206050,1,0,1:2:0:0:
314,33,206136,1,10,3:2:0:0:
241,228,206480,6,0,L|208:119,1,99.0000030212403,4|2,3:2|0:2,0:0:0:0:
201,100,206736,1,2,0:2:0:0:
197,82,206822,1,8,0:2:0:0:
501,107,207165,6,0,P|472:65|419:97,1,99.0000030212403,4|2,3:2|0:2,0:0:0:0:
403,97,207423,1,2,0:2:0:0:
399,115,207509,1,8,0:2:0:0:
174,305,207851,6,0,P|168:277|160:255,1,49.5000015106202,4|0,3:2|0:0,0:0:0:0:
10,201,208023,5,2,0:2:0:0:
6,221,208108,1,2,0:2:0:0:
1,241,208194,2,0,B|69:272|92:206|76:193|140:142|206:182,1,216,4|0,0:2|0:0,0:0:0:0:
360,77,208880,5,8,2:2:0:0:
281,117,208994,2,0,P|263:142|269:176,1,48,8|0,2:3|1:2,0:0:0:0:
404,159,209223,5,8,2:3:0:0:
441,180,209337,2,0,P|459:205|453:239,1,48,8|8,2:3|2:3,0:0:0:0:
351,238,209565,5,4,2:3:0:0:
329,251,209680,2,0,P|311:276|317:310,1,48,4|4,2:3|2:3,0:0:0:0:
431,301,209908,5,0,3:2:0:0:
447,307,210023,2,0,P|465:332|459:366,1,48,0|0,3:2|3:2,0:0:0:0:
387,371,210251,5,0,3:2:0:0:
215,308,210423,1,2,0:2:0:0:
215,308,210594,6,0,B|175:315|175:315|171:325|171:325|130:335,1,80.9999975280763,6|0,3:2|0:0,0:0:0:0:
113,348,210937,6,0,L|89:341,6,22.5,2|2|2|2|2|2|2,2:2|2:3|2:3|2:3|2:3|2:3|2:3,0:0:0:0:
34,287,211280,5,10,2:2:0:0:
8,265,211365,1,10,2:2:0:0:
0,232,211451,1,10,2:2:0:0:
12,201,211537,1,10,2:2:0:0:
40,183,211623,6,0,P|92:201|145:211,1,107.999996704102,14|0,3:2|0:0,0:0:0:0:
297,359,211965,1,14,2:2:0:0:
266,135,212137,1,2,0:2:0:0:
300,376,212308,1,10,2:2:0:0:
484,233,212480,1,0,3:2:0:0:
484,233,212565,1,0,3:2:0:0:
484,233,212651,5,10,2:2:0:0:
256,131,212823,1,2,3:2:0:0:
480,18,212994,2,0,P|462:70|447:137,1,107.999996704102,10|0,2:2|0:0,0:0:0:0:
294,259,213337,5,10,2:2:0:0:
166,59,213508,1,2,3:2:0:0:
166,59,213594,1,0,3:2:0:0:
166,59,213680,1,10,2:2:0:0:
35,136,213851,5,2,3:2:0:0:
180,168,214023,1,10,2:2:0:0:
271,34,214194,1,2,3:2:0:0:
201,290,214365,6,0,P|189:237|173:185,1,107.999996704102,10|0,2:2|0:0,0:0:0:0:
61,0,214708,1,10,2:2:0:0:
271,34,214880,1,2,0:2:0:0:
264,60,214965,1,0,3:2:0:0:
257,86,215051,1,8,2:2:0:0:
35,136,215223,6,0,L|50:194,1,53.9999983520508,2|0,3:2|0:0,0:0:0:0:
74,283,215394,1,8,2:2:0:0:
212,364,215565,6,0,L|227:305,1,53.9999983520508,2|0,3:2|0:0,0:0:0:0:
251,217,215737,2,0,B|293:204|326:241|309:255|336:290|395:273,1,161.999995056153,10|0,2:2|0:0,0:0:0:0:
462,252,216080,2,0,P|424:283|440:354,1,107.999996704102,8|0,2:2|0:0,0:0:0:0:
446,360,216337,1,0,3:2:0:0:
446,360,216423,5,10,2:2:0:0:
391,183,216594,1,2,3:2:0:0:
302,353,216765,1,10,2:2:0:0:
396,165,216937,2,0,L|411:106,1,53.9999983520508,2|0,3:2|0:0,0:0:0:0:
498,23,217108,5,14,2:2:0:0:
311,94,217280,1,2,0:2:0:0:
509,168,217451,1,10,2:2:0:0:
392,9,217623,1,2,0:2:0:0:
392,9,217708,1,0,3:2:0:0:
392,9,217794,1,8,2:2:0:0:
237,179,217965,5,2,3:2:0:0:
53,79,218137,1,10,2:2:0:0:
229,1,218308,2,0,P|211:54|200:109,1,107.999996704102,2|8,3:2|2:2,0:0:0:0:
47,298,218651,5,2,0:2:0:0:
262,184,218823,1,10,2:2:0:0:
83,193,218994,1,2,3:2:0:0:
83,193,219080,1,0,3:2:0:0:
83,193,219165,5,10,2:2:0:0:
133,200,219251,1,8,2:2:0:0:
163,241,219337,1,10,2:2:0:0:
169,292,219423,1,8,2:2:0:0:
195,335,219508,1,10,2:3:0:0:
244,347,219594,1,8,2:3:0:0:
295,342,219680,1,8,2:3:0:0:
329,304,219765,1,8,2:3:0:0:
333,252,219851,5,14,3:2:0:0:
256,192,220023,1,0,1:2:0:0:
256,192,220108,1,0,1:2:0:0:
256,192,220194,1,10,2:2:0:0:
358,133,220365,6,0,L|349:163,1,26.9999991760254,2|0,3:1|0:0,0:0:0:0:
366,134,220708,6,0,L|357:164,1,26.9999991760254,2|0,3:1|0:0,0:0:0:0:
179,119,221051,6,0,P|171:79|157:35,1,67.5000025749208,14|0,3:2|0:0,0:0:0:0:
39,233,221394,5,10,3:2:0:0:
459,148,221566,1,10,3:2:0:0:
39,233,221737,1,10,3:2:0:0:
31,138,222080,5,10,2:2:0:0:
38,140,222165,1,2,2:3:0:0:
45,143,222251,2,0,B|106:161|106:161|119:193|119:193|184:216,1,148.50000453186,10|0,0:2|0:0,0:0:0:0:
221,269,222594,1,10,2:2:0:0:
370,156,222765,5,2,2:1:0:0:
283,331,222937,1,14,0:2:0:0:
278,352,223108,1,2,2:1:0:0:
489,265,223280,2,0,P|443:272|385:292,1,99.0000030212403,2|2,3:2|2:1,0:0:0:0:
242,138,223623,5,10,2:2:0:0:
222,132,223794,1,2,2:1:0:0:
443,77,223965,2,0,B|480:110|480:110|477:166,1,99.0000030212403,10|2,2:2|2:1,0:0:0:0:
320,35,224308,5,10,0:2:0:0:
340,29,224480,1,2,2:1:0:0:
217,237,224651,1,2,3:2:0:0:
45,123,224823,5,2,2:1:0:0:
284,165,224994,1,10,2:2:0:0:
163,1,225165,1,2,2:1:0:0:
163,1,225251,1,0,1:0:0:0:
163,1,225337,2,0,P|176:44|188:97,1,99.0000030212403,10|2,2:2|2:1,0:0:0:0:
64,227,225680,1,10,0:2:0:0:
221,269,225851,6,0,L|169:255,1,49.5000015106202,2|0,2:1|0:0,0:0:0:0:
74,231,226023,1,0,3:2:0:0:
212,372,226194,6,0,L|264:358,1,49.5000015106202,2|0,2:1|0:0,0:0:0:0:
359,334,226366,1,8,2:2:0:0:
449,221,226537,6,0,P|498:256|498:308,1,99.0000030212403,2|8,2:1|2:2,0:0:0:0:
320,199,226880,1,2,2:1:0:0:
371,127,227051,1,8,0:2:0:0:
462,136,227223,1,2,2:1:0:0:
321,215,227394,1,0,3:2:0:0:
303,0,227565,5,2,2:1:0:0:
140,93,227737,1,8,2:2:0:0:
229,239,227908,1,2,2:1:0:0:
229,239,227994,1,0,1:0:0:0:
229,239,228080,1,8,2:2:0:0:
246,62,228251,5,2,2:1:0:0:
20,2,228423,1,10,2:2:0:0:
45,158,228594,5,2,2:1:0:0:
244,78,228765,1,2,3:2:0:0:
231,222,228937,5,2,2:1:0:0:
47,175,229108,1,10,2:2:0:0:
67,322,229280,5,2,2:1:0:0:
133,247,229451,1,2,3:2:0:0:
229,239,229623,1,2,2:1:0:0:
162,378,229794,5,10,0:2:0:0:
70,339,229965,1,2,2:1:0:0:
231,222,230137,5,2,3:2:0:0:
487,285,230308,1,2,2:1:0:0:
453,130,230480,5,10,2:2:0:0:
450,139,230565,1,0,1:0:0:0:
447,149,230651,1,2,1:1:0:0:
445,159,230737,1,0,1:0:0:0:
442,168,230822,1,14,2:3:0:0:
321,306,230994,5,0,1:2:0:0:
318,297,231079,1,0,1:2:0:0:
315,287,231165,1,10,2:2:0:0:
198,94,231337,6,0,L|206:124,1,26.9999991760254,2|0,3:1|0:0,0:0:0:0:
187,92,231680,6,0,L|195:122,1,26.9999991760254,2|0,3:1|0:0,0:0:0:0:
15,383,232023,6,0,B|30:320|30:320|68:296|68:296|82:239,1,161.999995056153,14|0,3:2|0:0,0:0:0:0:
26,190,232365,5,8,2:2:0:0:
57,164,232451,1,8,2:2:0:0:
96,177,232537,1,8,3:2:0:0:
108,206,232623,1,8,2:2:0:0:
99,234,232708,1,8,2:2:0:0:
81,245,232794,1,8,2:2:0:0:
92,301,232880,5,8,3:3:0:0:
142,335,232965,1,8,2:3:0:0:
201,329,233051,1,8,2:3:0:0:
236,284,233137,1,8,2:3:0:0:
232,235,233223,1,4,3:3:0:0:
262,209,233308,1,4,2:3:0:0:
301,209,233394,1,4,2:3:0:0:
322,229,233480,1,4,2:3:0:0:
332,256,233565,6,0,B|334:276|321:296|321:296|315:274|299:268,1,67.5,4|0,3:2|0:0,0:0:0:0:
236,284,233908,6,0,P|361:243|500:213,2,270.000010299683,4|0|8,1:1|3:2|2:2,0:0:0:0:
278,70,234765,1,2,2:3:0:0:
278,70,234851,1,2,2:3:0:0:
278,70,234937,6,0,P|329:82|343:146,1,99.0000030212403,0|0,3:2|0:0,0:0:0:0:
210,184,235280,2,0,P|111:163|18:134,2,198.000006042481,8|0|8,2:2|3:2|2:2,0:0:0:0:
441,102,236137,1,0,1:3:0:0:
441,102,236223,1,0,1:3:0:0:
441,102,236308,6,0,P|450:159|382:238,1,148.50000453186,2|0,3:2|0:0,0:0:0:0:
375,224,236651,1,10,2:2:0:0:
278,70,236823,2,0,P|329:82|343:146,1,99.0000030212403,2|0,0:2|3:2,0:0:0:0:
154,105,237165,2,0,P|142:53|127:5,1,99.0000030212403,2|8,0:2|2:2,0:0:0:0:
263,154,237508,2,0,P|248:201|237:249,2,99.0000030212403,2|2|0,0:2|3:2|0:0,0:0:0:0:
48,93,238023,6,0,P|4:125|12:220,1,148.50000453186,8|0,2:2|0:0,0:0:0:0:
31,222,238365,1,2,3:2:0:0:
137,189,238537,1,2,0:2:0:0:
225,334,238708,2,0,P|178:317|126:306,1,99.0000030212403,2|2,2:3|1:2,0:0:0:0:
110,288,238965,1,0,1:2:0:0:
110,288,239051,6,0,P|75:290|53:330,1,67.5,0|0,3:2|0:0,0:0:0:0:
92,378,239394,6,0,P|218:336|370:302,2,270.000010299683,4|0|8,1:1|3:2|2:2,0:0:0:0:
137,189,240251,1,2,2:3:0:0:
137,189,240337,1,2,2:3:0:0:
137,189,240423,6,0,P|182:205|202:269,1,99.0000030212403,0|0,3:2|0:0,0:0:0:0:
307,384,240765,2,0,P|316:332|334:277,1,99.0000030212403,8|0,2:2|0:0,0:0:0:0:
444,167,241108,6,0,B|411:194|411:194|286:161,1,148.50000453186,2|0,2:3|0:0,0:0:0:0:
229,149,241451,1,2,2:3:0:0:
230,112,241536,1,0,1:2:0:0:
252,83,241622,1,0,1:2:0:0:
288,74,241708,1,0,1:2:0:0:
321,88,241793,1,8,3:3:0:0:
377,226,241965,1,0,1:2:0:0:
370,249,242050,1,0,1:2:0:0:
363,273,242136,1,10,2:2:0:0:
455,158,242308,6,0,L|463:127,1,24.7500007553101,2|0,3:1|0:0,0:0:0:0:
469,160,242651,6,0,L|477:129,1,24.7500007553101,2|0,3:1|0:0,0:0:0:0:
231,259,242994,6,0,P|243:293|251:337,1,67.5000025749208,14|0,3:2|0:0,0:0:0:0:
460,246,243337,5,8,3:2:0:0:
59,162,243509,1,8,3:2:0:0:
460,246,243680,1,8,3:2:0:0:
330,0,244023,5,0,3:2:0:0:
339,6,244108,1,0,3:2:0:0:
348,12,244194,2,0,B|383:35|383:35|364:76|347:138,1,148.50000453186,12|0,3:2|0:0,0:0:0:0:
281,169,244537,1,10,2:2:0:0:
449,112,244708,5,2,2:1:0:0:
248,252,244880,1,14,0:2:0:0:
254,270,245051,1,2,2:1:0:0:
175,15,245223,2,0,P|189:60|209:141,1,107.999996704102,2|2,3:2|2:1,0:0:0:0:
178,347,245565,5,10,2:2:0:0:
172,365,245737,1,2,2:1:0:0:
10,251,245908,2,0,P|65:240|122:220,1,107.999996704102,10|2,2:2|2:1,0:0:0:0:
365,252,246251,5,10,0:2:0:0:
383,256,246423,1,2,2:1:0:0:
488,91,246594,1,2,3:2:0:0:
269,156,246765,5,2,2:1:0:0:
512,204,246937,1,10,2:2:0:0:
426,29,247108,1,2,2:1:0:0:
426,29,247194,1,0,1:0:0:0:
426,29,247280,6,0,B|392:53|392:53|407:142,1,107.999996704102,10|2,2:2|2:1,0:0:0:0:
507,303,247623,1,10,0:2:0:0:
289,371,247794,6,0,L|302:319,1,53.9999983520508,2|0,2:1|0:0,0:0:0:0:
331,231,247965,1,0,3:2:0:0:
114,77,248137,6,0,L|127:128,1,53.9999983520508,2|0,2:1|0:0,0:0:0:0:
156,217,248308,1,8,2:2:0:0:
1,328,248480,6,0,P|51:310|117:296,1,107.999996704102,2|8,2:1|2:2,0:0:0:0:
282,280,248823,5,2,2:1:0:0:
66,189,248994,1,8,0:2:0:0:
280,83,249165,2,0,P|261:133|247:205,1,107.999996704102,2|0,2:1|3:2,0:0:0:0:
190,327,249508,5,2,2:1:0:0:
119,101,249680,1,8,2:2:0:0:
388,0,249851,1,2,2:1:0:0:
388,0,249937,1,0,1:0:0:0:
388,0,250023,1,8,2:2:0:0:
443,93,250194,5,2,2:1:0:0:
176,1,250365,1,10,0:2:0:0:
196,184,250537,5,2,2:1:0:0:
439,113,250708,1,2,3:2:0:0:
413,276,250880,5,2,2:1:0:0:
323,193,251051,1,10,2:2:0:0:
199,202,251223,1,2,2:1:0:0:
253,328,251394,5,10,2:2:0:0:
409,290,251565,1,2,2:1:0:0:
356,384,251737,5,10,0:2:0:0:
256,345,251908,1,2,2:1:0:0:
196,184,252080,5,2,3:2:0:0:
497,242,252252,1,2,2:1:0:0:
431,72,252423,5,10,2:2:0:0:
428,82,252508,1,0,1:0:0:0:
425,92,252594,1,2,1:1:0:0:
423,102,252680,1,0,1:0:0:0:
420,111,252765,1,14,2:3:0:0:
281,264,252937,5,0,1:2:0:0:
278,254,253022,1,0,1:2:0:0:
275,244,253108,1,10,2:2:0:0:
116,102,253280,6,0,L|125:133,1,26.9999991760254,2|0,3:1|0:0,0:0:0:0:
104,104,253623,6,0,L|113:135,1,26.9999991760254,2|0,3:1|0:0,0:0:0:0:
346,20,253965,6,0,P|316:115|280:264,1,251.999992309571,14|2,3:2|2:1,0:0:0:0:
63,23,254480,5,10,0:2:0:0:
110,2,254565,1,2,2:3:0:0:
159,17,254651,1,2,2:1:0:0:
187,60,254737,1,2,2:3:0:0:
204,68,254823,5,2,3:2:0:0:
215,107,254908,1,2,2:3:0:0:
248,131,254994,1,2,2:1:0:0:
289,128,255080,1,2,2:3:0:0:
304,141,255166,5,10,0:2:0:0:
333,131,255251,1,2,2:3:0:0:
362,142,255337,1,2,2:3:0:0:
377,169,255423,1,2,2:3:0:0:
391,180,255508,5,2,2:3:0:0:
459,114,255680,1,2,2:3:0:0:
455,86,256023,5,2,0:2:0:0:
512,210,256194,1,2,2:3:0:0:
250,223,256537,5,2,2:3:0:0:
250,223,256623,1,0,0:0:0:0:
250,223,256708,2,0,P|257:190|268:152,1,67.5000025749208,14|0,2:2|0:0,0:0:0:0:
192,0,257051,5,10,3:2:0:0:
320,384,257223,1,10,3:2:0:0:
192,0,257394,1,10,3:2:0:0:
43,283,257737,5,8,0:2:0:0:
38,266,257823,1,0,1:2:0:0:
56,229,257908,1,8,2:3:0:0:
91,208,257994,1,4,2:3:0:0:
132,211,258080,1,4,2:3:0:0:
165,236,258165,1,4,2:3:0:0:
177,275,258251,6,0,P|171:292|166:314,1,26.9999991760254,6|0,3:3|0:0,0:0:0:0:
113,384,258423,2,0,P|109:370|104:358,1,26.9999991760254,2|0,2:3|0:0,0:0:0:0:
0,346,258594,6,0,P|85:319|182:297,1,175.499991966248,4|0,3:2|0:0,0:0:0:0:
177,275,258937,2,0,B|238:274|258:316|235:330|268:373|322:366,1,175.499991966248,6|0,3:2|0:0,0:0:0:0:
332,351,259280,1,0,1:2:0:0:
420,113,259451,6,0,B|369:134|369:134|324:265,1,175.499991966248,6|0,3:2|0:0,0:0:0:0:
322,273,259794,1,2,0:2:0:0:
264,164,259965,1,10,2:2:0:0:
438,204,260137,1,2,2:2:0:0:
291,68,260308,1,2,3:2:0:0:
269,73,260393,1,0,0:0:0:0:
247,79,260479,1,2,2:3:0:0:
225,85,260565,1,2,2:3:0:0:
204,91,260650,1,10,2:2:0:0:
78,22,260823,6,0,P|136:38|152:173,1,180,2|0,3:2|0:0,0:0:0:0:
40,199,261337,1,8,2:2:0:0:
60,189,261422,1,2,2:3:0:0:
82,189,261508,1,2,2:3:0:0:
102,199,261594,1,2,2:3:0:0:
115,217,261680,1,0,3:2:0:0:
128,234,261765,1,2,2:3:0:0:
148,244,261851,1,2,2:3:0:0:
170,245,261937,1,2,2:3:0:0:
191,233,262023,6,0,P|209:218|247:215,1,45,8|2,3:2|2:3,0:0:0:0:
284,148,262194,2,0,P|305:156|327:187,1,45,2|2,0:0|2:3,0:0:0:0:
449,284,262365,5,0,3:0:0:0:
466,255,262450,1,2,2:3:0:0:
460,223,262536,1,2,2:3:0:0:
434,203,262622,1,2,2:3:0:0:
401,206,262708,2,0,P|390:227|365:242,1,45,2|0,1:2|0:0,0:0:0:0:
389,117,262880,5,0,1:0:0:0:
389,117,262965,1,0,1:0:0:0:
389,117,263051,1,2,1:1:0:0:
281,281,263223,1,10,2:2:0:0:
187,99,263394,1,10,2:2:0:0:
284,148,263565,6,0,P|275:173|266:210,2,45,10|2|2,2:2|2:3|2:3,0:0:0:0:
275,119,263994,1,2,0:0:0:0:
275,119,264080,6,0,P|299:59|389:85,1,175.499991966248,10|0,2:2|0:0,0:0:0:0:
386,118,264423,2,0,P|298:97|188:79,1,175.499991966248,6|0,3:2|0:0,0:0:0:0:
185,97,264765,1,8,2:2:0:0:
49,12,264937,2,0,P|84:37|89:94,1,90,2|0,2:2|0:0,0:0:0:0:
9,230,265280,5,2,1:2:0:0:
24,250,265365,1,0,1:2:0:0:
47,265,265451,1,10,0:2:0:0:
74,269,265537,1,0,1:0:0:0:
100,262,265622,1,2,1:2:0:0:
122,247,265708,1,0,1:2:0:0:
126,221,265794,5,10,2:3:0:0:
165,201,265879,1,0,1:2:0:0:
208,211,265965,1,0,1:2:0:0:
236,245,266051,1,0,1:2:0:0:
237,289,266137,1,4,1:3:0:0:
126,221,266308,6,0,P|168:147|282:153,1,198.000006042481,4|0,1:1|0:0,0:0:0:0:
400,22,266823,2,0,B|383:76|383:76|403:134|403:134|376:231,1,175.499991966248,12|0,2:2|0:0,0:0:0:0:
363,205,267165,1,2,3:2:0:0:
503,360,267337,1,2,2:1:0:0:
499,236,267508,1,10,2:2:0:0:
342,320,267680,2,0,P|294:304|227:290,1,90,2|0,2:1|3:2,0:0:0:0:
63,197,268023,6,0,L|77:250,1,45,2|0,2:1|0:0,0:0:0:0:
105,366,268194,1,8,2:2:0:0:
246,278,268365,6,0,L|260:224,1,45,2|0,2:1|0:0,0:0:0:0:
288,109,268536,1,0,3:2:0:0:
470,184,268708,6,0,L|484:237,1,45,2|0,2:1|0:0,0:0:0:0:
512,353,268879,1,8,2:2:0:0:
483,105,269051,6,0,B|429:78|387:136|403:147|384:191|314:184,1,180,6|2,3:2|2:1,0:0:0:0:
216,13,269565,2,0,P|178:22|163:87,1,90,10|2,2:2|2:1,0:0:0:0:
153,168,269908,1,2,3:2:0:0:
169,182,269993,1,0,2:3:0:0:
191,187,270079,1,2,2:1:0:0:
212,182,270165,1,0,2:3:0:0:
228,166,270251,6,0,L|240:121,1,45,10|0,2:2|0:0,0:0:0:0:
49,61,270423,2,0,L|61:106,1,45,2|0,2:1|0:0,0:0:0:0:
19,206,270594,1,0,3:2:0:0:
56,57,270765,6,0,L|68:102,1,45,2|0,2:1|0:0,0:0:0:0:
103,246,270937,1,8,2:2:0:0:
269,354,271108,6,0,L|281:309,1,45,2|0,2:1|0:0,0:0:0:0:
381,183,271280,1,0,3:2:0:0:
381,183,271365,1,0,1:2:0:0:
381,183,271451,2,0,L|367:234,1,45
407,352,271623,1,8,2:2:0:0:
445,321,271708,1,8,2:2:0:0:
431,275,271794,6,0,B|399:233|348:266|357:281|298:314|262:262,1,180,6|2,3:2|2:2,0:0:0:0:
121,356,272308,2,0,P|165:358|194:303,1,90,10|2,2:2|2:1,0:0:0:0:
66,176,272669,1,2,3:2:0:0:
5,277,272850,1,0,2:1:0:0:
100,348,273030,1,10,2:2:0:0:
194,241,273223,6,0,B|179:181|179:181|169:174|169:174|155:114,1,135,6|0,3:2|0:0,0:0:0:0:
125,42,273602,1,10,2:2:0:0:
125,42,273697,1,8,2:2:0:0:
125,42,273792,6,0,P|145:30|164:36,3,45,10|8|8|8,2:3|2:3|2:3|2:3,0:0:0:0:
237,0,274184,2,0,P|257:11|261:31,3,45,6|4|6|4,2:3|2:3|2:3|2:3,0:0:0:0:
334,73,274576,2,0,P|334:96|319:110,3,45,2|0|0|0,3:2|3:2|3:2|3:2,0:0:0:0:
247,144,275023,6,0,L|239:115,1,22.5,14|0,3:2|0:0,0:0:0:0:
318,200,275679,6,0,B|351:187|377:212|368:231|383:258|426:251,1,125.999996154785,14|2,3:2|2:2,0:0:0:0:
512,176,276314,2,0,B|520:155|471:64|300:136|336:257|343:259|352:261|258:482|170:266|64:335|64:335|56:344|56:344|14:215|230:37|249:153,1,935.999957153322,14|0,3:2|0:0,0:0:0:0:
267,153,279881,6,0,P|259:170|253:189,4,36,0|0|0|0|8,3:0|3:0|3:0|3:0|2:2,0:0:0:0:
