osu file format v14

[General]
AudioFilename: audio.mp3
AudioLeadIn: 0
PreviewTime: 509
Countdown: 0
SampleSet: Soft
StackLeniency: 0.3
Mode: 0
LetterboxInBreaks: 0
WidescreenStoryboard: 0

[Editor]
Bookmarks: 89320
DistanceSpacing: 0.8
BeatDivisor: 3
GridSize: 32
TimelineZoom: 1.5

[Metadata]
Title:Vampire
TitleUnicode:ヴァンパイア
Artist:Risa Yuzuki
ArtistUnicode:Risa Yuzuki
Creator:gazimal
Version:Vampire
Source:
Tags:ゆずりさ 柚木梨沙 japanese pop j-pop jpop cover full version DECO*27 Lavila wring
BeatmapID:3546478
BeatmapSetID:1735252

[Difficulty]
HPDrainRate:7
CircleSize:4.3
OverallDifficulty:8.5
ApproachRate:9.4
SliderMultiplier:1.8
SliderTickRate:1

[Events]
//Background and Video events
0,0,"88331974_p0.jpg",0,0
//Break Periods
2,89520,97560
2,127569,131951
//Storyboard Layer 0 (Background)
//Storyboard Layer 1 (Fail)
//Storyboard Layer 2 (Pass)
//Storyboard Layer 3 (Foreground)
//Storyboard Layer 4 (Overlay)
//Storyboard Sound Samples

[TimingPoints]
52,365.853658536585,4,2,0,60,1,0
600,-100,4,2,1,40,0,0
1515,-250,4,2,1,45,0,0
1789,-250,4,2,1,5,0,0
1881,-100,4,2,1,45,0,0
2247,-125,4,2,1,45,0,0
2430,-250,4,2,1,5,0,0
2521,-125,4,2,1,45,0,0
2704,-250,4,2,1,5,0,0
2795,-250,4,2,1,45,0,0
3070,-250,4,2,1,5,0,0
3161,-100,4,2,1,45,0,0
3710,-125,4,2,1,45,0,0
3893,-250,4,2,1,5,0,0
3984,-125,4,2,1,45,0,0
4259,-100,4,2,1,45,0,0
4625,-200,4,2,1,45,0,0
4808,-100,4,2,1,45,0,0
5173,-100,4,2,1,45,0,0
5356,-250,4,2,1,5,0,0
5448,-125,4,2,1,45,0,0
5631,-250,4,2,1,5,0,0
5722,-125,4,2,1,45,0,0
5905,-100,4,2,1,45,0,0
6180,-250,4,2,1,5,0,0
6271,-200,4,2,1,50,0,0
6454,-200,4,2,1,55,0,0
6637,-200,4,2,1,60,0,0
6820,-125,4,2,1,65,0,0
7369,-66.6666666666667,4,2,1,70,0,0
7643,-250,4,2,1,5,0,0
7734,-66.6666666666667,4,2,1,70,0,0
7917,-100,4,2,1,70,0,0
8649,-83.3333333333333,4,2,1,70,0,0
9015,-111.111111111111,4,2,1,70,0,0
9564,-66.6666666666667,4,2,1,70,0,0
9838,-250,4,2,1,5,0,0
9930,-100,4,2,1,70,0,0
10295,-100,4,2,1,60,0,0
11027,-100,4,2,1,65,0,0
11301,-100,4,2,1,70,0,0
11942,-250,4,2,1,60,0,0
12216,-250,4,2,1,5,0,0
12308,-100,4,2,1,60,0,0
13222,-100,4,2,1,70,0,0
14503,-100,4,2,1,80,0,0
14686,-100,4,2,1,70,0,0
15051,-100,4,2,1,80,0,0
15234,-100,4,2,1,70,0,0
20356,-100,4,2,1,80,0,0
20539,-100,4,2,1,70,0,0
20905,-100,4,2,1,80,0,0
21088,-100,4,2,1,70,0,0
23832,-200,4,2,1,70,0,0
24106,-200,4,2,1,5,0,0
24198,-125,4,2,1,70,0,0
24930,-83.3333333333333,4,2,1,55,0,0
25204,-200,4,2,1,5,0,0
25295,-250,4,2,1,55,0,0
25570,-200,4,2,1,5,0,0
25661,-83.3333333333333,4,2,1,55,0,0
25844,-200,4,2,1,5,0,0
25936,-250,4,2,1,55,0,0
26119,-200,4,2,1,5,0,0
26210,-125,4,2,1,55,0,0
35905,-66.6666666666667,4,2,1,70,0,0
36454,-66.6666666666667,4,2,1,55,0,0
36545,-200,4,2,1,5,0,0
36637,-66.6666666666667,4,2,1,60,0,0
37369,-100,4,2,1,60,0,0
37734,-200,4,2,1,60,0,0
38832,-100,4,2,1,60,0,0
39198,-200,4,2,1,60,0,0
41942,-100,4,2,1,60,0,0
43588,-200,4,2,1,60,0,0
44686,-100,4,2,1,60,0,0
45051,-200,4,2,1,60,0,0
46515,-100,4,2,1,60,0,0
47247,-66.6666666666667,4,2,1,60,0,0
47521,-200,4,2,1,5,0,0
47612,-125,4,2,1,60,0,0
48344,-200,4,2,1,70,0,0
48527,-200,4,2,1,5,0,0
48619,-200,4,2,1,70,0,0
48801,-200,4,2,1,5,0,0
48893,-200,4,2,1,70,0,0
49076,-83.3333333333333,4,2,1,70,0,0
49350,-200,4,2,1,5,0,0
49442,-83.3333333333333,4,2,1,70,0,0
49808,-200,4,2,1,70,0,0
49991,-200,4,2,1,5,0,0
50082,-200,4,2,1,70,0,0
50265,-200,4,2,1,5,0,0
50356,-200,4,2,1,70,0,0
51454,-200,4,2,1,5,0,0
51545,-200,4,2,1,70,0,0
51728,-200,4,2,1,5,0,0
51820,-100,4,2,1,70,0,0
54198,-200,4,2,1,75,0,0
54472,-200,4,2,1,5,0,0
54564,-200,4,2,1,75,0,0
54838,-200,4,2,1,5,0,0
54930,-66.6666666666667,4,2,1,75,0,0
55021,-200,4,2,1,5,0,0
55112,-200,4,2,1,75,0,0
55387,-200,4,2,1,5,0,0
55478,-50,4,2,1,75,0,0
55753,-200,4,2,1,5,0,0
55844,-100,4,2,1,75,0,0
56576,-100,4,2,1,45,0,0
56759,-285.714285714286,4,2,1,45,0,0
57033,-200,4,2,1,5,0,0
57125,-66.6666666666667,4,2,1,80,0,0
57399,-66.6666666666667,4,2,1,5,0,0
57491,-50,4,2,1,80,0,1
57582,-50,4,2,1,5,0,0
57856,-83.3333333333333,4,2,1,80,0,0
58222,-125,4,2,1,80,0,0
58405,-83.3333333333333,4,2,1,80,0,0
58771,-125,4,2,1,80,0,0
59320,-83.3333333333333,4,2,1,80,0,0
59503,-66.6666666666667,4,2,1,5,0,0
59594,-125,4,2,1,80,0,0
59868,-66.6666666666667,4,2,1,80,0,0
60006,-66.6666666666667,4,2,1,5,0,0
60051,-100,4,2,1,80,0,0
60417,-66.6666666666667,4,2,1,80,0,0
60555,-66.6666666666667,4,2,1,5,0,0
60600,-100,4,2,1,80,0,0
60783,-66.6666666666667,4,2,1,80,0,0
60966,-66.6666666666667,4,2,1,5,0,0
61058,-66.6666666666667,4,2,1,80,0,0
61149,-100,4,2,1,80,0,0
61515,-55.5555555555556,4,2,1,80,0,0
61789,-66.6666666666667,4,2,1,5,0,0
61881,-100,4,2,1,80,0,0
62612,-200,4,2,1,80,0,0
62978,-294.117647058824,4,2,1,80,0,0
63253,-66.6666666666667,4,2,1,5,0,0
63344,-50,4,2,1,80,0,1
63436,-50,4,2,1,80,0,0
64533,-66.6666666666667,4,2,1,5,0,0
64625,-50,4,2,1,80,0,0
64808,-100,4,2,1,80,0,0
65173,-50,4,2,1,80,0,0
65448,-66.6666666666667,4,2,1,5,0,0
65539,-100,4,2,1,80,0,0
65905,-200,4,2,1,80,0,0
66180,-66.6666666666667,4,2,1,5,0,0
66271,-55.5555555555556,4,2,1,80,0,0
66545,-66.6666666666667,4,2,1,5,0,0
66637,-55.5555555555556,4,2,1,80,0,0
67003,-100,4,2,1,80,0,0
67369,-83.3333333333333,4,2,1,80,0,0
69198,-83.3333333333333,4,2,1,80,0,1
69289,-83.3333333333333,4,2,1,80,0,0
70295,-66.6666666666667,4,2,1,80,0,0
70433,-66.6666666666667,4,2,1,5,0,0
70478,-200,4,2,1,80,0,0
71027,-400,4,2,1,80,0,0
71301,-66.6666666666667,4,2,1,5,0,0
71393,-83.3333333333333,4,2,1,80,0,0
71667,-66.6666666666667,4,2,1,5,0,0
71759,-83.3333333333333,4,2,1,80,0,0
74686,-200,4,2,1,80,0,0
74960,-66.6666666666667,4,2,1,5,0,0
75051,-50,4,2,1,80,0,1
75143,-50,4,2,1,80,0,0
76241,-66.6666666666667,4,2,1,5,0,0
76332,-50,4,2,1,80,0,0
76515,-100,4,2,1,80,0,0
76881,-50,4,2,1,80,0,0
77155,-66.6666666666667,4,2,1,5,0,0
77247,-100,4,2,1,80,0,0
77612,-200,4,2,1,80,0,0
77887,-66.6666666666667,4,2,1,5,0,0
77978,-55.5555555555556,4,2,1,80,0,0
78253,-66.6666666666667,4,2,1,5,0,0
78344,-55.5555555555556,4,2,1,80,0,0
78710,-83.3333333333333,4,2,1,80,0,0
80173,-125,4,2,1,80,0,0
80448,-66.6666666666667,4,2,1,5,0,0
80539,-100,4,2,1,80,0,0
82186,-66.6666666666667,4,2,1,80,0,0
82460,-66.6666666666667,4,2,1,5,0,0
82551,-66.6666666666667,4,2,1,80,0,0
82734,-250,4,2,1,80,0,0
83100,-250,4,2,1,5,0,0
83466,-100,4,2,1,65,0,0
84747,-100,4,2,1,75,0,0
84930,-100,4,2,1,65,0,0
85295,-100,4,2,1,75,0,0
85478,-100,4,2,1,65,0,0
88588,-125,4,2,1,65,0,0
88954,-166.666666666667,4,2,1,65,0,0
98100,-166.666666666667,4,2,1,40,0,0
99564,-90.9090909090909,4,2,1,65,0,0
99930,-90.9090909090909,4,2,3,65,0,0
100112,-90.9090909090909,4,2,1,65,0,0
100478,-90.9090909090909,4,2,3,65,0,0
100661,-90.9090909090909,4,2,1,65,0,0
101027,-55.5555555555556,4,2,1,60,0,0
101759,-100,4,2,1,60,0,0
102308,-55.5555555555556,4,2,1,60,0,0
103222,-100,4,2,1,60,0,0
103588,-200,4,2,1,60,0,0
106881,-66.6666666666667,4,2,1,60,0,0
107018,-66.6666666666667,4,2,1,5,0,0
107064,-66.6666666666667,4,2,1,60,0,0
107201,-66.6666666666667,4,2,1,5,0,0
107247,-66.6666666666667,4,2,1,60,0,0
107384,-66.6666666666667,4,2,1,5,0,0
107430,-66.6666666666667,4,2,1,60,0,0
107567,-66.6666666666667,4,2,1,5,0,0
107612,-100,4,2,1,60,0,0
108344,-66.6666666666667,4,2,1,60,0,0
108481,-66.6666666666667,4,2,1,5,0,0
108527,-66.6666666666667,4,2,1,60,0,0
108664,-66.6666666666667,4,2,1,5,0,0
108710,-66.6666666666667,4,2,1,60,0,0
108847,-66.6666666666667,4,2,1,5,0,0
108893,-66.6666666666667,4,2,1,60,0,0
109030,-66.6666666666667,4,2,1,5,0,0
109076,-100,4,2,1,60,0,0
110173,-50,4,2,1,60,0,0
110311,-50,4,2,1,5,0,0
110356,-200,4,2,1,60,0,0
110539,-50,4,2,1,60,0,0
110676,-50,4,2,1,5,0,0
110722,-200,4,2,1,60,0,0
110905,-50,4,2,1,60,0,0
111042,-50,4,2,1,5,0,0
111088,-200,4,2,1,60,0,0
112734,-66.6666666666667,4,2,1,70,0,0
112917,-66.6666666666667,4,2,1,5,0,0
113009,-66.6666666666667,4,2,1,70,0,0
113192,-66.6666666666667,4,2,1,5,0,0
113283,-66.6666666666667,4,2,1,70,0,0
113466,-200,4,2,1,70,0,0
113741,-66.6666666666667,4,2,1,5,0,0
113832,-200,4,2,1,70,0,0
114198,-66.6666666666667,4,2,1,70,0,0
114381,-66.6666666666667,4,2,1,5,0,0
114472,-66.6666666666667,4,2,1,70,0,0
114655,-66.6666666666667,4,2,1,5,0,0
114747,-66.6666666666667,4,2,1,70,0,0
115844,-66.6666666666667,4,2,1,5,0,0
115936,-66.6666666666667,4,2,1,70,0,0
116119,-66.6666666666667,4,2,1,5,0,0
116210,-100,4,2,1,70,0,0
118588,-200,4,2,1,70,0,0
118771,-66.6666666666667,4,2,1,5,0,0
118862,-200,4,2,1,70,0,0
119045,-66.6666666666667,4,2,1,5,0,0
119137,-200,4,2,1,70,0,0
119320,-66.6666666666667,4,2,1,70,0,0
119594,-66.6666666666667,4,2,1,5,0,0
119686,-66.6666666666667,4,2,1,70,0,0
120051,-200,4,2,1,70,0,0
120234,-66.6666666666667,4,2,1,5,0,0
120326,-200,4,2,1,70,0,0
120509,-66.6666666666667,4,2,1,5,0,0
120600,-200,4,2,1,70,0,0
123893,-100,4,2,1,70,0,0
124442,-62.5,4,2,1,75,0,0
125631,-62.5,4,2,1,5,0,0
125722,-333.333333333333,4,2,1,75,0,0
125997,-66.6666666666667,4,2,1,5,0,0
126088,-100,4,2,1,75,0,0
126637,-100,4,2,1,45,0,0
132582,-66.6666666666667,4,2,1,5,0,0
132673,-200,4,2,1,45,0,0
133131,-66.6666666666667,4,2,1,5,0,0
133222,-83.3333333333333,4,2,1,70,0,0
133862,-66.6666666666667,4,2,1,5,0,0
133954,-71.4285714285714,4,2,1,70,0,0
134594,-66.6666666666667,4,2,1,5,0,0
134686,-83.3333333333333,4,2,1,70,0,0
135326,-66.6666666666667,4,2,1,5,0,0
135417,-100,4,2,1,70,0,0
136149,-100,4,2,1,60,0,0
136881,-100,4,2,1,65,0,0
137612,-100,4,2,1,70,0,0
137978,-100,4,2,1,75,0,0
138344,-100,4,2,1,80,0,0
138710,-333.333333333333,4,2,1,80,0,0
138984,-66.6666666666667,4,2,1,5,0,0
139076,-333.333333333333,4,2,1,50,0,0
139442,-50,4,2,1,80,0,1
139533,-50,4,2,1,80,0,0
139716,-66.6666666666667,4,2,1,5,0,0
139808,-66.6666666666667,4,2,1,80,0,0
140082,-100,4,2,1,80,0,0
140356,-83.3333333333333,4,2,1,80,0,0
140722,-100,4,2,1,80,0,0
141271,-83.3333333333333,4,2,1,80,0,0
141454,-66.6666666666667,4,2,1,5,0,0
141545,-100,4,2,1,80,0,0
141820,-66.6666666666667,4,2,1,80,0,0
141958,-66.6666666666667,4,2,1,5,0,0
142003,-100,4,2,1,80,0,0
142369,-66.6666666666667,4,2,1,80,0,0
142507,-66.6666666666667,4,2,1,5,0,0
142551,-100,4,2,1,80,0,0
142734,-66.6666666666667,4,2,1,80,0,0
142917,-66.6666666666667,4,2,1,5,0,0
143009,-100,4,2,1,80,0,0
143466,-55.5555555555556,4,2,1,80,0,0
143603,-55.5555555555556,4,2,1,5,0,0
143649,-125,4,2,1,80,0,0
144381,-100,4,2,1,80,0,0
144564,-166.666666666667,4,2,1,80,0,0
144930,-333.333333333334,4,2,1,80,0,0
145204,-66.6666666666667,4,2,1,5,0,0
145295,-50,4,2,1,80,0,1
145387,-50,4,2,1,80,0,0
146484,-66.6666666666667,4,2,1,5,0,0
146576,-50,4,2,1,80,0,0
146759,-100,4,2,1,80,0,0
147125,-50,4,2,1,80,0,0
147399,-66.6666666666667,4,2,1,5,0,0
147491,-100,4,2,1,80,0,0
147856,-250,4,2,1,80,0,0
148131,-66.6666666666667,4,2,1,5,0,0
148222,-55.5555555555556,4,2,1,80,0,0
148497,-66.6666666666667,4,2,1,5,0,0
148588,-55.5555555555556,4,2,1,80,0,0
148954,-100,4,2,1,80,0,0
149320,-83.3333333333333,4,2,1,80,0,0
151149,-83.3333333333333,4,2,1,80,0,1
151241,-83.3333333333333,4,2,1,80,0,0
152064,-66.6666666666667,4,2,1,80,0,0
152384,-66.6666666666667,4,2,1,5,0,0
152430,-200,4,2,1,80,0,0
152978,-66.6666666666667,4,2,1,80,0,0
153344,-25,4,2,1,80,0,0
154259,-76.9230769230769,4,2,1,80,0,0
154533,-66.6666666666667,4,2,1,5,0,0
154625,-25,4,2,1,80,0,0
154808,-76.9230769230769,4,2,1,80,0,0
155082,-66.6666666666667,4,2,1,5,0,0
155173,-76.9230769230769,4,2,1,80,0,0
155356,-45.4545454545455,4,2,1,80,0,0
155539,-41.6666666666667,4,2,1,80,0,0
156271,-100,4,2,1,80,0,0
156637,-333.333333333333,4,2,1,80,0,0
156911,-66.6666666666667,4,2,1,5,0,0
157003,-50,4,2,1,80,0,1
157094,-50,4,2,1,80,0,0
158192,-66.6666666666667,4,2,1,5,0,0
158283,-50,4,2,1,80,0,0
158466,-100,4,2,1,80,0,0
158832,-50,4,2,1,80,0,0
159106,-66.6666666666667,4,2,1,5,0,0
159198,-100,4,2,1,80,0,0
159564,-200,4,2,1,80,0,0
159838,-66.6666666666667,4,2,1,5,0,0
159930,-55.5555555555556,4,2,1,80,0,0
160204,-66.6666666666667,4,2,1,5,0,0
160295,-55.5555555555556,4,2,1,80,0,0
160661,-100,4,2,1,80,0,0
161027,-83.3333333333333,4,2,1,80,0,0
162399,-66.6666666666667,4,2,1,5,0,0
162491,-100,4,2,1,80,0,0
164137,-76.9230769230769,4,2,1,80,0,0
164503,-100,4,2,1,80,0,0
164686,-66.6666666666667,4,2,1,80,0,0
165051,-200,4,2,1,80,0,0
165417,-66.6666666666667,4,2,1,75,0,0
165692,-66.6666666666667,4,2,1,5,0,0
165783,-55.5555555555556,4,2,1,75,0,1
165875,-55.5555555555556,4,2,1,5,0,0
166149,-90.9090909090909,4,2,1,75,0,0
166698,-66.6666666666667,4,2,1,75,0,0
166972,-66.6666666666667,4,2,1,5,0,0
167064,-90.9090909090909,4,2,1,75,0,0
168344,-66.6666666666667,4,2,1,75,0,0
168619,-66.6666666666667,4,2,1,5,0,0
168710,-55.5555555555556,4,2,1,75,0,0
168801,-66.6666666666667,4,2,1,5,0,0
169076,-90.9090909090909,4,2,1,75,0,0
169625,-55.5555555555556,4,2,1,75,0,0
169899,-66.6666666666667,4,2,1,5,0,0
169991,-90.9090909090909,4,2,1,75,0,0
170905,-66.6666666666667,4,2,1,75,0,0
171180,-66.6666666666667,4,2,1,5,0,0
171271,-71.4285714285714,4,2,1,75,0,0
171362,-66.6666666666667,4,2,1,5,0,0
171637,-55.5555555555556,4,2,1,75,0,1
171728,-66.6666666666667,4,2,1,5,0,0
172003,-90.9090909090909,4,2,1,75,0,0
172551,-55.5555555555556,4,2,1,75,0,0
172826,-66.6666666666667,4,2,1,5,0,0
172917,-90.9090909090909,4,2,1,75,0,0
174198,-333.333333333333,4,2,1,75,0,0
174472,-66.6666666666667,4,2,1,5,0,0
174564,-55.5555555555556,4,2,1,75,0,0
174838,-66.6666666666667,4,2,1,5,0,0
174930,-55.5555555555556,4,2,1,75,0,0
175295,-90.9090909090909,4,2,1,75,0,0
176759,-55.5555555555556,4,2,1,75,0,1
177125,-55.5555555555556,4,2,1,5,0,0

[Colours]
Combo1 : 250,61,46
Combo2 : 20,239,157
Combo3 : 255,128,192

[HitObjects]
133,294,600,5,2,0:0:0:0:
133,294,783,1,2,0:0:0:0:
133,294,966,1,2,0:0:0:0:
53,374,1149,1,2,0:0:0:0:
53,374,1332,1,2,0:2:0:0:
203,282,1515,6,0,P|196:255|168:232,1,54,2|0,0:0|0:0,0:0:0:0:
168,355,1881,2,0,P|176:301|203:281,1,90,2|0,0:0|0:0,0:0:0:0:
227,281,2155,1,0,0:0:0:0:
227,281,2247,2,0,P|253:308|292:307,1,72,2|0,0:0|0:0,0:0:0:0:
355,260,2521,2,0,P|393:261|418:299,1,72,2|0,0:0|0:0,0:0:0:0:
439,371,2795,6,0,P|463:355|498:354,1,54,2|0,0:0|0:0,0:0:0:0:
439,371,3161,2,0,L|396:354,1,45,2|2,0:0|0:0,0:0:0:0:
285,309,3344,1,2,0:0:0:0:
414,284,3527,1,2,0:0:0:0:
270,384,3710,2,0,P|233:369|215:320,1,72,2|0,0:0|0:0,0:0:0:0:
165,271,3984,2,0,P|128:286|110:335,1,72,2|0,0:0|0:0,0:0:0:0:
32,384,4259,6,0,L|9:278,1,90,2|0,0:0|0:0,0:0:0:0:
0,217,4533,1,2,0:0:0:0:
0,217,4625,2,0,L|27:222,1,22.5,2|0,0:0|0:0,0:0:0:0:
165,271,4808,2,0,L|154:222,1,45,2|2,0:0|0:0,0:0:0:0:
131,113,4990,1,2,0:0:0:0:
131,113,5082,1,0,0:0:0:0:
131,113,5173,2,0,P|84:133|51:109,1,90,2|0,3:2|0:0,0:0:0:0:
1,25,5448,2,0,P|36:33|78:41,1,72,2|0,0:0|0:0,0:0:0:0:
160,39,5722,2,0,L|201:29,1,36,2|0,0:0|0:0,0:0:0:0:
268,10,5905,6,0,L|406:44,1,135,0|0,3:2|0:0,0:0:0:0:
492,60,6271,2,0,L|482:15,2,45,2|2|2,3:2|0:0|3:2,0:0:0:0:
406,118,6820,2,0,L|371:109,1,36,10|0,0:0|0:0,0:0:0:0:
194,30,7003,2,0,L|160:39,1,36,10|0,3:2|0:0,0:0:0:0:
2,125,7186,5,2,3:2:0:0:
2,125,7277,1,2,3:2:0:0:
2,125,7369,2,0,B|61:92|112:141|112:141|121:194|179:205,1,202.500007724762,6|0,3:2|0:0,0:0:0:0:
211,142,7734,2,0,B|209:126|214:109|214:109|200:124|184:132,1,67.5000025749208,10|0,3:2|0:0,0:0:0:0:
43,196,7917,2,0,P|55:240|63:295,1,90,2|0,0:0|3:2,0:0:0:0:
246,226,8283,1,2,0:0:0:0:
246,226,8375,1,0,0:0:0:0:
246,226,8466,1,8,3:2:0:0:
34,357,8649,6,0,P|71:320|140:332,1,107.999996704102,2|0,0:0|3:2,0:0:0:0:
308,350,9015,2,0,L|256:362,1,40.4999987640381,10|0,0:0|0:0,0:0:0:0:
170,384,9198,1,10,3:2:0:0:
304,265,9381,1,2,0:0:0:0:
473,384,9564,2,0,L|427:167,1,202.500007724762,2|0,3:2|0:0,0:0:0:0:
403,112,9930,2,0,P|377:120|361:152,1,45,10|0,3:2|0:0,0:0:0:0:
393,206,10112,2,0,P|414:200|430:184,1,45,2|0,0:0|0:0,0:0:0:0:
472,41,10295,5,10,3:2:0:0:
461,29,10387,1,2,0:3:0:0:
432,17,10478,1,8,3:2:0:0:
395,14,10570,1,2,0:3:0:0:
357,31,10661,1,2,0:0:0:0:
324,74,10753,1,2,0:3:0:0:
266,110,10844,1,2,0:3:0:0:
196,112,10936,1,2,0:3:0:0:
134,65,11027,5,10,3:2:0:0:
145,51,11119,1,2,0:3:0:0:
166,45,11210,1,10,3:2:0:0:
194,52,11301,1,2,0:3:0:0:
220,82,11393,1,2,0:2:0:0:
215,132,11484,1,2,0:3:0:0:
171,188,11576,1,2,0:2:0:0:
96,193,11667,1,2,0:3:0:0:
39,139,11759,1,2,0:0:0:0:
134,65,11942,6,0,L|191:50,1,54,8|0,3:2|0:0,0:0:0:0:
181,62,12308,2,0,L|119:55,1,45,8|0,3:2|0:0,0:0:0:0:
0,38,12491,1,8,3:2:0:0:
0,38,13222,5,6,3:2:0:0:
39,139,13405,1,2,0:0:0:0:
267,180,13588,1,10,3:2:0:0:
219,0,13771,1,2,0:0:0:0:
133,169,13954,1,2,3:2:0:0:
111,70,14137,1,2,0:0:0:0:
307,75,14320,1,10,3:2:0:0:
123,251,14503,6,0,P|96:245|80:232,1,45,2|0,0:0|0:0,0:0:0:0:
39,139,14686,1,2,3:2:0:0:
90,277,14869,1,2,0:0:0:0:
257,252,15051,6,0,P|284:246|300:233,1,45,10|0,3:2|0:0,0:0:0:0:
341,140,15234,1,2,0:0:0:0:
421,368,15417,5,2,3:2:0:0:
390,284,15600,1,2,0:0:0:0:
428,384,15783,1,10,3:2:0:0:
492,189,15966,1,2,0:0:0:0:
297,384,16149,5,6,3:2:0:0:
470,314,16332,2,0,P|494:312|515:324,1,45,2|0,0:0|0:0,0:0:0:0:
220,316,16515,1,10,3:2:0:0:
390,284,16698,2,0,P|411:272|423:252,1,45,2|0,0:0|0:0,0:0:0:0:
119,375,16881,1,2,3:2:0:0:
290,313,17064,2,0,P|314:311|335:323,1,45,2|0,0:0|0:0,0:0:0:0:
41,314,17247,1,10,3:2:0:0:
188,345,17430,2,0,P|209:333|221:313,1,45,2|0,0:0|0:0,0:0:0:0:
164,166,17612,5,2,3:3:0:0:
130,139,17703,1,2,0:3:0:0:
89,152,17794,1,2,0:3:0:0:
78,194,17886,1,2,0:3:0:0:
107,226,17977,1,10,3:2:0:0:
221,106,18161,1,2,0:0:0:0:
278,46,18344,1,2,3:2:0:0:
152,22,18527,6,0,L|199:32,1,45,8|0,0:1|0:1,0:1:0:0:
305,128,18710,2,0,L|352:117,1,45,8|0,3:1|0:0,0:0:0:0:
477,26,18893,5,0,3:2:0:0:
477,26,18984,1,0,3:2:0:0:
477,26,19076,1,6,3:2:0:0:
512,255,19259,1,2,0:0:0:0:
331,206,19442,1,10,3:2:0:0:
349,118,19625,2,0,L|328:222,1,90,2|2,0:0|3:2,0:0:0:0:
501,178,19991,1,2,0:0:0:0:
491,100,20173,1,10,3:2:0:0:
321,281,20356,6,0,P|344:283|374:294,1,45,2|0,0:0|0:0,0:0:0:0:
470,378,20539,1,2,3:2:0:0:
327,355,20722,1,2,0:0:0:0:
434,234,20905,2,0,P|443:254|449:286,1,45,10|0,3:2|0:0,0:0:0:0:
399,369,21088,1,2,0:0:0:0:
208,334,21271,5,2,3:2:0:0:
321,281,21454,1,2,0:0:0:0:
184,338,21637,1,10,3:2:0:0:
399,369,21820,1,2,0:0:0:0:
212,223,22003,5,2,3:2:0:0:
56,275,22186,2,0,P|67:295|76:316,1,45,2|0,0:0|0:0,0:0:0:0:
256,140,22369,1,10,3:2:0:0:
119,232,22552,2,0,P|110:211|100:192,1,45,2|0,0:0|0:0,0:0:0:0:
300,57,22734,1,2,3:2:0:0:
144,109,22917,2,0,P|154:128|163:149,1,45,2|0,0:0|0:0,0:0:0:0:
206,65,23100,2,0,P|197:44|187:25,1,45,10|0,3:2|0:0,0:0:0:0:
30,26,23283,5,10,0:0:0:0:
30,26,23375,1,2,0:0:0:0:
30,26,23466,2,0,P|19:45|10:66,1,45,2|0,3:2|0:0,0:0:0:0:
56,275,23649,1,2,0:0:0:0:
144,109,23832,6,0,L|76:123,1,67.5,14|0,3:2|0:0,0:0:0:0:
7,147,24198,2,0,P|19:168|42:181,1,36,2|0,3:2|0:0,0:0:0:0:
119,232,24381,2,0,P|143:232|165:218,1,36,8|0,0:0|0:0,0:0:0:0:
287,177,24564,2,0,P|299:156|298:129,1,36,8|0,3:2|0:0,0:0:0:0:
324,28,24747,2,0,P|312:7|289:-6,1,36,8|0,0:0|0:0,0:0:0:0:
144,109,24930,6,0,L|182:288,1,161.999995056153,6|0,3:2|0:0,0:0:0:0:
194,277,25295,2,0,L|181:334,1,54,2|0,3:2|0:0,0:0:0:0:
287,177,25661,6,0,L|312:55,1,107.999996704102,2|0,3:2|0:0,0:0:0:0:
331,63,25936,2,0,L|321:16,1,36,2|0,0:0|0:0,0:0:0:0:
361,221,26210,6,0,L|378:302,1,72,2|0,0:0|3:2,0:0:0:0:
395,375,26576,1,2,0:0:0:0:
465,260,26759,5,2,3:2:0:0:
361,221,26942,1,2,0:0:0:0:
282,302,27125,1,2,3:2:0:0:
108,239,27308,5,2,0:2:0:0:
167,122,27491,1,2,3:2:0:0:
287,177,27673,2,0,L|270:98,1,72,2|0,0:0|3:2,0:0:0:0:
35,36,28039,5,2,0:0:0:0:
98,160,28222,1,2,3:2:0:0:
30,115,28405,1,2,0:0:0:0:
105,2,28588,1,2,3:2:0:0:
167,122,28771,1,2,0:0:0:0:
173,43,28954,1,2,3:2:0:0:
30,115,29137,6,0,L|45:192,1,72,2|0,0:0|3:2,0:0:0:0:
90,349,29503,1,2,0:3:0:0:
90,349,29594,1,2,0:3:0:0:
90,349,29686,1,2,3:3:0:0:
0,384,29869,1,2,0:3:0:0:
63,263,30051,1,2,3:3:0:0:
190,384,30234,1,2,0:3:0:0:
297,301,30417,1,2,3:3:0:0:
372,365,30600,1,2,0:3:0:0:
497,282,30783,5,2,3:3:0:0:
497,282,30966,1,2,0:3:0:0:
372,365,31149,1,2,3:2:0:0:
359,237,31332,1,2,0:3:0:0:
359,237,31423,1,2,0:3:0:0:
359,237,31515,1,2,3:3:0:0:
472,378,31698,1,2,0:3:0:0:
497,282,31881,1,0,3:2:0:0:
297,301,32064,1,2,0:3:0:0:
458,190,32247,5,2,3:3:0:0:
458,190,32430,1,2,0:3:0:0:
372,365,32612,1,2,3:2:0:0:
297,301,32795,1,2,0:3:0:0:
389,280,32978,1,2,3:3:0:0:
286,384,33161,1,2,0:3:0:0:
184,256,33344,1,2,3:3:0:0:
137,343,33527,2,0,L|177:334,1,36,2|0,0:3|0:0,0:0:0:0:
6,371,33710,5,2,3:3:0:0:
6,371,33893,1,2,0:3:0:0:
105,238,34076,1,2,3:2:0:0:
0,270,34259,1,2,0:3:0:0:
0,270,34350,1,2,0:3:0:0:
0,270,34442,1,2,3:3:0:0:
137,343,34625,1,2,0:3:0:0:
71,128,34808,1,2,3:2:0:0:
105,238,34991,1,2,0:3:0:0:
154,44,35173,5,2,3:3:0:0:
154,44,35356,1,2,0:3:0:0:
34,10,35539,1,2,3:2:0:0:
71,128,35722,1,2,0:3:0:0:
137,142,35905,6,0,L|55:124,1,67.5000025749208,10|0,3:2|0:0,0:0:0:0:
71,128,36271,6,0,L|272:85,1,202.500007724762,8|2,3:2|0:0,0:0:0:0:
339,69,36637,5,6,3:2:0:0:
268,285,36820,1,2,0:0:0:0:
482,230,37003,1,10,3:2:0:0:
421,91,37186,1,2,0:0:0:0:
447,161,37369,2,0,L|402:168,1,45,8|0,3:1|0:0,0:0:0:0:
268,285,37551,2,0,L|313:292,1,45,8|0,0:1|0:0,0:0:0:0:
412,384,37734,6,0,L|456:373,1,45,8|2,3:1|0:0,0:0:0:0:
481,371,38009,1,2,0:0:0:0:
481,371,38100,1,2,3:2:0:0:
392,269,38283,1,2,0:0:0:0:
202,323,38466,1,10,3:2:0:0:
26,376,38649,1,2,0:0:0:0:
124,384,38832,2,0,L|112:329,1,45,8|0,3:1|0:0,0:0:0:0:
90,233,39015,2,0,L|78:178,1,45,8|0,0:1|0:0,0:0:0:0:
57,82,39198,6,0,L|45:27,1,45,8|2,3:1|0:0,0:0:0:0:
43,9,39472,1,2,0:0:0:0:
43,9,39564,1,6,3:2:0:0:
172,70,39747,1,2,0:0:0:0:
172,70,39838,1,2,0:0:0:0:
172,70,39930,1,10,3:2:0:0:
247,10,40112,1,2,0:0:0:0:
321,173,40295,1,2,3:2:0:0:
397,104,40478,1,2,0:0:0:0:
397,104,40570,1,2,0:0:0:0:
397,104,40661,1,10,3:2:0:0:
280,88,40844,1,2,0:0:0:0:
484,22,41027,5,2,3:2:0:0:
432,216,41210,1,2,0:0:0:0:
432,216,41301,1,2,0:0:0:0:
432,216,41393,1,10,3:2:0:0:
288,95,41576,1,2,0:0:0:0:
288,95,41667,1,0,0:0:0:0:
288,95,41759,1,2,3:2:0:0:
441,94,41942,2,0,L|396:103,1,45,8|0,0:0|0:0,0:0:0:0:
181,144,42125,1,10,3:2:0:0:
169,141,42216,1,2,0:3:0:0:
158,139,42307,1,2,0:3:0:0:
147,136,42399,1,2,0:3:0:0:
136,134,42490,5,6,3:2:0:0:
432,216,42673,1,2,0:0:0:0:
432,216,42856,1,10,3:2:0:0:
111,358,43039,1,2,0:0:0:0:
73,276,43222,2,0,L|116:285,1,45,8|0,3:1|0:0,0:0:0:0:
233,310,43405,2,0,L|276:319,1,45,8|0,0:1|0:0,0:0:0:0:
393,344,43588,6,0,L|436:353,1,45,8|2,3:1|0:0,0:0:0:0:
464,362,43862,1,2,0:0:0:0:
464,362,43954,1,2,3:2:0:0:
352,269,44137,1,2,0:0:0:0:
337,116,44320,1,10,3:2:0:0:
487,15,44503,1,2,0:0:0:0:
509,121,44686,2,0,P|492:105|458:100,1,45,8|0,3:1|0:0,0:0:0:0:
337,116,44869,2,0,P|331:138|344:170,1,45,8|0,0:1|0:0,0:0:0:0:
430,274,45051,6,0,P|452:267|473:240,1,45,8|2,3:1|0:0,0:0:0:0:
482,231,45326,1,2,0:0:0:0:
482,231,45417,1,6,3:2:0:0:
352,269,45600,1,2,0:0:0:0:
131,171,45783,1,10,3:2:0:0:
131,171,45966,1,2,0:0:0:0:
351,34,46149,1,2,3:2:0:0:
351,34,46332,1,2,0:0:0:0:
184,77,46515,2,0,L|195:131,1,45,10|0,3:2|0:0,0:0:0:0:
234,306,46698,2,0,L|245:360,1,45,2|0,0:0|0:0,0:0:0:0:
61,375,46881,5,2,3:2:0:0:
213,213,47064,1,2,0:0:0:0:
35,263,47247,2,0,L|235:305,1,202.500007724762,14|0,3:2|0:0,0:0:0:0:
317,356,47612,2,0,L|361:346,1,36,10|0,3:2|0:0,0:0:0:0:
435,310,47795,2,0,L|479:319,1,36,8|0,0:0|0:0,0:0:0:0:
233,305,47978,5,10,3:2:0:0:
183,294,48069,1,2,0:3:0:0:
134,284,48161,1,10,0:3:0:0:
84,273,48252,1,2,0:3:0:0:
35,263,48344,6,0,P|61:257|86:230,1,45,6|0,3:2|0:0,0:0:0:0:
35,146,48619,2,0,P|27:171|38:206,1,45,0|0,3:2|0:0,0:0:0:0:
144,211,48893,5,2,3:2:0:0:
144,211,48984,1,2,0:0:0:0:
144,211,49076,2,0,P|205:172|298:200,1,161.999995056153,10|0,0:0|0:0,0:0:0:0:
344,241,49442,1,2,0:0:0:0:
403,158,49625,5,0,3:2:0:0:
403,158,49716,1,0,3:2:0:0:
403,158,49808,2,0,L|353:168,1,45,4|0,3:2|0:0,0:0:0:0:
482,205,50082,2,0,L|516:242,1,45,0|0,3:2|0:0,0:0:0:0:
484,113,50356,5,2,3:2:0:0:
484,113,50448,1,2,0:0:0:0:
484,113,50539,1,10,0:0:0:0:
366,308,50722,1,0,3:2:0:0:
288,191,50905,5,10,0:0:0:0:
277,182,50996,1,2,0:0:0:0:
248,172,51088,1,2,0:0:0:0:
192,176,51179,1,2,0:0:0:0:
144,211,51271,6,0,P|127:195|97:190,1,45,6|0,3:2|0:0,0:0:0:0:
136,70,51545,2,0,P|130:92|136:114,1,45,0|0,3:2|0:0,0:0:0:0:
18,148,51820,6,0,P|40:141|56:126,1,45,0|0,3:2|0:0,0:0:0:0:
107,0,52003,1,10,0:0:0:0:
107,0,52369,5,2,3:2:0:0:
107,0,52551,1,2,3:2:0:0:
33,235,52734,5,10,0:0:0:0:
205,96,52917,1,2,3:2:0:0:
18,148,53100,5,10,0:0:0:0:
233,249,53283,1,2,3:2:0:0:
233,249,53375,1,0,3:2:0:0:
233,249,53466,1,8,0:0:0:0:
59,359,53649,6,0,L|48:310,1,45,2|0,3:2|3:2,0:0:0:0:
18,148,53832,1,8,0:0:0:0:
33,235,54015,1,0,3:2:0:0:
265,115,54198,6,0,P|239:95|187:106,1,67.5,0|0,3:2|0:0,0:0:0:0:
361,223,54564,2,0,P|386:242|438:231,1,67.5,0|0,3:2|0:0,0:0:0:0:
267,105,54930,6,0,P|241:85|189:96,1,67.5000025749208,0|0,3:2|0:0,0:0:0:0:
358,235,55112,2,0,P|383:254|435:243,1,67.5,0|0,3:2|0:0,0:0:0:0:
430,137,55478,6,0,B|361:94|303:174|311:175|260:255|184:212,1,270,10|0,3:2|0:0,0:0:0:0:
125,194,55844,2,0,L|134:147,1,45,0|0,3:2|0:0,0:0:0:0:
20,28,56027,2,0,L|29:74,1,45,8|0,0:0|0:0,0:0:0:0:
75,309,56210,2,0,L|84:355,1,45,8|0,0:0|0:0,0:0:0:0:
50,179,56393,5,8,0:0:0:0:
71,357,56576,2,0,L|61:312,1,45,2|0,0:3|0:0,0:0:0:0:
14,77,56759,6,0,L|2:29,1,47.2499985580445,2|0,0:3|0:0,0:0:0:0:
50,179,57125,6,0,B|98:207|141:148|129:148|174:92|234:121,1,202.500007724762,6|0,3:2|0:0,0:0:0:0:
5,140,57491,2,0,P|140:149|303:163,1,270,2|0,3:1|0:0,0:0:0:0:
347,168,57856,2,0,P|291:185|284:248,1,107.999996704102,2|0,3:2|0:0,0:0:0:0:
286,262,58131,1,2,0:0:0:0:
286,262,58222,2,0,L|325:253,1,36,8|0,3:2|0:0,0:0:0:0:
463,362,58405,6,0,L|348:337,1,107.999996704102,2|2,0:0|3:2,0:0:0:0:
252,357,58771,2,0,L|291:348,1,36,2|0,0:0|0:0,0:0:0:0:
486,295,58954,1,8,3:2:0:0:
321,254,59137,2,0,L|286:262,1,36,2|0,0:0|0:0,0:0:0:0:
63,315,59320,2,0,P|87:268|148:277,1,107.999996704102,2|0,3:2|0:0,0:0:0:0:
160,277,59594,1,2,0:0:0:0:
160,277,59686,2,0,L|152:240,1,36,8|0,3:2|0:0,0:0:0:0:
155,69,59869,6,0,B|110:81|110:81|105:86|105:86|52:101,1,101.250003862381,2|0,0:0|0:0,0:0:0:0:
84,78,60051,2,0,L|140:90,1,45,4|0,3:2|0:0,0:0:0:0:
345,111,60234,5,2,0:0:0:0:
345,111,60326,1,2,0:0:0:0:
345,111,60417,2,0,B|390:99|390:99|395:94|395:94|448:79,1,101.250003862381,10|0,3:2|0:0,0:0:0:0:
416,102,60600,2,0,L|360:90,1,45,2|2,0:0|0:0,0:0:0:0:
222,1,60783,6,0,L|252:144,1,135.000005149842,2|0,3:2|0:0,0:0:0:0:
296,209,61058,1,2,0:0:0:0:
296,209,61149,2,0,L|286:253,1,45,8|0,3:2|0:0,0:0:0:0:
265,377,61332,2,0,P|278:358|306:349,1,45,2|0,0:0|0:0,0:0:0:0:
492,301,61515,6,0,B|527:271|509:189|435:189|369:237|375:303,1,242.999992584229,0|0,3:2|0:0,0:0:0:0:
297,349,61881,2,0,P|276:339|264:321,1,45,10|0,3:2|0:0,0:0:0:0:
65,260,62064,2,0,P|85:250|97:232,1,45,2|0,0:0|0:0,0:0:0:0:
287,86,62247,2,0,P|266:76|254:58,1,45,2|0,3:2|0:0,0:0:0:0:
100,119,62430,6,0,L|158:106,1,45,8|0,0:0|0:0,0:0:0:0:
443,53,62612,2,0,L|462:48,6,11.25,8|0|0|0|2|0|0,3:2|0:0|0:0|0:0|0:0|0:0|0:0,0:0:0:0:
287,86,62978,6,0,P|266:76|253:54,1,45.9000002801514,6|0,3:2|0:0,0:0:0:0:
205,8,63344,6,0,P|248:200|276:389,1,360,2|0,3:1|3:2,0:0:0:0:
440,235,63893,1,2,0:0:0:0:
451,225,63984,1,2,0:0:0:0:
471,222,64076,1,10,3:2:0:0:
272,361,64259,6,0,B|219:396|161:341|172:341|147:266|71:298|71:298|104:300|118:330,1,270,2|0,0:2|0:0,0:0:0:0:
64,369,64625,1,2,0:0:0:0:
368,311,64809,2,0,P|385:324|408:325,1,45,10|0,3:2|0:0,0:0:0:0:
439,234,64991,2,0,P|422:220|400:221,1,45,2|0,0:0|0:0,0:0:0:0:
272,361,65173,6,0,B|219:396|161:341|172:341|147:266|71:298|71:298|104:300|118:330,1,270,2|0,3:2|0:0,0:0:0:0:
237,296,65539,2,0,L|227:250,1,45,10|0,3:2|0:0,0:0:0:0:
194,43,65722,1,2,0:0:0:0:
0,212,65905,6,0,L|65:198,1,67.5,2|0,3:2|0:0,0:0:0:0:
128,145,66271,2,0,L|378:198,1,242.999992584229,10|0,3:2|0:0,0:0:0:0:
436,209,66637,1,2,3:2:0:0:
144,227,66820,1,2,0:0:0:0:
240,95,67003,2,0,L|290:105,1,45,10|0,3:2|0:0,0:0:0:0:
436,209,67186,2,0,L|486:198,1,45,10|0,0:0|0:0,0:0:0:0:
324,266,67369,6,0,L|208:241,1,107.999996704102,0|0,3:2|3:2,0:0:0:0:
0,212,67734,2,0,L|66:197,1,53.9999983520508,14|0,3:2|0:0,0:0:0:0:
345,148,67917,5,2,0:0:0:0:
345,148,68100,1,2,3:2:0:0:
345,148,68283,1,2,0:0:0:0:
345,148,68467,5,10,3:2:0:0:
404,174,68558,1,8,0:0:0:0:
463,144,68649,1,8,0:0:0:0:
477,80,68741,1,8,0:0:0:0:
437,29,68832,5,6,3:2:0:0:
421,101,68923,1,2,0:0:0:0:
404,174,69015,1,2,0:0:0:0:
387,247,69106,1,2,0:0:0:0:
369,319,69198,5,2,3:1:0:0:
379,316,69289,1,2,0:0:0:0:
389,313,69381,1,2,0:0:0:0:
399,310,69472,1,2,0:0:0:0:
409,307,69564,5,2,3:2:0:0:
397,302,69655,2,0,P|371:291|344:290,1,53.9999983520508,2|2,0:0|0:0,0:0:0:0:
269,228,69838,1,2,0:0:0:0:
257,232,69929,2,0,P|231:242|204:243,1,53.9999983520508,10|2,3:2|0:0,0:0:0:0:
26,220,70112,5,2,0:0:0:0:
26,220,70204,1,2,0:0:0:0:
26,220,70295,2,0,P|75:231|106:301,1,101.250003862381,2|0,3:2|0:0,0:0:0:0:
104,270,70478,2,0,L|109:245,1,22.5,2|0,0:0|0:0,0:0:0:0:
157,372,70661,2,0,L|140:357,1,22.5,10|0,3:2|0:0,0:0:0:0:
25,350,70844,2,0,L|46:343,1,22.5,2|0,0:0|0:0,0:0:0:0:
123,173,71027,6,0,L|130:140,1,33.75,2|0,3:2|0:0,0:0:0:0:
148,28,71393,2,0,B|108:96|43:72|43:72|74:63|84:32,1,161.999995056153,10|0,3:2|0:0,0:0:0:0:
148,28,71759,6,0,L|207:40,1,53.9999983520508,6|0,3:2|0:0,0:0:0:0:
448,79,71942,1,2,0:0:0:0:
250,182,72125,1,10,3:2:0:0:
265,103,72308,2,0,P|321:132|328:189,1,107.999996704102,2|0,0:0|3:2,0:0:0:0:
272,364,72673,1,2,0:0:0:0:
386,310,72856,1,10,3:2:0:0:
493,384,73039,5,2,0:0:0:0:
493,384,73131,1,0,0:0:0:0:
493,384,73222,2,0,L|441:372,1,53.9999983520508,2|0,3:2|0:0,0:0:0:0:
227,305,73405,1,2,0:0:0:0:
386,310,73588,2,0,L|334:322,1,53.9999983520508,10|0,3:2|0:0,0:0:0:0:
122,378,73771,5,2,0:0:0:0:
122,378,73954,1,2,3:2:0:0:
122,378,74137,1,10,0:0:0:0:
122,378,74320,5,10,3:2:0:0:
126,368,74411,1,2,0:0:0:0:
130,358,74503,1,2,0:0:0:0:
134,348,74594,1,2,0:0:0:0:
138,338,74686,6,0,P|101:337|66:351,1,67.5,6|0,3:2|0:0,0:0:0:0:
0,368,75051,2,0,P|80:274|56:48,1,360,2|0,3:1|3:2,0:0:0:0:
299,168,75600,1,2,0:0:0:0:
324,166,75692,1,0,0:0:0:0:
345,143,75783,1,8,3:2:0:0:
58,52,75966,6,0,B|118:-10|193:36|193:36|198:35|198:35|228:108|302:88,1,270,2|0,0:0|0:0,0:0:0:0:
358,65,76332,1,2,0:0:0:0:
308,0,76515,2,0,P|284:5|269:24,1,45,10|0,3:2|0:0,0:0:0:0:
37,126,76698,2,0,P|13:121|-2:102,1,45,2|0,0:0|0:0,0:0:0:0:
58,52,76881,6,0,B|118:-10|193:36|193:36|198:35|198:35|228:108|302:88,1,270,2|0,3:2|0:0,0:0:0:0:
131,106,77247,2,0,L|143:163,1,45,10|0,3:2|0:0,0:0:0:0:
169,363,77430,1,2,0:0:0:0:
382,169,77612,6,0,P|345:164|313:197,1,67.5,2|0,3:2|0:0,0:0:0:0:
278,245,77978,2,0,P|172:269|62:185,1,242.999992584229,10|0,3:2|0:0,0:0:0:0:
37,126,78344,1,2,3:2:0:0:
356,250,78527,1,2,0:0:0:0:
29,230,78710,2,0,P|46:205|93:197,1,53.9999983520508,10|0,3:2|0:0,0:0:0:0:
246,74,78893,2,0,P|270:86|285:109,1,53.9999983520508,10|0,0:0|0:0,0:0:0:0:
382,169,79076,6,0,L|406:54,1,107.999996704102,2|2,3:2|0:0,0:0:0:0:
512,205,79442,2,0,L|447:191,1,53.9999983520508,12|0,3:2|0:0,0:0:0:0:
218,149,79625,5,2,0:0:0:0:
218,149,79808,1,10,3:2:0:0:
218,149,79991,1,10,0:0:0:0:
309,299,80173,2,0,P|337:260|408:263,1,108,10|0,3:2|0:0,0:0:0:0:
299,374,80539,6,0,P|269:368|257:353,1,45,2|0,3:2|0:0,0:0:0:0:
188,243,80722,2,0,P|158:249|146:264,1,45,0|0,3:2|0:0,0:0:0:0:
14,367,80905,5,2,0:0:0:0:
69,368,80997,1,2,0:0:0:0:
88,341,81088,1,2,0:0:0:0:
84,319,81180,1,2,0:0:0:0:
66,311,81271,2,0,P|75:282|68:264,1,45,10|0,3:2|0:0,0:0:0:0:
68,172,81454,2,0,P|88:194|107:197,1,45,10|0,3:2|0:0,0:0:0:0:
272,207,81637,5,2,0:0:0:0:
288,197,81728,1,2,0:0:0:0:
292,175,81820,1,2,0:0:0:0:
273,146,81911,1,2,0:0:0:0:
218,149,82003,1,2,0:0:0:0:
290,296,82186,6,0,B|343:299|376:338|376:338|377:283|419:248,1,202.500007724762,2|0,3:2|0:0,0:0:0:0:
449,125,82551,2,0,P|427:96|389:90,1,67.5000025749208,10|0,3:2|0:0,0:0:0:0:
191,209,82734,2,0,P|194:172|223:147,1,72,10|0,3:2|0:0,0:0:0:0:
218,149,83466,5,6,3:2:0:0:
44,87,83649,1,2,0:0:0:0:
78,269,83832,1,10,3:2:0:0:
113,163,84015,1,2,0:0:0:0:
8,177,84198,5,2,3:2:0:0:
113,163,84381,1,2,0:0:0:0:
323,135,84564,1,10,3:2:0:0:
218,149,84747,6,0,P|233:164|273:166,1,45,2|0,0:0|0:0,0:0:0:0:
449,76,84930,1,2,3:2:0:0:
378,211,85112,1,2,0:0:0:0:
264,244,85295,6,0,P|284:238|306:204,1,45,8|0,3:2|0:0,0:0:0:0:
316,8,85478,1,2,0:0:0:0:
397,136,85660,5,2,3:2:0:0:
449,76,85844,1,2,0:0:0:0:
378,211,86027,1,10,3:2:0:0:
316,8,86210,1,2,0:2:0:0:
474,151,86393,5,0,3:2:0:0:
334,84,86576,2,0,P|307:89|275:95,1,45,2|0,0:0|0:0,0:0:0:0:
378,211,86759,1,8,3:2:0:0:
238,278,86942,2,0,P|211:270|179:266,1,45,2|0,0:0|0:0,0:0:0:0:
285,165,87125,1,0,3:2:0:0:
145,98,87308,2,0,P|117:104|86:109,1,45,2|0,0:0|0:0,0:0:0:0:
197,259,87490,6,0,P|219:262|240:269,1,45,8|0,3:2|0:0,0:0:0:0:
288,84,87673,2,0,P|310:79|332:74,1,45,10|0,0:0|0:0,0:0:0:0:
497,37,87856,6,0,P|448:46|421:92,1,90,4|2,3:2|0:0,0:0:0:0:
496,370,88222,2,0,P|485:334|475:268,1,90,14|0,3:2|1:0,0:0:0:0:
440,201,88497,1,0,1:0:0:0:
440,201,88588,6,0,P|429:221|396:238,1,48,8|8,3:2|0:0,0:0:0:0:
277,289,88832,5,8,0:3:0:0:
291,270,88954,2,0,P|313:269|345:289,1,35.9999989013672,8|8,0:3|0:3,0:0:0:0:
404,327,89198,5,8,0:3:0:0:
404,327,89320,1,2,3:2:0:0:
404,327,98100,5,2,0:3:0:0:
404,327,98192,1,2,0:3:0:0:
404,327,98283,1,2,0:3:0:0:
262,281,98466,1,2,0:3:0:0:
171,338,98649,1,2,0:3:0:0:
97,308,98832,1,2,0:3:0:0:
58,336,99015,1,2,0:3:0:0:
38,322,99198,6,0,L|41:301,6,13.4999995880127,2|2|2|2|2|2|2,0:3|0:3|0:3|0:3|0:3|0:3|0:3,0:0:0:0:
12,322,99564,6,0,L|71:307,1,49.5000015106202,0|0,3:2|0:0,0:0:0:0:
193,231,99747,1,0,3:2:0:0:
169,210,99838,1,0,3:2:0:0:
93,227,99930,1,8,0:0:0:0:
254,185,100112,1,8,0:3:0:0:
93,227,100295,6,0,L|104:175,1,49.5000015106202,0|0,3:2|0:0,0:0:0:0:
27,77,100478,2,0,L|38:128,1,49.5000015106202,8|0,3:2|0:0,0:0:0:0:
254,185,100661,1,8,0:0:0:0:
245,136,100752,1,8,0:0:0:0:
213,99,100843,1,8,0:0:0:0:
166,84,100935,1,8,0:0:0:0:
119,95,101027,6,0,B|147:114|147:114|283:74,3,161.999995056153,6|2|10|2,3:2|0:0|3:2|0:0,0:0:0:0:
405,47,101759,2,0,L|394:97,1,45,8|0,3:1|0:0,0:0:0:0:
350,288,101942,2,0,L|360:237,1,45,8|0,0:1|0:0,0:0:0:0:
379,165,102125,1,8,3:1:0:0:
329,368,102308,6,0,B|301:387|301:387|165:347,4,161.999995056153,2|2|2|10|2,0:0|3:2|0:0|3:2|0:0,0:0:0:0:
480,273,103222,2,0,L|436:285,1,45,8|0,3:1|0:0,0:0:0:0:
279,302,103405,2,0,L|235:289,1,45,8|0,0:1|0:0,0:0:0:0:
78,273,103588,6,0,L|34:285,1,45,8|2,3:1|0:0,0:0:0:0:
5,299,103862,1,2,0:0:0:0:
5,299,103954,1,6,3:2:0:0:
105,158,104137,1,2,0:0:0:0:
105,158,104228,1,2,0:0:0:0:
105,158,104320,1,10,3:2:0:0:
235,289,104503,1,2,0:0:0:0:
389,179,104686,1,2,3:2:0:0:
138,229,104869,1,2,0:0:0:0:
155,231,104960,1,2,0:0:0:0:
170,232,105051,1,10,3:2:0:0:
373,265,105234,1,2,0:0:0:0:
217,142,105417,5,2,3:2:0:0:
246,373,105600,1,2,0:0:0:0:
241,330,105692,1,2,0:0:0:0:
235,289,105783,1,10,3:2:0:0:
355,337,105966,1,2,0:0:0:0:
353,347,106058,1,0,0:0:0:0:
351,357,106149,1,2,3:2:0:0:
495,373,106332,1,8,0:0:0:0:
495,373,106423,1,8,0:0:0:0:
495,373,106514,1,10,3:2:0:0:
490,330,106606,1,2,0:3:0:0:
484,289,106697,1,10,0:3:0:0:
479,246,106790,1,2,0:3:0:0:
473,205,106881,6,0,B|437:182|437:182|380:204,1,101.250003862381,6|0,3:2|0:0,0:0:0:0:
367,210,107064,2,0,B|327:227|327:227|274:196,1,101.250003862381,2|0,0:0|0:0,0:0:0:0:
263,188,107247,2,0,B|225:166|225:166|170:191,1,101.250003862381,10|0,3:2|0:0,0:0:0:0:
156,200,107430,2,0,B|116:217|116:217|63:186,1,101.250003862381,2|0,0:0|0:0,0:0:0:0:
48,194,107612,2,0,L|38:148,1,45,8|0,3:1|0:0,0:0:0:0:
13,19,107795,5,8,0:1:0:0:
13,19,107978,1,8,3:1:0:0:
125,50,108161,2,0,L|115:98,1,45,2|2,0:0|0:0,0:0:0:0:
48,194,108344,6,0,B|84:171|84:171|141:193,1,101.250003862381,2|0,3:2|0:0,0:0:0:0:
154,199,108527,2,0,B|194:216|194:216|247:185,1,101.250003862381,2|0,0:0|0:0,0:0:0:0:
258,177,108710,2,0,B|296:155|296:155|351:180,1,101.250003862381,10|0,3:2|0:0,0:0:0:0:
365,189,108893,2,0,B|405:206|405:206|458:175,1,101.250003862381,2|0,0:0|0:0,0:0:0:0:
473,183,109076,2,0,L|483:137,1,45,8|0,3:1|0:0,0:0:0:0:
504,14,109258,5,8,0:1:0:0:
504,14,109441,1,8,3:1:0:0:
511,21,109625,5,2,0:0:0:0:
511,21,109716,1,2,0:0:0:0:
511,21,109808,2,0,L|501:67,1,45,6|0,3:2|0:0,0:0:0:0:
459,276,109991,1,2,0:0:0:0:
330,306,110173,6,0,P|369:257|443:270,1,135,10|0,3:2|0:0,0:0:0:0:
459,276,110356,2,0,L|452:304,1,22.5,2|0,0:0|0:0,0:0:0:0:
337,318,110539,2,0,P|376:269|450:282,1,135,2|0,3:2|0:0,0:0:0:0:
466,288,110722,2,0,L|459:316,1,22.5,2|2,0:0|0:0,0:0:0:0:
344,330,110905,2,0,P|383:281|457:294,1,135,10|0,3:2|0:0,0:0:0:0:
473,300,111088,2,0,L|466:328,1,22.5,2|0,0:0|0:0,0:0:0:0:
418,384,111271,5,10,3:2:0:0:
418,384,111362,1,8,0:0:0:0:
344,330,111544,1,10,0:0:0:0:
344,330,111636,1,14,3:2:0:0:
473,300,111820,5,10,0:0:0:0:
473,300,111911,1,8,0:0:0:0:
473,300,112003,1,10,3:2:0:0:
344,330,112186,1,8,0:0:0:0:
418,384,112369,5,10,3:2:0:0:
403,379,112460,1,2,0:3:0:0:
403,363,112551,1,2,0:3:0:0:
418,358,112642,1,2,0:3:0:0:
427,371,112734,6,0,L|292:342,1,135.000005149842,6|0,3:2|0:0,0:0:0:0:
249,284,113009,2,0,L|116:312,1,135.000005149842,0|0,3:2|0:0,0:0:0:0:
27,371,113283,5,2,3:2:0:0:
27,371,113375,1,2,0:0:0:0:
27,371,113466,2,0,L|41:305,1,67.5,10|0,0:0|0:0,0:0:0:0:
83,240,113832,1,2,0:0:0:0:
21,99,114015,5,0,3:2:0:0:
21,99,114106,1,0,3:2:0:0:
21,99,114198,2,0,L|156:128,1,135.000005149842,4|0,3:2|0:0,0:0:0:0:
203,191,114473,2,0,L|336:163,1,135.000005149842,0|0,3:2|0:0,0:0:0:0:
418,153,114747,5,2,3:2:0:0:
418,153,114838,1,2,0:0:0:0:
418,153,114930,1,10,0:0:0:0:
231,108,115112,1,0,3:2:0:0:
335,325,115295,1,10,0:0:0:0:
351,330,115387,1,2,0:0:0:0:
387,324,115478,1,2,0:0:0:0:
412,280,115570,1,2,0:0:0:0:
385,229,115661,6,0,B|349:204|312:230|312:230|293:270|250:272,1,135.000005149842,6|0,3:2|0:0,0:0:0:0:
178,384,115936,2,0,B|216:365|212:320|212:320|187:283|208:245,1,135.000005149842,0|0,3:2|0:0,0:0:0:0:
203,191,116210,2,0,P|232:195|247:220,1,45,0|0,3:2|0:0,0:0:0:0:
335,325,116393,1,10,0:0:0:0:
335,325,116759,5,2,3:2:0:0:
335,325,116942,1,2,3:2:0:0:
130,325,117125,5,10,0:0:0:0:
299,154,117308,1,2,3:2:0:0:
178,384,117491,5,10,0:0:0:0:
81,123,117673,1,2,3:2:0:0:
81,123,117765,1,0,3:2:0:0:
81,123,117856,1,8,0:0:0:0:
13,234,118039,5,2,3:2:0:0:
13,234,118131,1,0,3:2:0:0:
13,234,118222,1,8,0:0:0:0:
299,154,118405,1,0,3:2:0:0:
487,97,118588,6,0,P|474:72|441:62,1,45,6|0,3:2|0:0,0:0:0:0:
424,191,118862,2,0,P|452:192|477:168,1,45,0|0,3:2|0:0,0:0:0:0:
371,111,119137,5,2,3:2:0:0:
371,111,119228,1,2,0:0:0:0:
371,111,119320,2,0,B|402:155|363:209|363:209|370:211|370:211|324:246|337:301,1,202.500007724762,10|0,0:0|0:0,0:0:0:0:
378,355,119686,1,2,0:0:0:0:
460,271,119869,5,0,3:2:0:0:
460,271,119960,1,0,3:2:0:0:
460,271,120051,2,0,L|402:283,1,45,4|0,3:2|0:0,0:0:0:0:
300,354,120326,2,0,L|242:342,1,45,0|0,3:2|0:0,0:0:0:0:
172,268,120600,5,2,3:2:0:0:
172,268,120692,1,2,0:0:0:0:
172,268,120783,1,10,0:0:0:0:
466,183,120966,1,0,3:2:0:0:
334,288,121149,1,10,0:0:0:0:
318,276,121241,1,2,0:0:0:0:
302,231,121332,1,2,0:0:0:0:
317,170,121423,1,2,0:0:0:0:
383,140,121515,1,6,3:2:0:0:
242,67,121698,5,0,0:0:0:0:
242,67,121789,1,0,3:2:0:0:
242,67,121881,1,0,0:0:0:0:
383,140,122064,1,0,3:2:0:0:
346,29,122247,1,10,0:0:0:0:
146,105,122430,1,0,0:0:0:0:
41,146,122612,1,2,3:2:0:0:
41,146,122795,1,2,3:2:0:0:
52,27,122978,5,10,0:0:0:0:
141,295,123161,1,2,3:2:0:0:
383,140,123344,1,10,0:0:0:0:
153,112,123527,1,2,3:2:0:0:
153,112,123619,1,0,3:2:0:0:
153,112,123710,1,8,0:0:0:0:
346,29,123893,6,0,L|294:47,1,45,2|0,3:2|3:2,0:0:0:0:
41,146,124076,1,8,0:0:0:0:
234,74,124259,1,0,3:2:0:0:
99,342,124442,6,0,B|89:339|31:291|75:194|172:193|230:250|200:328|200:328|195:332|195:332|242:301|279:315|279:315|312:249|385:253|385:253|383:166|459:106|459:106|311:91|247:207,1,936,0|0,3:2|0:0,0:0:0:0:
251,199,125722,6,0,P|236:183|211:168,1,40.4999987640381,10|0,3:2|0:0,0:0:0:0:
224,162,126088,6,0,P|242:174|258:190,1,45,0|0,3:2|0:0,0:0:0:0:
345,351,126271,2,0,P|354:336|381:325,1,45,8|0,0:0|0:0,0:0:0:0:
484,212,126454,5,8,0:0:0:0:
366,129,126637,1,8,0:0:0:0:
484,212,126820,1,2,0:3:0:0:
484,212,127003,1,2,0:3:0:0:
484,212,127369,5,6,3:2:0:0:
415,173,132491,6,0,P|438:170|463:190,1,45
484,212,132673,6,0,L|456:88,1,112.5,2|0,0:3|0:0,0:0:0:0:
382,65,133222,6,0,B|314:47|270:116|279:114|276:145|184:209|123:116|135:48|194:7|249:38,1,377.999988464356,6|0,3:2|0:0,0:0:0:0:
161,81,133954,2,0,B|151:53|172:0|242:-13|320:24|291:127|218:161|218:161|178:182|164:224|199:267|243:245|241:231,1,440.999986541748,6|0,3:2|0:0,0:0:0:0:
311,208,134686,6,0,B|320:234|308:263|308:263|326:199|400:172|463:216|486:294|406:361|352:332,1,377.999988464356,6|0,3:2|0:0,0:0:0:0:
273,333,135417,2,0,P|207:303|13:350,1,270,6|0,3:2|0:0,0:0:0:0:
86,207,136149,5,2,3:2:0:0:
86,200,136241,1,2,0:3:0:0:
79,196,136332,1,2,0:3:0:0:
65,193,136423,1,2,0:3:0:0:
47,198,136515,1,2,3:2:0:0:
34,214,136606,1,2,0:3:0:0:
32,241,136698,1,2,0:3:0:0:
57,265,136789,1,2,0:3:0:0:
97,266,136881,1,2,3:2:0:0:
137,244,136972,1,2,0:3:0:0:
165,200,137064,1,2,0:2:0:0:
221,171,137155,1,2,0:3:0:0:
293,156,137247,1,2,3:2:0:0:
367,179,137338,1,2,0:3:0:0:
402,245,137430,1,2,0:2:0:0:
393,322,137521,1,2,0:3:0:0:
329,367,137612,6,0,L|281:357,1,45,2|0,3:3|0:0,0:0:0:0:
141,274,137795,2,0,L|93:264,1,45,0|0,3:0|0:0,0:0:0:0:
367,179,137978,2,0,L|414:169,1,45,0|0,3:0|0:0,0:0:0:0:
142,34,138161,5,0,3:0:0:0:
142,34,138344,1,8,3:0:0:0:
142,34,138527,1,0,0:0:0:0:
376,165,138710,6,0,L|422:158,1,40.4999987640381,8|0,3:0|0:0,0:0:0:0:
481,77,139076,5,2,0:0:0:0:
469,51,139167,1,2,0:0:0:0:
446,46,139259,1,2,0:0:0:0:
426,62,139350,1,2,0:0:0:0:
426,83,139442,6,0,P|313:27|157:43,1,270,6|0,3:1|0:0,0:0:0:0:
43,73,139808,2,0,B|38:23|103:15|103:15|93:46|112:78,1,135.000005149842,2|0,3:2|0:0,0:0:0:0:
155,114,140082,1,2,0:0:0:0:
155,114,140173,2,0,L|143:168,1,45,8|0,3:2|0:0,0:0:0:0:
84,279,140356,6,0,L|57:153,1,107.999996704102,2|2,0:0|3:2,0:0:0:0:
2,375,140722,2,0,L|58:362,1,45,2|0,0:0|0:0,0:0:0:0:
270,320,140905,1,8,3:2:0:0:
84,279,141088,2,0,L|140:291,1,45,2|0,0:0|0:0,0:0:0:0:
308,384,141271,2,0,L|414:361,1,107.999996704102,2|0,3:2|0:0,0:0:0:0:
486,347,141545,1,2,0:0:0:0:
486,347,141637,2,0,L|475:298,1,45,8|0,3:2|0:0,0:0:0:0:
376,78,141820,6,0,B|421:90|421:90|426:95|426:95|479:110,1,101.250003862381,2|0,0:0|0:0,0:0:0:0:
447,87,142003,2,0,L|391:99,1,45,4|0,3:2|0:0,0:0:0:0:
153,103,142185,5,2,0:0:0:0:
153,103,142277,1,2,0:0:0:0:
153,103,142369,2,0,B|108:91|108:91|103:86|103:86|50:71,1,101.250003862381,10|0,3:2|0:0,0:0:0:0:
82,94,142551,2,0,L|138:82,1,45,2|2,0:0|0:0,0:0:0:0:
301,82,142734,6,0,B|271:33|216:48|216:48|231:66|228:86,1,135.000005149842,2|0,3:2|0:0,0:0:0:0:
213,160,143009,1,2,0:0:0:0:
213,160,143100,2,0,L|224:214,1,45,8|0,3:2|0:0,0:0:0:0:
249,352,143283,2,0,P|233:333|198:333,1,45,2|0,0:0|0:0,0:0:0:0:
48,284,143466,6,0,B|50:291|39:312|39:312|69:271|126:262,1,121.499996292114,0|0,3:2|0:0,0:0:0:0:
133,258,143649,2,0,P|129:242|115:226,1,36,2|0,0:0|0:0,0:0:0:0:
0,176,143832,2,0,P|8:161|9:140,1,36,10|0,3:2|0:0,0:0:0:0:
85,16,144015,2,0,P|101:11|117:-2,1,36,2|0,0:0|0:0,0:0:0:0:
301,82,144198,2,0,P|315:90|336:91,1,36,2|0,3:2|0:0,0:0:0:0:
484,18,144381,6,0,L|473:66,1,45,8|0,0:0|0:0,0:0:0:0:
432,293,144564,2,0,L|428:307,6,13.4999995880127,8|0|0|0|2|0|0,3:2|0:0|0:0|0:0|0:0|0:0|0:0,0:0:0:0:
331,210,144930,6,0,P|314:198|294:195,1,40.4999987640381,6|0,3:2|0:0,0:0:0:0:
175,241,145295,2,0,B|260:293|333:197|322:197|390:94|495:160,1,360,2|0,3:1|3:2,0:0:0:0:
426,319,145844,1,2,0:0:0:0:
429,306,145936,1,2,0:0:0:0:
432,293,146027,1,10,3:2:0:0:
203,147,146210,6,0,B|176:55|98:36|16:79|56:163|102:156,1,270,2|0,3:2|0:0,0:0:0:0:
175,241,146576,1,2,0:0:0:0:
449,169,146759,2,0,P|470:165|491:158,1,45,10|0,3:2|0:0,0:0:0:0:
410,89,146942,2,0,P|383:91|367:99,1,45,2|0,0:0|0:0,0:0:0:0:
102,156,147125,6,0,B|56:162|15:78|98:35|175:54|202:146,1,270,2|0,3:2|0:0,0:0:0:0:
245,220,147491,2,0,P|267:211|285:186,1,45,10|0,3:2|0:0,0:0:0:0:
419,4,147673,1,2,0:0:0:0:
501,180,147856,6,0,L|445:168,1,54,2|0,3:2|0:0,0:0:0:0:
410,89,148222,2,0,L|161:141,1,242.999992584229,10|0,3:2|0:0,0:0:0:0:
102,156,148588,1,2,3:2:0:0:
366,244,148771,1,2,0:0:0:0:
289,39,148954,2,0,L|223:52,1,45,10|0,3:2|0:0,0:0:0:0:
102,156,149137,2,0,L|36:142,1,45,10|0,0:0|0:0,0:0:0:0:
182,284,149320,6,0,L|316:255,1,107.999996704102,0|0,3:2|3:2,0:0:0:0:
403,367,149686,2,0,L|340:353,1,53.9999983520508,14|0,3:2|0:0,0:0:0:0:
99,303,149869,5,2,0:0:0:0:
99,303,150051,1,2,3:2:0:0:
99,303,150234,1,2,0:0:0:0:
99,303,150418,5,10,3:2:0:0:
158,278,150509,1,8,0:0:0:0:
179,215,150600,1,8,0:0:0:0:
144,161,150692,1,8,0:0:0:0:
80,153,150783,5,6,3:2:0:0:
155,140,150875,1,2,0:0:0:0:
230,127,150966,1,2,0:0:0:0:
305,114,151058,1,2,0:0:0:0:
380,101,151149,5,6,3:1:0:0:
372,97,151241,1,2,0:0:0:0:
364,93,151332,1,2,0:0:0:0:
356,88,151424,1,2,0:0:0:0:
348,85,151515,5,2,3:2:0:0:
340,81,151606,2,0,L|354:149,1,53.9999983520508,2|2,0:0|0:0,0:0:0:0:
460,248,151789,1,2,0:0:0:0:
452,252,151880,2,0,L|466:183,1,53.9999983520508,10|2,3:2|0:0,0:0:0:0:
237,134,152064,5,2,0:0:0:0:
237,134,152155,1,2,0:0:0:0:
237,134,152247,2,0,L|262:251,1,101.250003862381,2|0,3:2|0:0,0:0:0:0:
258,233,152430,2,0,L|229:226,1,22.5,2|0,0:0|0:0,0:0:0:0:
155,189,152612,2,0,L|135:210,1,22.5,10|0,3:2|0:0,0:0:0:0:
65,256,152795,2,0,L|73:283,1,22.5,2|0,0:0|0:0,0:0:0:0:
286,365,152978,2,0,L|255:220,1,135.000005149842,2|2,3:2|0:0,0:0:0:0:
16,19,153344,6,0,B|12:56|12:56|36:30|36:30|1:38|1:38|34:50|34:50|12:11,1,180,10|0,3:2|0:0,0:0:0:0:
167,82,153527,2,0,B|171:119|171:119|147:93|147:93|182:101|182:101|149:113|149:113|171:74,1,180,2|0,0:0|0:0,0:0:0:0:
352,25,153710,2,0,B|348:62|348:62|372:36|372:36|337:44|337:44|370:56|370:56|348:17,1,180,6|0,3:2|0:0,0:0:0:0:
503,88,153893,2,0,B|507:125|507:125|483:99|483:99|518:107|518:107|485:119|485:119|507:80,1,180,2|0,0:0|0:0,0:0:0:0:
325,173,154076,2,0,B|321:210|321:210|345:184|345:184|310:192|310:192|343:204|343:204|321:165,1,180,10|0,3:2|0:0,0:0:0:0:
167,82,154259,6,0,B|171:119|171:119|147:93|147:93|182:101|182:101|149:113|149:113|171:74,1,175.499991966248,2|0,0:0|0:0,0:0:0:0:
40,197,154625,2,0,B|36:234|36:234|60:208|60:208|25:216|25:216|58:228|58:228|36:189,1,180,2|0,0:0|0:0,0:0:0:0:
16,19,154808,6,0,B|12:56|12:56|36:30|36:30|1:38|1:38|34:50|34:50|12:11,1,175.499991966248,10|0,3:2|0:0,0:0:0:0:
167,82,155173,6,0,P|181:67|160:75,1,58.4999973220826,2|0,3:2|0:0,0:0:0:0:
325,173,155356,2,0,P|353:162|322:169,1,99.0000030212403,2|0,0:0|0:0,0:0:0:0:
503,88,155539,2,0,P|520:58|495:85,1,107.999996704102,10|0,3:2|0:0,0:0:0:0:
485,284,155722,5,2,0:0:0:0:
485,284,155905,1,2,3:2:0:0:
485,284,156088,1,10,0:0:0:0:
485,284,156271,5,10,3:2:0:0:
473,281,156362,1,2,0:0:0:0:
462,279,156453,1,2,0:0:0:0:
451,276,156545,1,2,0:0:0:0:
440,274,156637,6,0,P|463:285|481:301,1,40.4999987640381,6|0,3:2|0:0,0:0:0:0:
468,384,157003,6,0,P|329:314|116:292,1,360,2|0,3:1|3:2,0:0:0:0:
314,217,157551,1,2,0:0:0:0:
326,212,157643,1,0,0:0:0:0:
338,207,157734,1,8,3:2:0:0:
61,333,157917,6,0,B|30:254|109:214|109:214|195:204|194:127,1,270,2|0,0:0|0:0,0:0:0:0:
166,68,158283,1,2,0:0:0:0:
128,292,158466,2,0,P|139:314|139:346,1,45,10|0,3:2|0:0,0:0:0:0:
118,136,158649,2,0,P|100:118|90:88,1,45,2|0,0:0|0:0,0:0:0:0:
61,333,158832,6,0,B|30:254|109:214|109:214|195:204|194:127,1,270,2|0,3:2|0:0,0:0:0:0:
92,100,159198,2,0,P|101:120|118:136,1,45,10|0,3:2|0:0,0:0:0:0:
314,217,159381,1,2,0:0:0:0:
480,27,159564,6,0,L|394:45,1,67.5,2|0,3:2|0:0,0:0:0:0:
345,75,159930,2,0,L|98:22,1,242.999992584229,10|0,3:2|0:0,0:0:0:0:
37,8,160295,1,2,3:2:0:0:
128,292,160478,1,2,0:0:0:0:
0,170,160661,2,0,L|64:156,1,45,10|0,3:2|0:0,0:0:0:0:
204,121,160844,2,0,L|268:134,1,45,10|0,0:0|0:0,0:0:0:0:
419,194,161027,6,0,L|304:218,1,107.999996704102,2|2,3:2|0:0,0:0:0:0:
394,346,161393,2,0,L|382:291,1,53.9999983520508,12|0,3:2|0:0,0:0:0:0:
345,75,161576,5,2,0:0:0:0:
345,75,161759,1,10,3:2:0:0:
345,75,161942,1,10,0:0:0:0:
484,108,162125,2,0,B|429:74|409:34|409:34|428:74|412:110,1,161.999995056153,10|0,3:2|0:0,0:0:0:0:
419,194,162491,6,0,P|401:179|372:170,1,45,2|0,3:2|0:0,0:0:0:0:
204,121,162673,2,0,P|182:129|159:149,1,45,0|0,3:2|0:0,0:0:0:0:
33,270,162856,5,2,0:0:0:0:
82,306,162948,1,2,0:0:0:0:
129,301,163039,1,2,0:0:0:0:
158,280,163131,1,2,0:0:0:0:
166,260,163222,2,0,P|143:257|123:266,1,45,10|0,3:2|0:0,0:0:0:0:
80,382,163405,2,0,P|102:384|122:375,1,45,10|0,3:2|0:0,0:0:0:0:
287,177,163588,5,2,0:0:0:0:
298,159,163679,1,2,0:0:0:0:
331,144,163771,1,2,0:0:0:0:
378,149,163862,1,2,0:0:0:0:
419,194,163954,1,2,0:0:0:0:
427,331,164137,6,0,B|503:313|489:233|489:233|475:260|441:269,1,175.499991966248,2|0,3:2|0:0,0:0:0:0:
340,259,164503,2,0,P|365:259|390:277,1,45,10|0,3:2|0:0,0:0:0:0:
330,371,164686,2,0,B|273:392|230:347|240:347|193:283|137:326,1,202.500007724762,10|0,3:2|0:0,0:0:0:0:
42,354,165051,6,0,B|57:345|77:346|77:346|72:325|82:295,1,67.5,2|0,0:0|0:0,0:0:0:0:
113,247,165417,6,0,B|92:169|12:192|12:192|5:247|50:259,1,202.500007724762,6|0,3:2|0:0,0:0:0:0:
147,319,165783,2,0,P|244:258|383:249,1,242.999992584229,2|0,3:1|0:0,0:0:0:0:
457,262,166149,2,0,L|445:206,1,49.5000015106202,2|0,3:2|0:0,0:0:0:0:
326,119,166332,2,0,L|315:167,1,49.5000015106202,2|0,0:0|0:0,0:0:0:0:
276,351,166515,1,8,3:2:0:0:
113,247,166698,6,0,B|92:169|12:192|12:192|5:247|50:259,1,202.500007724762,2|0,0:0|0:0,0:0:0:0:
147,319,167064,2,0,P|176:299|188:273,1,49.5000015106202,2|0,0:0|0:0,0:0:0:0:
314,167,167247,2,0,P|343:187|355:213,1,49.5000015106202,10|0,3:2|0:0,0:0:0:0:
420,293,167430,2,0,P|449:273|461:247,1,49.5000015106202,2|0,0:0|0:0,0:0:0:0:
485,41,167612,5,2,3:2:0:0:
226,76,167795,1,2,0:3:0:0:
259,71,167978,1,10,3:2:0:0:
20,111,168161,1,2,0:3:0:0:
172,144,168344,6,0,B|156:61|78:61|78:61|101:95|90:136,1,202.500007724762,6|0,3:2|0:0,0:0:0:0:
20,111,168710,2,0,L|284:68,1,242.999992584229,10|0,3:2|0:0,0:0:0:0:
339,67,169076,2,0,L|326:126,1,49.5000015106202,2|0,3:2|0:0,0:0:0:0:
247,274,169259,2,0,L|234:214,1,49.5000015106202,2|0,0:0|0:0,0:0:0:0:
192,4,169442,1,8,3:2:0:0:
20,111,169625,6,0,L|284:68,1,242.999992584229,2|0,0:0|0:0,0:0:0:0:
339,67,169991,2,0,L|387:77,1,49.5000015106202,2|0,0:0|0:0,0:0:0:0:
510,232,170173,2,0,L|462:242,1,49.5000015106202,10|0,3:2|0:0,0:0:0:0:
269,348,170356,2,0,L|317:358,1,49.5000015106202,2|0,0:0|0:0,0:0:0:0:
498,384,170539,2,0,L|484:321,1,49.5000015106202,2|0,3:2|0:0,0:0:0:0:
443,138,170722,1,8,0:0:0:0:
247,274,170905,2,2,B|228:275|208:295|208:295|161:275|161:275|137:212|78:224,1,202.500007724762,8|0,3:2|0:0,0:1:0:0:
10,316,171271,6,0,B|55:341|65:386|65:386|56:342|92:289,1,188.999994232178,6|0,3:2|0:0,0:0:0:0:
163,156,171637,2,0,P|94:110|103:229,1,242.999992584229,2|0,3:1|0:0,0:0:0:0:
247,274,172003,2,0,L|236:223,1,49.5000015106202,2|0,3:2|0:0,0:0:0:0:
443,138,172186,2,0,L|432:186,1,49.5000015106202,2|0,0:0|0:0,0:0:0:0:
397,366,172369,1,8,3:2:0:0:
79,223,172551,6,0,P|66:122|163:156,1,242.999992584229,2|0,0:0|0:0,0:0:0:0:
236,225,172917,2,0,P|266:218|283:197,1,49.5000015106202,2|0,0:0|0:0,0:0:0:0:
452,65,173100,2,0,P|482:72|499:93,1,49.5000015106202,10|0,3:2|0:0,0:0:0:0:
424,257,173283,2,0,P|394:250|377:229,1,49.5000015106202,2|0,0:0|0:0,0:0:0:0:
246,3,173466,5,2,3:2:0:0:
0,82,173649,1,2,0:0:0:0:
228,85,173832,1,10,3:2:0:0:
164,28,174015,1,2,0:0:0:0:
79,223,174198,6,0,L|88:178,1,40.4999987640381,2|0,3:2|0:0,0:0:0:0:
80,106,174564,2,0,B|-4:184|216:241|107:328,1,242.999992584229,10|0,3:2|0:0,0:0:0:0:
64,366,174930,1,0,3:2:0:0:
435,264,175112,1,2,0:0:0:0:
121,314,175295,2,0,L|180:326,1,49.5000015106202,10|0,3:2|0:0,0:0:0:0:
340,384,175478,2,0,L|399:371,1,49.5000015106202,10|0,0:0|0:0,0:0:0:0:
228,140,175661,5,2,3:2:0:0:
255,310,175844,2,0,L|267:366,1,49.5000015106202,2|0,0:0|0:0,0:0:0:0:
472,45,176027,1,14,3:2:0:0:
445,215,176210,2,0,L|432:271,1,49.5000015106202,2|2,0:3|0:3,0:0:0:0:
210,24,176393,1,14,3:2:0:0:
77,253,176576,5,2,0:3:0:0:
77,253,176667,1,2,0:3:0:0:
77,253,176759,2,0,B|154:234|169:153|127:105|127:105|103:120|77:131|77:131|70:158|70:158|67:134|67:134|39:139|5:131,1,323.999990112305,14|0,3:2|0:0,0:0:0:0:
