osu file format v14

[General]
AudioFilename: audio.mp3
AudioLeadIn: 0
PreviewTime: 146333
Countdown: 0
SampleSet: Soft
StackLeniency: 0.5
Mode: 0
LetterboxInBreaks: 0
WidescreenStoryboard: 1

[Editor]
Bookmarks: 10721,53072,98564,113333,128102,146563,161333,181640,196414,204884,217040,231809,252117,266886
DistanceSpacing: 0.6
BeatDivisor: 4
GridSize: 4
TimelineZoom: 1.350002

[Metadata]
Title:Replique (feat. Toromaru)
TitleUnicode:Réplique (feat. とろまる)
Artist:Risa Yuzuki
ArtistUnicode:Risa Yuzuki
Creator:Hinsvar
Version:Insane
Source:
Tags:柚木梨沙 Luminaria ゆずりさ Yuzurisa Japanese Pop J-Pop JPop Electronic Electropop Electro (feat​.​とろまる) Featured Artist FA Mappers' Guild MPG
BeatmapID:3217990
BeatmapSetID:1571215

[Difficulty]
HPDrainRate:5
CircleSize:4
OverallDifficulty:7.5
ApproachRate:8.5
SliderMultiplier:1.68
SliderTickRate:1

[Events]
//Background and Video events
0,0,"replique.jpg",0,0
//Break Periods
2,181840,195739
//Storyboard Layer 0 (Background)
//Storyboard Layer 1 (Fail)
//Storyboard Layer 2 (Pass)
//Storyboard Layer 3 (Foreground)
//Storyboard Layer 4 (Overlay)
//Storyboard Sound Samples

[TimingPoints]
1061,352.941176470588,3,2,1,50,1,0
10721,352.941176470588,3,2,1,50,1,0
11426,-80,3,2,1,50,0,0
11779,-200,3,2,1,50,0,0
12044,-200,3,2,1,5,0,0
12132,-100,3,2,1,50,0,0
13191,-133.333333333333,3,2,1,50,0,0
48838,-400,3,2,1,55,0,0
49897,-200,3,2,1,55,0,0
50956,-133.333333333333,3,2,1,55,0,0
52015,-100,3,2,1,55,0,0
53073,-133.333333333333,3,2,1,60,0,0
68515,-133.333333333333,3,2,1,5,0,0
68603,-133.333333333333,3,2,1,60,0,0
68691,-133.333333333333,3,2,1,5,0,0
68956,-133.333333333333,3,2,1,60,0,0
91191,457.142857142857,4,2,2,60,1,0
92105,461.538461538461,4,2,2,60,1,0
93028,461.538461538461,4,2,2,60,1,0
94874,-133.333333333333,4,2,2,65,0,0
96720,-100,4,2,2,70,0,0
98335,-133.333333333333,4,2,2,70,0,0
98564,461.538461538461,4,2,2,75,1,0
98564,-66.6666666666667,4,2,2,75,0,0
98910,-100,4,2,2,75,0,0
105948,-66.6666666666667,4,2,2,75,0,0
106294,-66.6666666666667,4,2,2,5,0,0
106410,-100,4,2,2,75,0,0
107794,-66.6666666666667,4,2,2,75,0,0
108140,-66.6666666666667,4,2,2,5,0,0
108256,-100,4,2,2,75,0,0
109640,-66.6666666666667,4,2,2,75,0,0
111487,-100,4,2,2,75,0,0
112179,-100,4,2,2,65,0,0
113102,-100,4,2,2,75,0,0
113333,-133.333333333333,4,2,2,55,0,0
128102,-100,4,2,2,65,0,0
130756,-100,4,2,2,5,0,0
130871,-100,4,2,2,65,0,0
141717,-100,4,2,2,75,0,0
142871,-200,4,2,2,65,0,0
144602,-200,4,2,2,5,0,0
144717,-133.333333333333,4,2,2,65,0,0
146102,-100,4,2,2,75,0,0
146563,-50,4,2,2,85,0,1
146794,-80,4,2,2,85,0,1
153948,-50,4,2,2,85,0,1
154179,-80,4,2,2,85,0,1
160640,-80,4,2,2,75,0,1
160871,-80,4,2,2,85,0,0
161333,-50,4,2,2,85,0,1
161563,-80,4,2,2,85,0,1
168717,-50,4,2,2,85,0,1
168948,-80,4,2,2,85,0,1
174256,-66.6666666666667,4,2,2,85,0,1
174948,-100,4,2,2,85,0,1
175179,-66.6666666666667,4,2,2,85,0,1
176679,-133.333333333333,4,2,2,85,0,1
177487,-100,4,2,2,85,0,1
177602,-100,4,2,2,5,0,1
177717,-66.6666666666667,4,2,2,75,0,1
177948,-66.6666666666667,4,2,2,85,0,1
178525,-133.333333333333,4,2,2,85,0,1
179217,-133.333333333333,4,2,2,85,0,1
179333,-100,4,2,2,85,0,1
179563,-66.6666666666667,4,2,2,85,0,1
181410,-100,4,2,2,85,0,1
181640,-100,4,2,2,75,0,0
196414,352.941176470588,3,2,1,60,1,0
196414,-80,3,2,1,60,0,0
196766,-133.333333333333,3,2,1,60,0,0
204531,-133.333333333333,3,2,2,70,0,0
204884,-100,3,2,2,65,0,0
205414,-133.333333333333,3,2,2,65,0,0
213002,-80,3,2,2,75,0,0
213348,461.538461538461,4,2,2,65,1,0
213348,-200,4,2,2,65,0,0
215078,-200,4,2,2,5,0,0
215194,-133.333333333333,4,2,2,65,0,0
216578,-100,4,2,2,75,0,0
217040,-50,4,2,2,75,0,0
217155,-50,4,2,2,5,0,0
218424,-100,4,2,2,75,0,0
218771,-100,4,2,2,5,0,0
218886,-50,4,2,2,85,0,1
219232,-80,4,2,2,85,0,1
224424,-50,4,2,2,85,0,1
224655,-80,4,2,2,85,0,1
231117,-80,4,2,2,75,0,1
231347,-80,4,2,2,85,0,0
231809,-50,4,2,2,85,0,1
232040,-80,4,2,2,85,0,1
239194,-50,4,2,2,85,0,1
239424,-80,4,2,2,85,0,1
244732,-66.6666666666667,4,2,2,85,0,1
245424,-100,4,2,2,85,0,1
245655,-66.6666666666667,4,2,2,85,0,1
247155,-133.333333333333,4,2,2,85,0,1
247963,-100,4,2,2,85,0,1
248078,-100,4,2,2,5,0,1
248194,-66.6666666666667,4,2,2,75,0,1
248424,-66.6666666666667,4,2,2,85,0,1
249001,-133.333333333333,4,2,2,85,0,1
249809,-100,4,2,2,85,0,1
250040,-66.6666666666667,4,2,2,85,0,1
251886,-100,4,2,2,85,0,1
252117,-66.6666666666667,4,2,2,75,0,0
252463,-100,4,2,2,75,0,0
259501,-50,4,2,2,75,0,0
259847,-50,4,2,2,5,0,0
259963,-100,4,2,2,75,0,0
261347,-50,4,2,2,75,0,0
261694,-50,4,2,2,5,0,0
261809,-100,4,2,2,75,0,0
263194,-66.6666666666667,4,2,2,75,0,0
265040,-100,4,2,2,75,0,0
265732,-100,4,2,2,65,0,0
266655,-100,4,2,2,75,0,0
266886,-100,4,2,2,55,0,0

[Colours]
Combo1 : 222,201,126
Combo2 : 207,193,24
Combo3 : 176,117,51
Combo4 : 255,128,0

[HitObjects]
122,40,10721,5,2,0:0:0:0:
177,113,10897,1,2,0:0:0:0:
233,185,11073,2,0,L|240:273,1,84,2|0,0:0|0:0,0:0:0:0:
112,340,11426,6,0,P|105:281|127:226,1,105,2|0,0:0|0:0,0:0:0:0:
353,258,11779,6,0,P|361:284|355:330,1,63,2|0,0:0|0:0,0:0:0:0:
355,330,12132,6,0,P|399:318|437:310,1,84,2|0,0:0|0:0,0:0:0:0:
348,119,12485,1,2,0:0:0:0:
461,164,12662,1,2,0:0:0:0:
278,279,12838,5,2,0:0:0:0:
278,279,13191,6,0,P|245:275|205:252,1,63.0000024032594,2|0,0:0|0:0,0:0:0:0:
239,176,13544,2,0,P|272:180|312:203,1,63.0000024032594,2|0,0:0|0:0,0:0:0:0:
298,192,13897,1,0,0:0:0:0:
201,371,14250,2,0,P|174:351|151:311,1,63.0000024032594,2|0,0:0|0:0,0:0:0:0:
218,262,14603,2,0,P|244:281|267:321,1,63.0000024032594,2|0,0:0|0:0,0:0:0:0:
261,305,14956,1,0,0:0:0:0:
149,348,15309,6,0,P|135:317|135:271,1,63.0000024032594,2|0,0:0|0:0,0:0:0:0:
218,262,15662,2,0,P|231:292|231:338,1,63.0000024032594,2|0,0:0|0:0,0:0:0:0:
234,321,16015,1,0,0:0:0:0:
30,327,16368,2,0,P|34:294|57:254,1,63.0000024032594,2|0,0:0|0:0,0:0:0:0:
133,287,16721,2,0,P|129:320|105:360,1,63.0000024032594,2|0,0:0|0:0,0:0:0:0:
116,346,17073,6,0,P|174:330|242:328,2,126.000004806519,2|2|2,0:0|0:0|0:0,0:0:0:0:
25,235,17956,1,0,0:0:0:0:
25,235,18132,2,0,P|48:251|90:258,1,63.0000024032594
139,191,18485,1,2,0:0:0:0:
256,370,18838,1,2,0:0:0:0:
373,191,19191,1,2,0:0:0:0:
373,191,19544,6,0,P|365:165|369:120,1,63.0000024032594,2|0,0:0|0:0,0:0:0:0:
302,67,19897,2,0,P|314:42|349:13,1,63.0000024032594,2|0,0:0|0:0,0:0:0:0:
418,61,20250,1,0,0:0:0:0:
139,190,20603,2,0,P|147:164|143:119,1,63.0000024032594,2|0,0:0|0:0,0:0:0:0:
210,67,20956,2,0,P|197:42|162:13,1,63.0000024032594,2|0,0:0|0:0,0:0:0:0:
94,61,21309,5,2,0:0:0:0:
94,61,21485,1,0,0:0:0:0:
94,61,21662,2,0,P|45:90|31:159,1,126.000004806519,2|2,0:0|0:0,0:0:0:0:
70,289,22191,1,0,0:0:0:0:
69,289,22368,2,0,P|80:259|82:228,1,63.0000024032594
206,183,22720,6,0,P|214:209|216:250,1,63.0000024032594,2|0,0:0|0:0,0:0:0:0:
328,266,23073,2,0,P|321:292|303:329,1,63.0000024032594,2|0,0:0|0:0,0:0:0:0:
225,360,23426,1,2,0:0:0:0:
225,360,23779,2,0,P|233:334|235:293,1,63.0000024032594,2|0,0:0|0:0,0:0:0:0:
347,277,24132,2,0,P|340:250|322:213,1,63.0000024032594,2|0,0:0|0:0,0:0:0:0:
244,183,24485,1,0,0:0:0:0:
244,183,24838,2,0,L|178:174,1,63.0000024032594,2|0,0:0|0:0,0:0:0:0:
39,258,25191,2,0,L|105:267,1,63.0000024032594,2|0,0:0|0:0,0:0:0:0:
167,366,25544,6,0,P|223:344|307:332,1,126.000004806519,2|2,0:0|0:0,0:0:0:0:
414,366,26073,1,0,0:0:0:0:
371,288,26250,2,0,P|369:256|379:217,1,63.0000024032594,2|0,0:0|0:0,0:0:0:0:
323,155,26603,2,0,P|350:93|393:39,2,126.000004806519,0|2|2,0:0|0:0|0:0,0:0:0:0:
117,27,27662,6,0,P|155:78|183:200,1,189.000007209778,2|0,0:0|0:0,0:0:0:0:
27,357,28368,2,0,P|26:331|44:279,1,63.0000024032594,2|0,0:0|0:0,0:0:0:0:
109,248,28720,1,0,0:0:0:0:
254,54,29073,2,0,P|313:37|392:26,1,126.000004806519,2|2,0:0|0:0,0:0:0:0:
498,104,29603,1,0,0:0:0:0:
498,104,29779,6,0,P|466:112|429:95,1,63.0000024032594,2|0,0:0|0:0,0:0:0:0:
295,206,30132,2,0,P|320:185|361:184,1,63.0000024032594,2|0,0:0|0:0,0:0:0:0:
433,267,30485,1,2,0:0:0:0:
433,267,30662,1,0,0:0:0:0:
433,267,30838,2,0,L|424:339,1,63.0000024032594
274,361,31191,2,0,L|336:368,1,63.0000024032594,2|0,0:0|0:0,0:0:0:0:
361,197,31544,2,0,L|298:189,1,63.0000024032594,2|0,0:0|0:0,0:0:0:0:
298,189,31897,1,2,0:0:0:0:
21,338,32250,6,0,P|54:345|81:323,1,63.0000024032594,2|0,0:0|0:0,0:0:0:0:
127,263,32603,1,2,0:0:0:0:
51,35,32956,1,0,0:0:0:0:
51,35,33132,1,2,0:0:0:0:
26,119,33309,2,0,P|28:146|45:185,1,63.0000024032594,2|0,0:0|0:0,0:0:0:0:
128,161,33662,2,0,P|125:133|108:94,1,63.0000024032594,2|0,0:0|0:0,0:0:0:0:
210,35,34015,5,2,0:0:0:0:
210,35,34191,1,0,0:0:0:0:
310,115,34368,2,0,L|381:120,1,63.0000024032594,2|0,0:0|0:0,0:0:0:0:
248,242,34720,2,0,L|319:247,1,63.0000024032594,2|0,0:0|0:0,0:0:0:0:
412,330,35073,5,0,0:0:0:0:
412,330,35250,1,0,0:0:0:0:
313,227,35426,2,0,L|250:222,1,63.0000024032594,2|0,0:0|0:0,0:0:0:0:
375,100,35779,2,0,L|312:95,1,63.0000024032594,2|0,0:0|0:0,0:0:0:0:
216,12,36132,1,2,0:0:0:0:
216,12,36485,6,0,P|200:37|228:47,1,63.0000024032594,2|0,0:0|0:0,0:0:0:0:
315,3,36838,1,2,0:0:0:0:
239,203,37191,1,0,0:0:0:0:
14,24,37544,2,0,P|44:37|75:66,1,63.0000024032594,2|0,0:0|0:0,0:0:0:0:
146,173,37897,2,0,P|149:206|139:247,1,63.0000024032594,2|0,0:0|0:0,0:0:0:0:
80,361,38250,5,2,0:0:0:0:
80,361,38426,1,0,0:0:0:0:
232,311,38603,2,0,P|212:329|187:368,1,63.0000024032594,2|0,0:0|0:0,0:0:0:0:
7,275,38956,2,0,P|15:249|17:203,1,63.0000024032594,2|0,0:0|0:0,0:0:0:0:
2,92,39309,1,2,0:0:0:0:
2,92,39485,1,0,0:0:0:0:
141,152,39662,6,0,P|111:142|73:137,1,63.0000024032594,2|0,0:0|0:0,0:0:0:0:
118,4,40015,2,0,P|87:10|51:25,1,63.0000024032594,2|0,0:0|0:0,0:0:0:0:
57,21,40368,1,2,0:0:0:0:
119,198,40720,2,0,P|92:180|57:165,1,63.0000024032594,2|0,0:0|0:0,0:0:0:0:
136,50,41073,2,0,P|104:48|66:53,1,63.0000024032594,2|0,0:0|0:0,0:0:0:0:
73,50,41426,1,2,0:0:0:0:
191,331,41779,6,0,P|185:299|171:264,1,63.0000024032594,2|0,0:0|0:0,0:0:0:0:
378,220,42132,2,0,P|384:252|398:287,1,63.0000024032594,2|0,0:0|0:0,0:0:0:0:
318,363,42485,6,0,P|281:263|273:170,1,189.000007209778,2|0,0:0|0:0,0:0:0:0:
214,114,43191,2,0,P|220:78|236:56,1,63.0000024032594,2|0,0:0|0:0,0:0:0:0:
320,24,43544,1,0,0:0:0:0:
130,195,43897,6,0,P|108:165|104:138,1,63.0000024032594,2|2,0:0|0:0,0:0:0:0:
25,66,44250,1,2,0:0:0:0:
122,22,44426,1,2,0:0:0:0:
210,83,44603,6,0,P|276:83|336:67,1,126.000004806519,2|2,0:0|0:0,0:0:0:0:
478,20,45132,1,0,0:0:0:0:
444,135,45309,2,0,P|438:170|440:206,1,63.0000024032594,2|0,0:0|0:0,0:0:0:0:
482,274,45662,1,2,0:0:0:0:
409,147,46015,2,0,P|415:181|429:215,1,63.0000024032594,2|0,0:0|0:0,0:0:0:0:
492,263,46368,1,2,0:0:0:0:
243,359,46720,6,0,P|272:254|347:256,1,189.000007209778,2|0,0:0|0:0,0:0:0:0:
433,351,47426,2,0,P|407:336|372:330,1,63.0000024032594,2|0,0:0|0:0,0:0:0:0:
246,165,47779,1,2,0:0:0:0:
160,140,47956,1,0,0:0:0:0:
78,173,48132,2,0,P|62:201|61:249,1,63.0000024032594,2|0,0:0|0:0,0:0:0:0:
162,365,48485,1,2,0:0:0:0:
162,365,48838,6,0,P|161:344|159:323,2,42,2|2|2,0:0|0:0|0:0,0:0:0:0:
359,274,49897,2,0,P|368:230|376:188,2,84,0|2|2,0:0|0:0|0:0,0:0:0:0:
31,37,50956,6,0,P|138:90|178:274,1,315.000012016297,2|0,0:0|0:0,0:0:0:0:
369,365,52015,6,0,P|374:92|504:16,1,420,2|0,0:0|0:0,0:0:0:0:
256,91,53073,6,0,P|211:47|142:21,1,126.000004806519,4|2,3:2|0:0,0:0:0:0:
153,23,53603,1,0,0:0:0:0:
50,186,53779,1,10,0:0:0:0:
50,186,54132,6,0,L|43:148,5,21.0000008010865,2|0|0|0|0|0,3:2|1:0|1:0|1:0|1:0|1:0,0:0:0:0:
43,144,54485,2,0,L|113:152,1,63.0000024032594,10|0,0:0|0:0,0:0:0:0:
227,235,54838,1,10,0:0:0:0:
131,356,55015,6,0,L|156:345,2,21.0000008010865,0|0|0,1:0|1:0|1:0,0:0:0:0:
112,365,55191,6,0,P|129:295|129:232,1,126.000004806519,2|10,3:2|0:0,0:0:0:0:
223,106,55720,1,0,0:0:0:0:
163,40,55897,2,0,P|136:26|100:16,1,63.0000024032594,10|0,3:2|0:0,0:0:0:0:
31,180,56250,6,0,P|46:176|60:168,5,21.0000008010865,2|0|0|0|0|0,3:2|1:0|1:0|1:0|1:0|1:0,0:0:0:0:
66,161,56603,2,0,L|84:98,1,63.0000024032594,10|0,0:0|0:0,0:0:0:0:
249,26,56956,1,10,0:0:0:0:
253,30,57309,5,2,3:2:0:0:
253,30,57485,1,0,0:0:0:0:
381,152,57662,2,0,P|356:136|319:127,1,63.0000024032594,10|0,0:0|0:0,0:0:0:0:
373,7,58015,2,0,P|398:23|435:32,1,63.0000024032594,10|0,0:0|0:0,0:0:0:0:
500,122,58368,6,0,L|474:109,5,21.0000008010865,2|0|0|0|0|0,3:2|1:0|1:0|1:0|1:0|1:0,0:0:0:0:
460,108,58720,2,0,P|427:120|395:143,1,63.0000024032594,10|0,0:0|0:0,0:0:0:0:
423,268,59073,1,10,0:0:0:0:
233,292,59250,6,0,L|240:257,2,21.0000008010865,0|0|0,1:0|1:0|1:0,0:0:0:0:
241,311,59426,6,0,P|274:310|314:301,1,63.0000024032594,2|0,3:2|0:0,0:0:0:0:
288,182,59779,2,0,P|255:183|215:192,1,63.0000024032594,10|0,0:0|0:0,0:0:0:0:
40,272,60132,1,10,0:0:0:0:
40,272,60485,6,0,P|45:278|56:302,5,21.0000008010865,2|0|0|0|0|0,3:2|1:0|1:0|1:0|1:0|1:0,0:0:0:0:
57,309,60838,1,10,0:0:0:0:
83,175,61015,1,2,1:2:0:0:
169,346,61191,2,0,P|177:312|191:280,1,63.0000024032594,10|0,0:0|0:0,0:0:0:0:
325,202,61544,6,0,P|263:197|199:161,1,126.000004806519,2|8,3:2|0:0,0:0:0:0:
315,48,62073,1,0,0:0:0:0:
228,66,62250,1,10,0:0:0:0:
228,66,62603,6,0,L|197:48,5,21.0000008010865,2|0|0|0|0|0,3:2|1:0|1:0|1:0|1:0|1:0,0:0:0:0:
191,45,62956,2,0,L|113:42,1,63.0000024032594,10|0,0:0|0:0,0:0:0:0:
25,97,63309,1,10,0:0:0:0:
177,162,63485,6,0,L|202:153,2,21.0000008010865,0|0|0,1:0|1:0|1:0,0:0:0:0:
158,152,63662,6,0,L|144:222,1,63.0000024032594,2|0,3:2|0:0,0:0:0:0:
220,362,64015,2,0,P|225:327|212:296,1,63.0000024032594,10|0,0:0|0:0,0:0:0:0:
47,284,64368,2,0,P|27:308|22:339,1,63.0000024032594,10|0,0:0|0:0,0:0:0:0:
48,175,64720,6,0,P|46:163|31:150,5,21.0000008010865,2|0|0|0|0|0,3:2|1:0|1:0|1:0|1:0|1:0,0:0:0:0:
29,138,65073,1,10,0:0:0:0:
153,118,65250,1,0,0:0:0:0:
215,8,65426,1,10,0:0:0:0:
215,8,65779,6,0,P|279:57|281:105,2,126.000004806519,2|10|8,3:2|0:0|0:0,0:0:0:0:
421,52,66838,6,0,P|436:51|447:45,5,21.0000008010865,2|0|0|0|0|0,3:2|1:0|1:0|1:0|1:0|1:0,0:0:0:0:
460,37,67191,2,0,P|470:116|438:152,1,126.000004806519,10|10,0:0|0:0,0:0:0:0:
323,256,67720,6,0,P|312:247|296:241,2,21.0000008010865,0|0|0,1:0|1:0|1:0,0:0:0:0:
333,274,67897,6,0,L|352:140,1,126.000004806519,2|0,3:2|0:0,0:0:0:0:
263,22,68426,2,0,L|272:69,1,31.5000012016297,8|0,0:0|0:0,0:0:0:0:
221,171,68603,2,0,L|180:197,1,31.5000012016297,2|0,3:2|0:0,0:0:0:0:
194,187,68956,6,0,P|256:197|325:218,1,126.000004806519,2|2,3:2|1:2,0:0:0:0:
283,296,69485,1,10,0:0:0:0:
196,279,69662,1,10,0:0:0:0:
163,101,69838,1,0,3:0:0:0:
193,95,69926,1,0,3:0:0:0:
224,89,70015,6,0,L|358:62,1,126.000004806519,6|10,3:2|0:0,0:0:0:0:
502,185,70544,1,2,0:0:0:0:
406,153,70720,1,10,0:0:0:0:
406,153,71073,6,0,L|409:187,5,21.0000008010865,0|0|0|0|0|0,3:0|1:0|1:0|1:0|1:0|1:0,0:0:0:0:
418,192,71426,2,0,L|408:259,1,63.0000024032594,10|0,0:0|0:0,0:0:0:0:
309,328,71779,1,10,0:0:0:0:
252,204,71956,6,0,L|257:236,2,21.0000008010865,0|0|0,1:0|1:0|1:0,0:0:0:0:
248,182,72132,6,0,P|195:165|134:126,1,126.000004806519,2|10,3:2|0:0,0:0:0:0:
175,1,72662,1,0,0:0:0:0:
256,34,72838,2,0,P|265:63|265:109,1,63.0000024032594,10|0,0:0|0:0,0:0:0:0:
131,221,73191,6,0,P|123:209|115:190,5,21.0000008010865,2|0|0|0|0|0,3:2|1:0|1:0|1:0|1:0|1:0,0:0:0:0:
104,187,73544,2,0,P|101:155|111:123,1,63.0000024032594,10|0,0:0|0:0,0:0:0:0:
120,315,73897,2,0,P|93:333|61:340,1,63.0000024032594,10|0,0:0|0:0,0:0:0:0:
223,237,74250,6,0,P|252:250|274:275,2,63.0000024032594,2|2|10,3:2|0:0|0:0,0:0:0:0:
362,296,74779,2,0,P|373:325|371:358,1,63.0000024032594,0|10,0:0|0:0,0:0:0:0:
371,356,75132,1,0,0:0:0:0:
426,224,75309,6,0,P|438:214|452:210,5,21.0000008010865,2|0|0|0|0|0,3:2|1:0|1:0|1:0|1:0|1:0,0:0:0:0:
464,212,75662,1,10,0:0:0:0:
493,70,75838,1,0,0:0:0:0:
354,24,76015,1,10,0:0:0:0:
388,138,76191,6,0,P|404:135|418:126,2,21.0000008010865,0|0|0,1:0|1:0|1:0,0:0:0:0:
374,119,76368,6,0,P|342:112|298:107,1,63.0000024032594,2|0,3:2|0:0,0:0:0:0:
181,11,76720,2,0,P|153:28|118:56,1,63.0000024032594,10|0,0:0|0:0,0:0:0:0:
128,192,77074,2,0,P|100:175|65:147,1,63.0000024032594,10|0,0:0|0:0,0:0:0:0:
224,115,77426,6,0,P|228:130|229:147,5,21.0000008010865,2|0|0|0|0|0,3:2|1:0|1:0|1:0|1:0|1:0,0:0:0:0:
247,144,77779,1,10,0:0:0:0:
233,256,77956,1,2,1:2:0:0:
220,368,78132,1,10,0:0:0:0:
220,368,78485,6,0,P|173:325|96:309,1,126.000004806519,2|10,3:2|0:0,0:0:0:0:
57,218,79015,2,0,P|94:215|128:194,1,63.0000024032594,0|10,0:0|0:0,0:0:0:0:
306,325,79544,2,0,P|297:308|286:296,5,21.0000008010865,0|0|0|0|0|0,3:0|1:0|1:0|1:0|1:0|1:0,0:0:0:0:
283,289,79897,6,0,P|299:249|304:219,1,63.0000024032594,10|2,0:0|0:0,0:0:0:0:
313,122,80250,1,10,0:0:0:0:
285,9,80426,6,0,L|261:-2,2,21.0000008010865,0|0|0,1:0|1:0|1:0,0:0:0:0:
293,28,80603,6,0,P|233:41|155:44,1,126.000004806519,2|10,3:2|0:0,0:0:0:0:
35,134,81132,1,2,0:0:0:0:
110,183,81309,2,0,P|117:154|122:105,1,63.0000024032594,10|0,0:0|0:0,0:0:0:0:
313,98,81662,6,0,P|330:148|340:232,1,126.000004806519,2|2,3:2|0:0,0:0:0:0:
268,261,82191,1,2,0:0:0:0:
219,92,82368,1,10,0:0:0:0:
477,27,82720,5,2,3:2:0:0:
477,27,82897,1,0,0:0:0:0:
435,139,83073,2,0,L|370:120,1,63.0000024032594,10|0,0:0|0:0,0:0:0:0:
266,27,83426,2,0,L|201:46,1,63.0000024032594,10|0,0:0|0:0,0:0:0:0:
153,116,83779,1,2,3:2:0:0:
68,88,83956,1,0,0:0:0:0:
20,233,84132,2,0,P|74:213|166:201,1,126.000004806519,10|10,0:0|0:0,0:0:0:0:
260,371,84838,5,2,3:2:0:0:
260,371,85014,1,0,0:0:0:0:
321,307,85191,2,0,P|311:271|294:238,1,63.0000024032594,10|0,0:0|0:0,0:0:0:0:
211,247,85544,2,0,P|198:276|191:307,1,63.0000024032594,10|0,0:0|0:0,0:0:0:0:
396,346,85897,6,0,P|401:331|403:315,5,21.0000008010865,2|0|0|0|0|0,3:2|1:0|1:0|1:0|1:0|1:0,0:0:0:0:
408,305,86250,2,0,P|404:274|392:231,1,63.0000024032594,10|2,0:0|0:0,0:0:0:0:
505,264,86603,1,10,0:0:0:0:
289,277,86779,6,0,L|261:268,2,21.0000008010865,0|0|0,1:0|1:0|1:0,0:0:0:0:
296,297,86956,6,0,P|274:318|245:357,1,63.0000024032594,2|0,3:2|0:0,0:0:0:0:
128,244,87309,2,0,P|147:297|161:366,1,126.000004806519,10|10,0:0|0:0,0:0:0:0:
160,365,87838,1,0,0:0:0:0:
12,339,88015,6,0,P|21:325|34:323,5,21.0000008010865,2|0|0|0|0|0,3:2|1:0|1:0|1:0|1:0|1:0,0:0:0:0:
45,319,88368,1,10,0:0:0:0:
73,177,88544,1,8,0:0:0:0:
102,35,88720,1,10,0:0:0:0:
102,35,89073,6,0,P|58:71|8:34,2,126.000004806519,2|0|10,3:2|0:0|0:0,0:0:0:0:
218,37,89956,6,0,L|251:43,2,21.0000008010865,0|0|0,1:0|1:0|1:0,0:0:0:0:
200,24,90132,6,0,P|214:116|222:221,1,189.000007209778,2|2,3:2|0:0,0:0:0:0:
351,271,90838,2,0,P|364:242|372:212,1,63.0000024032594,2|0,0:0|0:0,0:0:0:0:
341,68,91191,5,6,3:2:0:0:
256,192,91419,12,0,94643,0:0:0:0:
147,59,94874,6,0,L|110:38,2,31.5000012016297,10|2|2,0:0|0:0|0:0,0:0:0:0:
98,133,95335,2,0,L|55:137,2,31.5000012016297,10|2|2,0:0|0:0|0:0,0:0:0:0:
112,228,95797,1,10,0:0:0:0:
112,228,95912,1,2,0:0:0:0:
112,228,96028,1,2,0:0:0:0:
178,284,96258,1,10,0:0:0:0:
161,307,96374,1,10,0:0:0:0:
144,330,96489,1,10,0:0:0:0:
321,360,96720,6,0,L|311:310,3,42,10|8|8|8,0:0|0:0|0:0|0:0,0:0:0:0:
296,242,97181,1,10,0:0:0:0:
312,203,97297,1,10,0:0:0:0:
347,180,97412,1,10,0:0:0:0:
389,178,97528,1,10,0:0:0:0:
423,201,97643,2,0,L|433:251,1,42,10|10,0:0|0:0,0:0:0:0:
442,324,97874,2,0,L|406:320,4,21,10|0|0|0|2,0:0|3:0|3:0|3:0|0:0,0:0:0:0:
291,345,98335,2,0,P|277:352|262:353,1,31.5000012016297,2|2,0:0|0:0,0:0:0:0:
137,245,98564,6,0,P|205:243|269:286,1,126.000004806519,6|0,3:2|0:0,0:0:0:0:
245,107,98910,5,2,0:0:0:0:
268,115,99025,2,0,P|284:152|298:206,1,84,10|0,0:0|0:0,0:0:0:0:
358,264,99371,1,2,0:0:0:0:
367,241,99487,1,2,3:2:0:0:
489,94,99717,1,2,0:0:0:0:
317,10,99948,1,10,0:0:0:0:
310,34,100064,2,0,P|265:41|224:51,1,84,2|0,0:0|0:0,0:0:0:0:
173,103,100410,5,2,3:2:0:0:
156,83,100525,1,2,0:0:0:0:
135,69,100640,1,2,0:0:0:0:
110,61,100756,1,2,0:0:0:0:
75,37,100871,5,10,0:0:0:0:
34,48,100987,1,2,0:0:0:0:
15,85,101102,1,2,0:0:0:0:
30,123,101217,1,2,0:0:0:0:
69,137,101333,2,0,P|75:154|81:181,2,42,2|0|2,3:2|0:0|0:0,0:0:0:0:
200,19,101794,1,8,0:0:0:0:
348,64,102025,1,2,3:2:0:0:
344,88,102140,1,2,0:0:0:0:
340,113,102256,6,0,P|300:128|268:161,1,84,2|0,3:2|0:0,0:0:0:0:
185,184,102602,1,2,0:0:0:0:
189,209,102718,2,0,P|229:224|261:257,1,84,10|0,0:0|0:0,0:0:0:0:
390,360,103179,2,0,P|410:356|431:346,3,42,2|2|2|2,3:2|0:0|0:0|0:0,0:0:0:0:
459,277,103640,1,10,0:0:0:0:
421,258,103756,1,0,0:0:0:0:
400,221,103871,1,2,0:0:0:0:
417,182,103987,1,2,0:0:0:0:
450,156,104102,6,0,L|480:200,1,42,2|2,3:2|0:0,0:0:0:0:
340,292,104333,2,0,L|310:248,1,42,2|2,0:0|0:0,0:0:0:0:
328,170,104564,1,10,0:0:0:0:
328,170,104679,1,2,0:0:0:0:
328,170,104794,1,2,0:0:0:0:
178,18,105025,2,0,P|162:61|156:118,1,84,2|0,3:2|0:0,0:0:0:0:
178,172,105371,1,2,0:0:0:0:
193,192,105487,2,0,P|175:200|143:204,2,42,10|0|2,0:0|0:0|3:2,0:0:0:0:
288,368,105948,6,0,P|212:328|99:307,1,189.000007209778,4|0,3:2|0:0,0:0:0:0:
28,210,106410,5,10,0:0:0:0:
45,228,106525,1,2,0:0:0:0:
69,235,106640,1,2,0:0:0:0:
93,227,106756,1,2,0:0:0:0:
114,214,106871,2,0,P|120:193|120:169,1,42,2|0,3:2|0:0,0:0:0:0:
86,104,107102,1,2,0:0:0:0:
242,21,107333,2,0,P|248:42|248:66,1,42,8|0,0:0|0:0,0:0:0:0:
214,131,107564,1,2,3:2:0:0:
362,238,107794,6,0,P|352:149|390:50,1,189.000007209778,4|0,3:2|0:0,0:0:0:0:
501,14,108256,5,10,0:0:0:0:
483,31,108371,1,2,0:0:0:0:
469,52,108487,1,2,0:0:0:0:
463,76,108602,1,2,0:0:0:0:
464,101,108717,2,0,L|509:112,1,42,2|0,3:2|0:0,0:0:0:0:
469,178,108948,1,2,0:0:0:0:
355,343,109179,2,0,L|400:332,1,42,10|0,0:0|0:0,0:0:0:0:
360,266,109410,1,2,3:2:0:0:
160,146,109640,6,0,P|263:178|320:64,1,252.000009613037,6|8,3:2|0:0,0:0:0:0:
466,254,110333,1,2,3:2:0:0:
486,218,110448,1,2,3:2:0:0:
489,176,110563,2,0,P|476:121|434:46,1,126.000004806519,6|2,3:2|0:0,0:0:0:0:
256,22,111025,1,10,0:0:0:0:
68,59,111256,1,2,3:2:0:0:
53,79,111371,1,2,3:2:0:0:
48,104,111487,6,0,P|134:119|160:197,1,168,6|8,3:2|0:0,0:0:0:0:
93,352,112179,1,2,0:0:0:0:
84,342,112294,1,2,0:0:0:0:
75,332,112410,2,0,L|58:236,1,84,2|2,0:0|0:0,0:0:0:0:
161,104,112871,1,10,0:0:0:0:
254,254,113102,1,8,0:0:0:0:
249,294,113217,1,8,0:0:0:0:
244,335,113333,6,0,P|260:346|286:354,2,31.5000012016297,4|0|0,3:2|0:0|0:0,0:0:0:0:
379,212,113794,1,0,3:0:0:0:
474,256,114025,1,2,0:0:0:0:
474,256,114140,1,2,0:0:0:0:
474,256,114256,2,0,P|485:285|475:320,1,63.0000024032594,2|0,3:2|0:0,0:0:0:0:
424,367,114602,2,0,P|389:342|330:322,1,94.500003604889,2|2,0:0|0:0,0:0:0:0:
175,225,115179,6,0,P|107:232|50:281,1,126.000004806519,2|0,3:2|3:0,0:0:0:0:
61,266,116102,1,2,3:2:0:0:
128,346,116333,1,2,0:0:0:0:
133,328,116448,1,2,0:0:0:0:
225,292,116679,1,2,0:0:0:0:
230,310,116794,1,2,3:2:0:0:
140,165,117025,6,0,P|141:182|146:209,2,31.5000012016297,2|0|0,3:2|0:0|0:0,0:0:0:0:
226,17,117487,1,2,3:2:0:0:
31,63,117717,1,2,0:0:0:0:
31,63,117833,1,2,0:0:0:0:
31,63,117948,2,0,P|64:53|99:51,1,63.0000024032594,2|0,3:2|0:0,0:0:0:0:
161,86,118294,2,0,P|205:102|252:140,1,94.500003604889,2|2,0:0|0:0,0:0:0:0:
411,72,118871,6,0,P|414:50|422:27,3,31.5000012016297,2|0|0|0,3:2|0:0|0:0|0:0,0:0:0:0:
486,10,119333,1,2,3:2:0:0:
486,10,119794,1,2,3:2:0:0:
445,149,120025,1,2,0:0:0:0:
429,159,120140,1,2,0:0:0:0:
413,169,120256,2,0,L|362:159,1,31.5000012016297,0|0,3:0|0:0,0:0:0:0:
289,142,120487,2,0,L|238:132,1,31.5000012016297,0|0,3:0|0:0,0:0:0:0:
165,119,120717,6,0,L|70:136,2,94.500003604889,2|2|2,3:2|0:0|0:0,0:0:0:0:
61,20,121640,2,0,L|189:42,1,126.000004806519,2|0,3:2|3:0,0:0:0:0:
182,226,122333,2,0,P|192:212|204:183,1,31.5000012016297,2|0,0:0|0:0,0:0:0:0:
189,314,122563,2,0,P|237:292|308:274,1,126.000004806519,2|0,3:2|3:0,0:0:0:0:
341,364,123256,1,2,0:0:0:0:
497,215,123487,5,2,3:2:0:0:
346,134,123717,1,2,0:0:0:0:
336,150,123833,1,2,0:0:0:0:
327,166,123948,2,0,L|344:204,1,31.5000012016297,2|0,3:2|0:0,0:0:0:0:
401,293,124179,2,0,L|418:255,1,31.5000012016297,2|0,3:2|0:0,0:0:0:0:
495,123,124410,6,0,L|409:107,1,63.0000024032594,2|0,3:2|0:0,0:0:0:0:
392,47,124756,1,2,0:0:0:0:
409,40,124871,1,2,3:2:0:0:
245,22,125102,1,2,0:0:0:0:
245,22,125217,1,2,0:0:0:0:
245,22,125333,2,0,P|260:49|269:96,1,63.0000024032594,2|2,3:2|0:0,0:0:0:0:
192,213,125794,1,2,3:2:0:0:
186,194,125910,2,0,P|164:178|128:171,1,63.0000024032594,2|2,0:0|0:0,0:0:0:0:
86,106,126256,6,0,P|100:102|125:90,3,31.5000012016297,0|0|0|0,3:0|0:0|0:0|0:0,0:0:0:0:
171,44,126717,2,0,P|196:61|227:67,1,63.0000024032594,2|0,3:2|0:0,0:0:0:0:
416,20,127179,5,2,3:2:0:0:
315,141,127410,1,8,0:0:0:0:
322,110,127525,1,8,0:0:0:0:
329,79,127640,1,8,0:0:0:0:
481,148,127871,1,8,0:0:0:0:
488,189,127987,1,8,0:0:0:0:
495,230,128102,6,0,P|477:235|451:245,2,42,14|0|2,0:0|0:0|0:0,0:0:0:0:
357,373,128563,1,8,0:0:0:0:
239,204,128794,2,0,P|258:212|276:222,1,42,2|0,0:0|0:0,0:0:0:0:
279,300,129025,2,0,P|247:322|183:329,1,84,2|2,3:2|0:0,0:0:0:0:
164,266,129371,1,2,0:0:0:0:
37,362,129602,1,2,0:0:0:0:
44,338,129717,1,2,0:0:0:0:
147,176,129948,6,0,P|109:171|64:148,1,84,2|0,3:2|0:0,0:0:0:0:
20,53,130294,1,0,0:0:0:0:
37,70,130410,2,0,P|110:72|171:48,1,126,8|0,0:0|0:0,0:0:0:0:
225,19,130871,1,2,3:2:0:0:
293,134,131102,1,2,0:0:0:0:
293,134,131217,1,2,0:0:0:0:
293,134,131333,2,0,P|290:153|280:182,2,42,8|2|2,0:0|0:0|3:2,0:0:0:0:
480,18,131794,6,0,P|463:33|453:60,1,42,2|0,3:2|0:0,0:0:0:0:
399,101,132025,2,0,P|403:123|421:145,2,42,2|2|8,0:0|0:0|0:0,0:0:0:0:
250,19,132487,2,0,L|242:71,1,42,2|0,0:0|0:0,0:0:0:0:
203,166,132717,2,0,L|165:86,1,84,2|2,3:2|0:0,0:0:0:0:
105,21,133063,1,2,0:0:0:0:
97,45,133179,2,0,P|61:68|9:67,1,84,8|2,0:0|0:0,0:0:0:0:
106,240,133640,6,0,P|197:250|271:274,1,168,2|8,3:2|0:0,0:0:0:0:
246,371,134333,1,0,0:0:0:0:
62,330,134563,1,2,3:2:0:0:
156,244,134794,1,2,0:0:0:0:
159,269,134910,1,2,0:0:0:0:
162,293,135025,1,8,0:0:0:0:
267,98,135256,2,0,P|265:120|256:152,1,42,2|0,0:0|0:0,0:0:0:0:
194,176,135487,6,0,P|115:128|29:120,1,168,2|8,3:2|0:0,0:0:0:0:
171,19,136179,1,2,0:0:0:0:
310,219,136410,1,2,3:2:0:0:
256,105,136640,1,0,0:0:0:0:
280,100,136756,1,0,0:0:0:0:
304,95,136871,1,8,0:0:0:0:
488,68,137102,2,0,P|474:52|463:20,1,42,2|0,0:0|0:0,0:0:0:0:
384,9,137333,6,0,P|396:92|403:176,1,168,2|8,3:2|0:0,0:0:0:0:
336,253,138025,1,0,0:0:0:0:
512,370,138256,1,2,3:2:0:0:
400,317,138487,2,0,P|422:319|448:307,1,42,2|0,0:0|0:0,0:0:0:0:
480,249,138717,1,10,0:0:0:0:
467,227,138833,1,2,0:0:0:0:
448,210,138948,1,2,3:2:0:0:
308,77,139179,6,0,P|232:59|129:53,1,168,2|8,3:2|0:0,0:0:0:0:
65,182,139871,1,2,0:0:0:0:
79,202,139987,1,2,0:0:0:0:
101,212,140102,2,0,P|118:177|124:127,1,84,2|0,3:2|0:0,0:0:0:0:
203,157,140448,2,0,P|154:101|142:47,1,126,2|2,0:0|0:0,0:0:0:0:
321,199,141025,5,2,3:2:0:0:
235,290,141256,1,2,0:0:0:0:
210,297,141371,1,2,0:0:0:0:
185,304,141487,1,10,0:0:0:0:
433,353,141717,5,10,0:0:0:0:
394,335,141833,1,10,0:0:0:0:
355,317,141948,1,10,0:0:0:0:
450,226,142179,1,10,0:0:0:0:
407,229,142294,1,10,0:0:0:0:
478,111,142525,1,10,0:0:0:0:
442,135,142640,1,10,0:0:0:0:
299,28,142871,6,0,P|271:173|249:346,1,315,6|0,3:2|0:0,0:0:0:0:
183,366,144717,5,2,0:0:0:0:
164,363,144833,1,2,0:0:0:0:
145,360,144948,1,2,0:0:0:0:
126,357,145063,1,2,3:2:0:0:
18,298,145294,1,2,0:0:0:0:
37,295,145409,1,2,3:2:0:0:
165,276,145640,1,2,0:0:0:0:
171,245,145756,1,2,0:0:0:0:
177,214,145871,1,2,0:0:0:0:
184,183,145987,1,2,0:0:0:0:
190,155,146102,6,0,L|181:29,1,126,8|0,0:0|0:0,0:0:0:0:
53,52,146563,6,0,P|71:91|114:113,1,84,6|0,3:2|0:0,0:0:0:0:
268,82,146794,5,2,0:0:0:0:
289,105,146910,2,0,L|345:99,1,52.5,2|8,0:0|0:0,0:0:0:0:
458,20,147140,2,0,L|436:68,1,52.5,2|0,0:0|0:0,0:0:0:0:
463,166,147371,1,2,0:0:0:0:
470,196,147487,1,2,3:2:0:0:
332,357,147717,2,0,P|319:312|330:256,1,105,2|10,0:0|0:0,0:0:0:0:
432,292,148063,1,2,0:0:0:0:
402,304,148179,1,2,0:0:0:0:
234,306,148410,6,0,P|186:280|128:260,1,105,2|0,3:2|0:0,0:0:0:0:
49,352,148756,2,0,P|78:352|107:335,1,52.5,2|8,0:0|0:0,0:0:0:0:
73,200,148987,2,0,P|43:199|14:216,1,52.5,2|0,0:0|0:0,0:0:0:0:
154,108,149217,1,2,0:0:0:0:
132,131,149333,2,0,P|101:91|73:33,1,105,2|2,3:2|0:0,0:0:0:0:
161,8,149679,1,2,0:0:0:0:
184,28,149794,2,0,L|237:33,1,52.5,8|0,0:0|0:0,0:0:0:0:
353,42,150025,2,0,L|406:47,1,52.5,2|0,3:2|0:0,0:0:0:0:
285,136,150256,6,0,L|274:246,1,105,2|2,3:2|0:0,0:0:0:0:
351,348,150602,1,2,0:0:0:0:
372,324,150717,2,0,L|361:219,2,105,8|0|2,0:0|0:0|3:2,0:0:0:0:
508,280,151294,1,2,0:0:0:0:
504,311,151410,2,0,P|484:328|452:335,1,52.5,2|0,0:0|0:0,0:0:0:0:
270,320,151640,2,0,P|245:309|226:283,2,52.5,8|0|2,0:0|0:0|0:0,0:0:0:0:
45,365,152102,6,0,P|56:316|75:250,1,105,2|0,3:2|0:0,0:0:0:0:
42,144,152448,2,0,P|28:165|26:196,1,52.5,2|8,0:0|0:0,0:0:0:0:
145,230,152679,2,0,P|158:208|160:177,1,52.5,2|0,0:0|0:0,0:0:0:0:
119,115,152910,1,2,0:0:0:0:
133,86,153025,2,0,L|126:31,2,52.5,2|0|2,3:2|0:0|0:0,0:0:0:0:
236,132,153371,1,10,0:0:0:0:
279,161,153487,2,0,L|339:139,1,52.5,8|2,0:0|0:0,0:0:0:0:
503,4,153717,2,0,L|443:26,1,52.5,8|0,0:0|0:0,0:0:0:0:
354,67,153948,6,0,L|432:100,1,84,4|0,3:2|0:0,0:0:0:0:
504,215,154179,5,2,0:0:0:0:
496,245,154294,1,2,0:0:0:0:
489,275,154410,2,0,P|448:279|371:299,1,105,10|0,0:0|0:0,0:0:0:0:
222,205,154871,1,2,3:2:0:0:
242,228,154987,2,0,P|255:281|258:336,1,105,2|2,0:0|0:0,0:0:0:0:
189,365,155333,2,0,P|181:336|183:310,2,52.5,8|0|2,0:0|0:0|0:0,0:0:0:0:
354,202,155794,6,0,P|366:151|364:86,1,105,2|2,3:2|0:0,0:0:0:0:
320,41,156140,1,0,0:0:0:0:
290,53,156256,1,8,0:0:0:0:
147,99,156487,1,2,0:0:0:0:
17,13,156717,1,2,3:2:0:0:
32,40,156833,2,0,P|62:49|85:46,1,52.5,2|0,0:0|0:0,0:0:0:0:
104,168,157063,2,0,P|63:176|13:223,1,105,2|2,0:0|0:0,0:0:0:0:
9,293,157410,1,2,3:2:0:0:
307,177,157640,6,0,L|288:280,1,105,2|0,3:2|0:0,0:0:0:0:
151,349,158102,2,0,L|132:242,1,105,8|0,0:0|0:0,0:0:0:0:
266,76,158563,1,2,3:2:0:0:
292,93,158679,2,0,P|301:65|303:38,1,52.5,2|0,0:0|0:0,0:0:0:0:
201,28,158910,1,2,0:0:0:0:
171,37,159025,1,8,0:0:0:0:
390,19,159256,5,10,0:0:0:0:
437,41,159371,1,10,0:0:0:0:
484,64,159487,1,10,0:0:0:0:
364,165,159717,1,10,0:0:0:0:
393,208,159833,1,2,0:0:0:0:
237,230,160063,1,10,0:0:0:0:
241,281,160179,1,10,0:0:0:0:
95,219,160410,1,2,3:2:0:0:
62,75,160640,6,0,L|18:86,2,35,8|8|8,0:0|0:0|0:0,0:0:0:0:
71,59,160871,6,0,L|14:39,2,52.5,10|10|10,0:0|0:0|0:0,0:0:0:0:
242,182,161333,6,0,P|240:140|235:97,1,84,6|0,3:2|0:0,0:0:0:0:
347,9,161563,5,2,0:0:0:0:
327,34,161679,2,0,P|321:64|317:91,1,52.5,2|8,0:0|0:0,0:0:0:0:
151,96,161910,2,0,P|142:71|132:46,1,52.5,2|0,0:0|0:0,0:0:0:0:
212,9,162140,1,2,0:0:0:0:
242,17,162256,1,2,3:2:0:0:
161,210,162487,2,0,L|59:182,1,105,2|10,0:0|0:0,0:0:0:0:
32,275,162833,1,2,0:0:0:0:
62,267,162948,1,2,0:0:0:0:
281,174,163179,6,0,P|260:224|256:286,1,105,2|0,3:2|0:0,0:0:0:0:
303,367,163525,2,0,P|318:343|319:315,1,52.5,2|8,0:0|0:0,0:0:0:0:
179,292,163756,2,0,P|164:316|163:344,1,52.5,2|0,0:0|0:0,0:0:0:0:
97,379,163987,1,2,0:0:0:0:
82,351,164102,2,0,L|72:238,1,105,2|2,3:2|0:0,0:0:0:0:
108,137,164448,1,2,0:0:0:0:
88,161,164563,2,0,L|23:171,1,52.5,8|0,0:0|0:0,0:0:0:0:
92,54,164794,2,0,L|157:61,1,52.5,2|0,3:2|0:0,0:0:0:0:
299,131,165025,6,0,L|187:150,1,105,2|2,3:2|0:0,0:0:0:0:
209,270,165371,1,2,0:0:0:0:
238,280,165487,2,0,L|318:213,2,105,8|0|2,0:0|0:0|3:2,0:0:0:0:
336,370,166063,1,2,0:0:0:0:
360,349,166179,2,0,P|356:317|341:287,1,52.5,2|0,0:0|0:0,0:0:0:0:
494,266,166410,2,0,P|498:298|513:328,2,52.5,8|0|2,0:0|0:0|0:0,0:0:0:0:
430,117,166871,6,0,P|413:168|408:231,1,105,2|0,3:2|0:0,0:0:0:0:
274,214,167217,2,0,P|298:210|323:198,1,52.5,2|8,0:0|0:0,0:0:0:0:
344,94,167448,2,0,P|324:76|301:64,1,52.5,2|0,0:0|0:0,0:0:0:0:
198,33,167679,1,2,0:0:0:0:
167,26,167794,2,0,P|142:33|116:47,2,52.5,2|0|2,3:2|0:0|0:0,0:0:0:0:
132,199,168140,1,10,0:0:0:0:
173,166,168256,2,0,P|177:134|167:101,1,52.5,10|2,0:0|0:0,0:0:0:0:
40,19,168487,2,0,P|36:51|46:84,1,52.5,8|0,0:0|0:0,0:0:0:0:
49,201,168717,6,0,L|20:281,1,84,4|0,3:2|0:0,0:0:0:0:
181,364,168948,5,2,0:0:0:0:
176,332,169063,1,2,0:0:0:0:
170,300,169179,2,0,L|155:193,1,105,10|0,0:0|0:0,0:0:0:0:
338,88,169640,1,2,3:2:0:0:
315,110,169756,2,0,L|210:79,1,105,2|2,0:0|0:0,0:0:0:0:
165,22,170102,2,0,L|108:38,2,52.5,8|0|2,0:0|0:0|0:0,0:0:0:0:
328,191,170563,6,0,P|325:243|308:301,1,105,2|2,3:2|0:0,0:0:0:0:
251,342,170910,1,0,0:0:0:0:
236,313,171025,1,8,0:0:0:0:
376,370,171256,1,2,0:0:0:0:
467,281,171487,1,2,3:2:0:0:
472,250,171602,2,0,L|478:196,1,52.5,2|0,0:0|0:0,0:0:0:0:
387,292,171833,2,0,L|331:202,1,105,2|2,0:0|0:0,0:0:0:0:
362,133,172179,1,2,3:2:0:0:
170,333,172410,5,2,3:2:0:0:
226,349,172525,1,2,0:0:0:0:
282,365,172640,1,2,0:0:0:0:
153,194,172871,1,8,0:0:0:0:
176,319,173102,5,2,0:0:0:0:
226,349,173217,1,2,0:0:0:0:
275,378,173333,2,0,L|298:332,1,52.5,2|0,3:2|0:0,0:0:0:0:
372,200,173563,5,2,0:0:0:0:
368,168,173679,1,2,0:0:0:0:
364,136,173794,2,0,L|354:81,1,52.5,8|0,0:0|0:0,0:0:0:0:
243,204,174025,1,10,0:0:0:0:
236,151,174141,1,10,0:0:0:0:
229,99,174256,6,0,P|173:78|100:69,1,126.000004806519,2|8,3:2|0:0,0:0:0:0:
36,94,174602,1,8,0:0:0:0:
29,130,174717,1,10,0:0:0:0:
166,189,174948,6,0,L|161:162,2,28,0|0|0,3:0|3:0|3:0,0:0:0:0:
187,191,175179,6,0,L|207:125,2,63.0000024032594,10|0|8,0:0|3:0|0:0,0:0:0:0:
222,261,175525,2,0,L|269:311,2,63.0000024032594,10|0|8,0:0|3:0|0:0,0:0:0:0:
142,258,175871,1,10,0:0:0:0:
142,258,176102,6,0,P|255:196|374:156,1,252.000009613037,6|8,3:2|0:0,0:0:0:0:
433,200,176679,5,2,0:0:0:0:
435,212,176794,1,2,0:0:0:0:
437,224,176910,1,2,0:0:0:0:
439,236,177025,2,0,P|430:279|423:337,1,94.500003604889,2|0,3:2|3:0,0:0:0:0:
362,374,177487,6,0,P|343:360|322:350,1,42,8|0,0:0|0:0,0:0:0:0:
164,322,177717,1,6,0:0:0:0:
199,361,177833,1,2,0:0:0:0:
244,335,177948,6,0,P|254:206|242:81,1,252.000009613037,6|8,3:2|0:0,0:0:0:0:
176,48,178525,5,2,0:0:0:0:
163,44,178640,1,2,0:0:0:0:
150,41,178756,1,2,0:0:0:0:
136,38,178871,2,0,P|93:56|41:61,1,94.500003604889,2|0,0:0|0:0,0:0:0:0:
12,157,179333,6,0,P|33:146|62:139,1,42,8|0,0:0|3:0,0:0:0:0:
172,133,179563,1,8,0:0:0:0:
212,166,179679,1,8,0:0:0:0:
230,214,179794,6,0,L|486:163,1,252.000009613037,10|10,0:0|0:0,0:0:0:0:
476,112,180371,1,10,0:0:0:0:
502,67,180487,1,2,3:2:0:0:
210,59,180717,6,0,L|339:116,1,126.000004806519,10|0,0:0|3:0,0:0:0:0:
357,34,181063,1,0,3:0:0:0:
406,14,181179,1,8,0:0:0:0:
305,240,181410,6,0,L|297:271,2,28,2|2|2,3:2|3:2|3:2,0:0:0:0:
313,213,181640,5,6,3:2:0:0:
43,341,196414,6,0,P|77:299|133:285,1,105,6|0,3:2|0:0,0:0:0:0:
199,166,196766,6,0,P|252:176|331:223,1,126.000004806519,2|8,1:2|0:0,0:0:0:0:
289,340,197296,2,0,P|273:312|266:282,2,63.0000024032594,2|0|2,0:0|3:0|0:0,0:0:0:0:
374,363,197825,1,2,1:2:0:0:
433,132,198178,1,8,0:0:0:0:
474,210,198355,6,0,L|496:202,2,21.0000008010865,0|0|0,1:0|1:0|1:0,0:0:0:0:
462,227,198531,6,0,P|403:210|329:196,1,126.000004806519,2|2,3:2|0:0,0:0:0:0:
265,248,199061,1,2,0:0:0:0:
133,307,199237,2,0,P|165:310|195:301,1,63.0000024032594,10|0,0:0|0:0,0:0:0:0:
79,215,199590,1,2,3:2:0:0:
240,152,199767,6,0,L|235:124,2,21.0000008010865,0|0|0,1:0|1:0|1:0,0:0:0:0:
229,169,199943,6,0,P|197:171|167:162,1,63.0000024032594,2|2,0:0|1:2,0:0:0:0:
30,13,200296,1,10,0:0:0:0:
30,13,200649,6,0,P|35:43|40:89,1,63.0000024032594,2|0,3:2|0:0,0:0:0:0:
33,270,201002,2,0,P|62:212|81:154,1,126.000004806519,2|8,0:0|0:0,0:0:0:0:
179,30,201531,2,0,P|194:22|216:17,2,31.5000012016297,2|2|2,0:0|0:0|3:2,0:0:0:0:
214,113,201884,6,0,P|225:116|232:121,2,21.0000008010865,0|0|0,1:0|1:0|1:0,0:0:0:0:
201,130,202061,6,0,P|213:189|221:259,1,126.000004806519,10|10,0:0|0:0,0:0:0:0:
297,338,202590,6,0,P|287:332|281:325,2,21.0000008010865,0|0|0,1:0|1:0|1:0,0:0:0:0:
313,324,202767,6,0,P|316:263|327:194,1,126.000004806519,2|2,3:2|0:0,0:0:0:0:
450,144,203296,1,2,0:0:0:0:
455,55,203472,2,0,P|427:58|391:77,1,63.0000024032594,2|0,3:2|0:0,0:0:0:0:
265,130,203825,2,0,P|207:112|171:41,1,126.000004806519,2|2,3:2|0:0,0:0:0:0:
256,25,204355,1,8,0:0:0:0:
173,59,204531,1,10,0:0:0:0:
108,224,204708,1,10,0:0:0:0:
6,26,204884,6,0,P|67:76|138:152,1,168,6|0,3:2|0:0,0:0:0:0:
53,314,205414,2,0,P|41:287|36:249,2,63.0000024032594,2|0|0,0:0|0:0|3:0,0:0:0:0:
193,217,205943,6,0,L|185:279,1,63.0000024032594,10|2,0:0|0:0,0:0:0:0:
294,372,206296,1,2,0:0:0:0:
359,313,206472,1,0,0:0:0:0:
443,286,206649,1,2,3:2:0:0:
483,207,206825,1,0,0:0:0:0:
443,127,207002,6,0,P|432:70|441:2,1,126.000004806519,2|0,3:2|0:0,0:0:0:0:
329,45,207531,2,0,P|339:75|347:120,2,63.0000024032594,2|2|0,0:0|0:0|3:0,0:0:0:0:
189,16,208061,1,10,0:0:0:0:
106,45,208237,1,2,0:0:0:0:
33,148,208414,2,0,P|65:149|101:161,1,63.0000024032594,2|0,0:0|0:0,0:0:0:0:
219,248,208766,1,2,3:2:0:0:
120,268,208943,1,0,0:0:0:0:
21,288,209119,6,0,P|12:315|4:362,2,63.0000024032594,2|0|0,3:2|0:0|0:0,0:0:0:0:
15,199,209649,2,0,P|35:175|59:154,1,63.0000024032594,2|0,0:0|0:0,0:0:0:0:
75,67,210002,1,0,3:0:0:0:
207,17,210178,6,0,P|233:31|283:28,1,63.0000024032594,10|0,0:0|0:0,0:0:0:0:
352,15,210531,1,2,0:0:0:0:
437,37,210708,1,0,0:0:0:0:
371,129,210884,1,2,3:2:0:0:
433,190,211061,1,2,0:0:0:0:
338,254,211237,6,0,P|357:310|254:370,1,189.000007209778,2|0,3:2|0:0,0:0:0:0:
205,307,211943,2,0,P|210:270|211:231,1,63.0000024032594,2|0,0:0|3:0,0:0:0:0:
112,172,212296,5,8,0:0:0:0:
25,249,212472,2,0,P|36:248|49:239,3,21.0000008010865,8|8|8|10,0:0|0:0|0:0|0:0,0:0:0:0:
85,360,212825,2,0,P|92:352|95:342,3,21.0000008010865,8|8|8|10,0:0|0:0|0:0|0:0,0:0:0:0:
205,307,213178,1,10,0:0:0:0:
205,307,213348,6,0,P|357:287|534:283,1,315,6|0,3:2|0:0,0:0:0:0:
500,190,215194,5,2,0:0:0:0:
483,199,215309,1,2,0:0:0:0:
464,203,215424,1,2,0:0:0:0:
445,201,215540,1,2,3:2:0:0:
394,78,215771,1,2,0:0:0:0:
413,80,215887,1,2,3:2:0:0:
304,168,216117,1,2,0:0:0:0:
273,173,216232,1,2,0:0:0:0:
241,178,216348,1,2,0:0:0:0:
210,183,216463,1,2,0:0:0:0:
182,188,216578,6,0,P|132:163|56:136,1,126,8|0,0:0|0:0,0:0:0:0:
66,139,217040,6,0,P|85:101|93:58,1,84,6|0,3:2|0:0,0:0:0:0:
66,139,218424,6,0,P|116:115|165:59,1,126,6|0,3:2|0:0,0:0:0:0:
307,9,218886,6,0,P|292:76|283:178,1,168,6|0,3:2|0:0,0:0:0:0:
354,273,219232,2,0,P|360:243|347:217,1,52.5,2|8,0:0|0:0,0:0:0:0:
203,272,219463,2,0,P|199:241|214:216,1,52.5,2|0,0:0|0:0,0:0:0:0:
243,349,219694,1,2,0:0:0:0:
254,377,219809,2,0,P|307:361|362:357,1,105,2|2,3:2|0:0,0:0:0:0:
493,314,220155,1,2,0:0:0:0:
474,339,220271,2,0,P|457:321|446:293,1,52.5,8|0,0:0|0:0,0:0:0:0:
447,175,220501,2,0,P|456:152|478:131,1,52.5,2|0,3:2|0:0,0:0:0:0:
415,27,220732,6,0,P|367:27|296:18,1,105,2|2,3:2|0:0,0:0:0:0:
178,119,221078,1,2,0:0:0:0:
173,89,221194,2,0,P|220:88|292:98,2,105,8|0|2,0:0|0:0|3:2,0:0:0:0:
57,16,221771,1,2,0:0:0:0:
80,37,221886,2,0,P|88:60|90:89,1,52.5,2|0,0:0|0:0,0:0:0:0:
93,220,222117,2,0,P|101:195|115:173,2,52.5,8|0|2,0:0|0:0|0:0,0:0:0:0:
243,363,222578,6,0,P|207:329|147:323,1,105,2|0,3:2|0:0,0:0:0:0:
31,370,222924,2,0,L|89:357,1,52.5,2|8,0:0|0:0,0:0:0:0:
182,239,223155,2,0,L|240:252,1,52.5,2|0,0:0|0:0,0:0:0:0:
328,344,223386,1,2,0:0:0:0:
352,364,223501,2,0,L|365:306,2,52.5,2|0|2,3:2|0:0|0:0,0:0:0:0:
422,258,223848,1,10,0:0:0:0:
460,293,223963,2,0,P|465:319|464:353,1,52.5,8|2,0:0|0:0,0:0:0:0:
332,179,224194,2,0,P|327:204|327:230,1,52.5,8|0,0:0|0:0,0:0:0:0:
236,328,224424,6,0,P|199:344|154:349,1,84,4|0,3:2|0:0,0:0:0:0:
60,225,224655,5,2,0:0:0:0:
75,197,224771,1,2,0:0:0:0:
105,190,224886,2,0,P|146:220|175:273,1,105,10|0,0:0|0:0,0:0:0:0:
304,144,225348,1,2,3:2:0:0:
289,116,225463,2,0,P|307:68|351:26,1,105,2|2,0:0|0:0,0:0:0:0:
409,72,225809,2,0,P|417:49|416:10,2,52.5,8|0|2,0:0|0:0|0:0,0:0:0:0:
178,29,226271,6,0,L|195:140,1,105,2|2,3:2|0:0,0:0:0:0:
152,196,226617,1,0,0:0:0:0:
128,175,226732,1,8,0:0:0:0:
277,75,226963,1,2,0:0:0:0:
379,223,227194,1,2,3:2:0:0:
404,205,227309,2,0,L|416:149,1,52.5,2|0,0:0|0:0,0:0:0:0:
469,45,227540,2,0,L|496:154,1,105,2|2,0:0|0:0,0:0:0:0:
509,222,227886,1,2,3:2:0:0:
374,365,228117,6,0,P|425:357|475:341,1,105,2|0,3:2|0:0,0:0:0:0:
356,233,228578,2,0,P|305:217|245:209,1,105,8|0,0:0|0:0,0:0:0:0:
148,63,229040,1,2,3:2:0:0:
171,84,229156,2,0,P|198:75|214:51,1,52.5,2|0,0:0|0:0,0:0:0:0:
299,20,229386,1,2,0:0:0:0:
294,50,229501,1,8,0:0:0:0:
159,226,229732,5,10,0:0:0:0:
165,277,229847,1,10,0:0:0:0:
172,329,229963,1,10,0:0:0:0:
76,203,230194,1,10,0:0:0:0:
56,251,230310,1,10,0:0:0:0:
223,142,230540,1,10,0:0:0:0:
242,189,230656,1,10,0:0:0:0:
128,27,230886,1,2,3:2:0:0:
32,132,231117,6,0,P|53:119|68:116,2,35,8|8|8,0:0|0:0|0:0,0:0:0:0:
32,149,231347,6,0,P|60:156|86:166,2,52.5,10|10|10,0:0|0:0|0:0,0:0:0:0:
232,279,231809,6,0,P|248:321|259:361,1,84,6|0,3:2|0:0,0:0:0:0:
371,169,232040,1,2,0:0:0:0:
347,189,232155,2,0,P|334:214|326:245,1,52.5,2|8,0:0|0:0,0:0:0:0:
238,122,232386,2,0,P|239:150|247:180,1,52.5,2|0,0:0|0:0,0:0:0:0:
366,57,232617,1,2,0:0:0:0:
336,66,232732,1,2,3:2:0:0:
499,234,232963,2,0,L|414:165,1,105,2|10,0:0|0:0,0:0:0:0:
493,105,233309,1,2,0:0:0:0:
500,135,233424,1,2,0:0:0:0:
352,258,233655,6,0,L|367:363,1,105,2|0,3:2|0:0,0:0:0:0:
222,296,234001,2,0,L|274:304,1,52.5,2|8,0:0|0:0,0:0:0:0:
447,324,234232,2,0,L|499:332,1,52.5,2|0,0:0|0:0,0:0:0:0:
508,205,234463,1,2,0:0:0:0:
491,231,234578,2,0,P|439:216|419:156,1,105,2|2,3:2|0:0,0:0:0:0:
351,53,234924,1,2,0:0:0:0:
326,31,235040,2,0,P|306:46|296:83,1,52.5,8|0,0:0|0:0,0:0:0:0:
197,165,235271,2,0,P|177:150|167:113,1,52.5,2|0,3:2|0:0,0:0:0:0:
18,18,235501,6,0,P|33:67|37:129,1,105,2|2,3:2|0:0,0:0:0:0:
67,254,235847,1,2,0:0:0:0:
82,283,235963,2,0,P|86:230|101:180,2,105,8|0|2,0:0|0:0|3:2,0:0:0:0:
219,363,236540,1,2,0:0:0:0:
231,334,236655,2,0,P|210:321|182:316,1,52.5,2|0,0:0|0:0,0:0:0:0:
304,251,236886,2,0,P|298:226|282:203,2,52.5,8|0|2,0:0|0:0|0:0,0:0:0:0:
477,177,237347,6,0,P|448:207|417:268,1,105,2|0,3:2|0:0,0:0:0:0:
493,366,237694,2,0,P|499:338|490:302,1,52.5,2|8,0:0|0:0,0:0:0:0:
392,138,237924,2,0,P|367:122|330:118,1,52.5,2|0,0:0|0:0,0:0:0:0:
236,200,238155,1,2,0:0:0:0:
258,222,238271,2,0,L|268:168,2,52.5,2|0|2,3:2|0:0|0:0,0:0:0:0:
136,27,238617,1,10,0:0:0:0:
166,69,238732,2,0,L|226:84,1,52.5,10|2,0:0|0:0,0:0:0:0:
316,23,238963,2,0,L|352:69,1,52.5,8|0,0:0|0:0,0:0:0:0:
468,39,239194,6,0,L|482:129,1,84,6|0,3:2|0:0,0:0:0:0:
419,326,239424,5,2,0:0:0:0:
394,305,239540,1,2,0:0:0:0:
380,276,239655,2,0,P|384:229|413:175,1,105,10|0,0:0|0:0,0:0:0:0:
271,49,240117,1,2,3:2:0:0:
287,75,240232,2,0,P|283:122|254:176,1,105,2|2,0:0|0:0,0:0:0:0:
238,256,240578,2,0,P|265:250|295:244,2,52.5,8|0|2,0:0|0:0|0:0,0:0:0:0:
90,360,241040,6,0,P|79:308|53:247,1,105,2|2,3:2|0:0,0:0:0:0:
19,197,241386,1,0,0:0:0:0:
48,185,241501,1,8,0:0:0:0:
162,26,241732,1,2,0:0:0:0:
35,76,241963,1,2,3:2:0:0:
64,87,242078,2,0,L|115:106,1,52.5,2|0,0:0|0:0,0:0:0:0:
228,119,242309,2,0,L|343:94,1,105,2|2,0:0|0:0,0:0:0:0:
343,22,242655,1,2,0:0:0:0:
491,246,242886,5,2,3:2:0:0:
451,211,243001,1,2,0:0:0:0:
410,175,243117,1,2,0:0:0:0:
499,24,243347,1,8,0:0:0:0:
480,255,243578,5,2,0:0:0:0:
450,210,243693,1,2,0:0:0:0:
421,165,243809,2,0,L|414:107,1,52.5,2|0,3:2|0:0,0:0:0:0:
245,54,244040,5,2,0:0:0:0:
226,79,244155,1,2,0:0:0:0:
207,104,244271,2,0,L|199:162,1,52.5,8|0,0:0|0:0,0:0:0:0:
234,307,244501,1,10,0:0:0:0:
184,287,244617,1,10,0:0:0:0:
134,269,244732,6,0,L|13:323,1,126.000004806519,2|8,3:2|0:0,0:0:0:0:
26,195,245078,1,8,0:0:0:0:
62,207,245194,1,10,0:0:0:0:
41,65,245424,6,0,L|34:31,2,28,0|0|0,3:0|3:0|3:0,0:0:0:0:
58,52,245655,6,0,L|124:36,2,63.0000024032594,10|0|8,0:0|3:0|0:0,0:0:0:0:
88,125,246001,2,0,L|68:190,2,63.0000024032594,10|0|8,0:0|3:0|0:0,0:0:0:0:
9,114,246347,1,10,0:0:0:0:
9,114,246578,6,0,P|30:231|43:377,1,252.000009613037,6|8,3:2|0:0,0:0:0:0:
117,337,247155,5,2,0:0:0:0:
121,325,247271,1,2,0:0:0:0:
125,313,247386,1,2,0:0:0:0:
129,301,247501,2,0,P|176:297|231:278,1,94.500003604889,2|0,3:2|3:0,0:0:0:0:
160,164,247963,6,0,P|156:183|153:219,1,42,8|0,0:0|0:0,0:0:0:0:
289,364,248194,1,6,0:0:0:0:
315,318,248309,1,2,0:0:0:0:
317,265,248424,6,0,P|305:139|283:15,1,252.000009613037,6|8,3:2|0:0,0:0:0:0:
387,54,249001,5,2,0:0:0:0:
382,65,249117,1,2,0:0:0:0:
379,77,249232,1,2,0:0:0:0:
377,89,249347,2,0,P|398:126|419:186,1,94.500003604889,2|0,0:0|0:0,0:0:0:0:
460,311,249809,6,0,P|471:289|479:261,1,42,8|0,0:0|3:0,0:0:0:0:
296,354,250040,1,8,0:0:0:0:
339,324,250155,1,8,0:0:0:0:
338,271,250271,6,0,P|241:205|122:134,1,252.000009613037,10|10,0:0|0:0,0:0:0:0:
124,83,250847,1,10,0:0:0:0:
167,53,250962,1,2,3:2:0:0:
37,208,251194,6,0,P|26:279|23:341,1,126.000004806519,10|0,0:0|3:0,0:0:0:0:
124,366,251540,1,0,3:0:0:0:
105,317,251655,1,10,0:0:0:0:
198,179,251886,6,0,P|206:195|209:220,2,28,2|2|2,3:2|3:2|3:2,0:0:0:0:
178,158,252117,6,0,P|232:128|262:71,1,126.000004806519,6|0,3:2|0:0,0:0:0:0:
210,16,252463,5,2,0:0:0:0:
187,24,252578,2,0,P|144:27|92:15,1,84,8|0,0:0|0:0,0:0:0:0:
51,75,252924,1,2,0:0:0:0:
71,89,253040,1,2,3:2:0:0:
180,249,253271,1,2,0:0:0:0:
23,368,253501,1,10,0:0:0:0:
12,344,253617,2,0,P|20:308|45:250,1,84,2|0,0:0|0:0,0:0:0:0:
9,193,253963,5,2,3:2:0:0:
24,173,254078,1,2,0:0:0:0:
45,160,254194,1,2,0:0:0:0:
69,152,254309,1,2,0:0:0:0:
99,123,254424,5,10,0:0:0:0:
113,83,254540,1,2,0:0:0:0:
100,42,254655,1,2,0:0:0:0:
60,25,254771,1,2,0:0:0:0:
24,47,254886,2,0,P|20:78|26:101,2,42,2|0|2,3:2|0:0|0:0,0:0:0:0:
161,184,255347,1,8,0:0:0:0:
343,19,255578,1,2,0:0:0:0:
331,42,255694,1,2,0:0:0:0:
327,66,255809,6,0,P|288:82|242:110,1,84,2|0,3:2|0:0,0:0:0:0:
346,197,256155,1,2,0:0:0:0:
326,211,256270,2,0,P|287:194|234:182,1,84,10|0,0:0|0:0,0:0:0:0:
116,365,256732,2,0,P|127:344|155:332,3,42,2|2|2|2,3:2|0:0|0:0|0:0,0:0:0:0:
156,259,257194,1,10,0:0:0:0:
190,235,257309,1,2,0:0:0:0:
230,225,257424,1,2,0:0:0:0:
272,229,257540,1,2,0:0:0:0:
307,250,257655,6,0,P|325:268|334:283,1,42,2|2,3:2|0:0,0:0:0:0:
432,358,257886,2,0,P|436:333|444:317,1,42,2|2,0:0|0:0,0:0:0:0:
423,212,258117,1,10,0:0:0:0:
423,212,258232,1,2,0:0:0:0:
423,212,258347,1,2,0:0:0:0:
335,30,258578,2,0,P|363:57|415:84,1,84,2|0,3:2|0:0,0:0:0:0:
337,135,258924,1,2,0:0:0:0:
318,152,259040,2,0,P|297:156|272:173,2,42,10|0|2,0:0|0:0|3:2,0:0:0:0:
193,331,259501,6,0,P|172:193|146:66,1,252,6|0,3:2|0:0,0:0:0:0:
92,168,259963,5,10,0:0:0:0:
117,165,260078,1,2,0:0:0:0:
142,162,260194,1,2,0:0:0:0:
167,159,260309,1,2,0:0:0:0:
192,156,260424,2,0,L|237:149,1,42,2|0,3:2|0:0,0:0:0:0:
309,141,260655,1,2,0:0:0:0:
494,28,260886,2,0,L|449:35,1,42,8|0,0:0|0:0,0:0:0:0:
377,43,261117,1,2,3:2:0:0:
138,29,261347,6,0,P|220:81|286:224,1,252,6|0,3:2|0:0,0:0:0:0:
186,352,261809,5,10,0:0:0:0:
167,335,261924,1,2,0:0:0:0:
159,310,262040,1,2,0:0:0:0:
164,285,262155,1,2,0:0:0:0:
177,263,262271,2,0,P|201:248|232:245,1,42,2|0,3:2|0:0,0:0:0:0:
273,293,262501,1,2,0:0:0:0:
479,298,262732,2,0,P|455:313|424:316,1,42,10|0,0:0|0:0,0:0:0:0:
383,268,262962,1,2,3:2:0:0:
142,27,263194,6,0,P|268:48|384:100,1,252.000009613037,6|8,3:2|0:0,0:0:0:0:
447,331,263886,1,2,3:2:0:0:
412,355,264001,1,2,3:2:0:0:
368,345,264117,2,0,P|354:292|352:219,1,126.000004806519,6|2,3:2|0:0,0:0:0:0:
256,60,264578,1,10,0:0:0:0:
160,222,264809,1,2,3:2:0:0:
160,247,264924,1,2,3:2:0:0:
160,272,265040,6,0,P|120:261|53:354,1,168,6|8,3:2|0:0,0:0:0:0:
272,354,265732,1,2,0:0:0:0:
263,346,265847,1,2,0:0:0:0:
252,339,265963,2,0,P|262:296|267:252,1,84,2|0,0:0|0:0,0:0:0:0:
388,357,266424,1,10,0:0:0:0:
488,249,266655,5,8,0:0:0:0:
486,289,266771,1,8,0:0:0:0:
509,321,266886,1,4,3:2:0:0:
