osu file format v14

[General]
AudioFilename: audio.mp3
AudioLeadIn: 0
PreviewTime: 146333
Countdown: 0
SampleSet: Soft
StackLeniency: 0.5
Mode: 0
LetterboxInBreaks: 0
WidescreenStoryboard: 0

[Editor]
Bookmarks: 10721,53072,98564,113333,128102,146563,161333,181640,196414,204884,217040,231809,252117,266886
DistanceSpacing: 1
BeatDivisor: 4
GridSize: 4
TimelineZoom: 2.15

[Metadata]
Title:Replique (feat. Toromaru)
TitleUnicode:Réplique (feat. とろまる)
Artist:Risa Yuzuki
ArtistUnicode:Risa Yuzuki
Creator:Hinsvar
Version:Expert
Source:
Tags:柚木梨沙 Luminaria ゆずりさ Yuzurisa Japanese Pop J-Pop JPop Electronic Electropop Electro (feat​.​とろまる) Featured Artist FA Mappers' Guild MPG
BeatmapID:3208413
BeatmapSetID:1571215

[Difficulty]
HPDrainRate:5.5
CircleSize:4.8
OverallDifficulty:8.3
ApproachRate:8.8
SliderMultiplier:1.84
SliderTickRate:1

[Events]
//Background and Video events
0,0,"replique.jpg",0,0
//Break Periods
2,181840,195785
//Storyboard Layer 0 (Background)
//Storyboard Layer 1 (Fail)
//Storyboard Layer 2 (Pass)
//Storyboard Layer 3 (Foreground)
//Storyboard Layer 4 (Overlay)
//Storyboard Sound Samples

[TimingPoints]
1061,352.941176470588,3,2,1,50,1,0
10721,352.941176470588,3,2,1,50,1,0
11426,-80,3,2,1,50,0,0
11779,-200,3,2,1,50,0,0
12044,-200,3,2,1,5,0,0
12132,-100,3,2,1,50,0,0
12838,-80,3,2,1,50,0,0
13191,-133.333333333333,3,2,1,50,0,0
18132,-200,3,2,1,50,0,0
18485,-133.333333333333,3,2,1,50,0,0
22368,-200,3,2,1,50,0,0
22720,-133.333333333333,3,2,1,50,0,0
28368,-200,3,2,1,50,0,0
29073,-133.333333333333,3,2,1,50,0,0
29779,-200,3,2,1,50,0,0
30132,-133.333333333333,3,2,1,50,0,0
30838,-200,3,2,1,50,0,0
31191,-133.333333333333,3,2,1,50,0,0
35073,-200,3,2,1,50,0,0
35426,-133.333333333333,3,2,1,50,0,0
48838,-400,3,2,1,55,0,0
49897,-200,3,2,1,55,0,0
50956,-133.333333333333,3,2,1,55,0,0
52015,-100,3,2,1,55,0,0
53073,-133.333333333333,3,2,1,60,0,0
68515,-133.333333333333,3,2,1,5,0,0
68603,-133.333333333333,3,2,1,60,0,0
68691,-133.333333333333,3,2,1,5,0,0
68956,-133.333333333333,3,2,1,60,0,0
91191,457.142857142857,4,2,2,60,1,0
92105,461.538461538461,4,2,2,60,1,0
93028,461.538461538461,4,2,2,60,1,0
94874,-100,4,2,2,65,0,0
96720,-100,4,2,2,70,0,0
98564,461.538461538461,4,2,2,75,1,0
98564,-50,4,2,2,75,0,0
98910,-66.6666666666667,4,2,2,75,0,0
99371,-100,4,2,2,75,0,0
101333,-66.6666666666667,4,2,2,75,0,0
102602,-100,4,2,2,75,0,0
105025,-66.6666666666667,4,2,2,75,0,0
105371,-100,4,2,2,75,0,0
105948,-50,4,2,2,75,0,0
106294,-50,4,2,2,5,0,0
106410,-100,4,2,2,75,0,0
107794,-50,4,2,2,75,0,0
108140,-50,4,2,2,5,0,0
108256,-100,4,2,2,75,0,0
109640,-50,4,2,2,75,0,0
111487,-100,4,2,2,75,0,0
112179,-100,4,2,2,65,0,0
113102,-100,4,2,2,75,0,0
113333,-133.333333333333,4,2,2,55,0,0
128102,-100,4,2,2,65,0,0
130756,-100,4,2,2,5,0,0
130871,-100,4,2,2,65,0,0
141717,-100,4,2,2,75,0,0
142871,-200,4,2,2,65,0,0
144602,-200,4,2,2,5,0,0
144717,-133.333333333333,4,2,2,65,0,0
146102,-100,4,2,2,75,0,0
146563,-50,4,2,2,85,0,1
146794,-80,4,2,2,85,0,1
153948,-50,4,2,2,85,0,1
154179,-80,4,2,2,85,0,1
160640,-80,4,2,2,75,0,1
160871,-80,4,2,2,85,0,0
161333,-50,4,2,2,85,0,1
161563,-80,4,2,2,85,0,1
168717,-50,4,2,2,85,0,1
168948,-80,4,2,2,85,0,1
174256,-66.6666666666667,4,2,2,85,0,1
176679,-133.333333333333,4,2,2,85,0,1
177487,-100,4,2,2,85,0,1
177602,-100,4,2,2,5,0,1
177717,-66.6666666666667,4,2,2,75,0,1
177948,-66.6666666666667,4,2,2,85,0,1
178525,-133.333333333333,4,2,2,85,0,1
179333,-100,4,2,2,85,0,1
179563,-66.6666666666667,4,2,2,85,0,1
180717,-50,4,2,2,85,0,1
181640,-100,4,2,2,75,0,0
196414,352.941176470588,3,2,1,60,1,0
196414,-80,3,2,1,60,0,0
196766,-133.333333333333,3,2,1,60,0,0
204531,-133.333333333333,3,2,2,70,0,0
204884,-100,3,2,2,65,0,0
205414,-133.333333333333,3,2,2,65,0,0
213002,-80,3,2,2,75,0,0
213348,461.538461538461,4,2,2,65,1,0
213348,-200,4,2,2,65,0,0
215078,-200,4,2,2,5,0,0
215194,-133.333333333333,4,2,2,65,0,0
216578,-100,4,2,2,75,0,0
217040,-33.3333333333333,4,2,2,75,0,0
217155,-33.3333333333333,4,2,2,5,0,0
218424,-100,4,2,2,75,0,0
218771,-100,4,2,2,5,0,0
218886,-50,4,2,2,85,0,1
219232,-80,4,2,2,85,0,1
224424,-50,4,2,2,85,0,1
224655,-80,4,2,2,85,0,1
231117,-80,4,2,2,75,0,1
231347,-80,4,2,2,85,0,0
231809,-50,4,2,2,85,0,1
232040,-80,4,2,2,85,0,1
239194,-50,4,2,2,85,0,1
239424,-80,4,2,2,85,0,1
244732,-66.6666666666667,4,2,2,85,0,1
247155,-133.333333333333,4,2,2,85,0,1
247963,-100,4,2,2,85,0,1
248078,-100,4,2,2,5,0,1
248194,-66.6666666666667,4,2,2,75,0,1
248424,-66.6666666666667,4,2,2,85,0,1
249001,-133.333333333333,4,2,2,85,0,1
249809,-100,4,2,2,85,0,1
250040,-66.6666666666667,4,2,2,85,0,1
251194,-50,4,2,2,85,0,1
252117,-50,4,2,2,75,0,0
252463,-66.6666666666667,4,2,2,75,0,0
252924,-100,4,2,2,75,0,0
254886,-66.6666666666667,4,2,2,75,0,0
256155,-100,4,2,2,75,0,0
258578,-66.6666666666667,4,2,2,75,0,0
258924,-100,4,2,2,75,0,0
259501,-50,4,2,2,75,0,0
259847,-50,4,2,2,5,0,0
259963,-100,4,2,2,75,0,0
261347,-50,4,2,2,75,0,0
261694,-50,4,2,2,5,0,0
261809,-100,4,2,2,75,0,0
263194,-50,4,2,2,75,0,0
265040,-100,4,2,2,75,0,0
265732,-100,4,2,2,65,0,0
266655,-100,4,2,2,75,0,0
266886,-100,4,2,2,55,0,0

[Colours]
Combo1 : 222,201,126
Combo2 : 207,193,24
Combo3 : 176,117,51
Combo4 : 255,128,0

[HitObjects]
114,365,10721,5,2,0:0:0:0:
159,310,10897,1,2,0:0:0:0:
38,168,11073,2,0,P|73:207|111:225,1,92,2|0,0:0|0:0,0:0:0:0:
259,290,11426,2,0,P|315:271|346:216,1,115,2|0,0:0|0:0,0:0:0:0:
470,106,11779,6,0,P|477:71|452:42,1,69,2|0,0:0|0:0,0:0:0:0:
458,45,12132,1,2,0:0:0:0:
408,88,12309,1,0,0:0:0:0:
313,157,12485,1,2,0:0:0:0:
225,118,12662,1,2,0:0:0:0:
88,21,12838,6,0,P|72:67|71:149,1,115,2|0,0:0|0:0,0:0:0:0:
144,238,13191,6,0,P|143:206|130:163,1,69.0000026321412,2|0,0:0|0:0,0:0:0:0:
22,191,13544,2,0,P|23:223|36:266,1,69.0000026321412,2|0,0:0|0:0,0:0:0:0:
32,258,13897,1,0,0:0:0:0:
32,258,14250,2,0,P|23:225|22:191,1,69.0000026321412,2|0,0:0|0:0,0:0:0:0:
133,170,14603,2,0,P|142:203|144:238,1,69.0000026321412,2|0,0:0|0:0,0:0:0:0:
144,237,14956,1,0,0:0:0:0:
368,238,15309,6,0,P|369:206|382:163,1,69.0000026321412,2|0,0:0|0:0,0:0:0:0:
490,191,15662,2,0,P|489:223|476:266,1,69.0000026321412,2|0,0:0|0:0,0:0:0:0:
480,258,16015,1,0,0:0:0:0:
480,258,16368,2,0,P|489:225|490:191,1,69.0000026321412,2|0,0:0|0:0,0:0:0:0:
379,170,16721,2,0,P|370:203|368:238,1,69.0000026321412,2|0,0:0|0:0,0:0:0:0:
367,237,17073,6,0,P|350:206|327:105,2,138.000005264282,2|2|2,0:0|0:0|0:0,0:0:0:0:
462,332,17956,1,0,0:0:0:0:
406,372,18132,2,0,P|386:365|355:351,1,46
437,204,18485,5,2,0:0:0:0:
75,204,18838,1,2,0:0:0:0:
256,319,19191,1,2,0:0:0:0:
74,274,19544,6,0,P|101:297|121:325,1,69.0000026321412,2|0,0:0|0:0,0:0:0:0:
170,191,19897,2,0,P|182:223|185:257,1,69.0000026321412,2|0,0:0|0:0,0:0:0:0:
256,319,20250,1,0,0:0:0:0:
437,274,20603,2,0,P|410:297|390:325,1,69.0000026321412,2|0,0:0|0:0,0:0:0:0:
341,191,20956,2,0,P|329:223|326:257,1,69.0000026321412,2|0,0:0|0:0,0:0:0:0:
256,319,21309,5,2,0:0:0:0:
256,319,21485,1,0,0:0:0:0:
149,377,21662,2,0,P|153:304|169:242,1,138.000005264282,2|2,0:0|0:0,0:0:0:0:
169,241,22191,1,0,0:0:0:0:
49,328,22368,2,0,P|60:303|63:274,1,46
162,153,22720,6,0,P|145:119|124:85,1,69.0000026321412,2|0,0:0|0:0,0:0:0:0:
313,67,23073,2,0,P|283:43|250:21,1,69.0000026321412,2|0,0:0|0:0,0:0:0:0:
163,3,23426,1,2,0:0:0:0:
395,109,23779,2,0,P|391:139|378:179,1,69.0000026321412,2|0,0:0|0:0,0:0:0:0:
510,201,24132,2,0,P|491:224|460:253,1,69.0000026321412,2|0,0:0|0:0,0:0:0:0:
373,262,24485,1,0,0:0:0:0:
164,194,24838,2,0,P|168:224|181:264,1,69.0000026321412,2|0,0:0|0:0,0:0:0:0:
49,286,25191,2,0,P|67:309|98:338,1,69.0000026321412,2|0,0:0|0:0,0:0:0:0:
186,347,25544,6,0,P|254:348|330:373,1,138.000005264282,2|2,0:0|0:0,0:0:0:0:
416,189,26073,1,0,0:0:0:0:
389,274,26250,2,0,P|400:308|417:344,1,69.0000026321412,2|0,0:0|0:0,0:0:0:0:
297,261,26603,2,0,P|285:190|286:112,2,138.000005264282,0|2|2,0:0|0:0|0:0,0:0:0:0:
297,261,27662,6,0,P|345:190|372:267,1,207.000007896424,2|0,0:0|0:0,0:0:0:0:
251,311,28368,2,0,P|234:296|226:263,1,46,2|0,0:0|0:0,0:0:0:0:
226,274,28720,1,0,0:0:0:0:
409,364,29073,2,0,P|449:320|474:240,1,138.000005264282,2|2,0:0|0:0,0:0:0:0:
473,246,29603,1,0,0:0:0:0:
475,160,29779,6,0,P|474:137|469:111,1,46,2|0,0:0|0:0,0:0:0:0:
293,25,30132,2,0,P|296:57|309:104,1,69.0000026321412,2|0,0:0|0:0,0:0:0:0:
475,160,30485,1,2,0:0:0:0:
475,160,30662,1,0,0:0:0:0:
475,160,30838,2,0,P|474:137|469:111,1,46
269,156,31191,2,0,P|298:169|345:181,1,69.0000026321412,2|0,0:0|0:0,0:0:0:0:
499,49,31544,2,0,P|469:35|422:23,1,69.0000026321412,2|0,0:0|0:0,0:0:0:0:
434,25,31897,1,2,0:0:0:0:
313,250,32250,6,0,P|304:284|299:328,1,69.0000026321412,2|0,0:0|0:0,0:0:0:0:
370,114,32603,1,2,0:0:0:0:
299,317,32956,1,0,0:0:0:0:
231,375,33132,1,2,0:0:0:0:
141,371,33309,2,0,P|114:342|101:304,1,69.0000026321412,2|0,0:0|0:0,0:0:0:0:
31,186,33662,2,0,P|37:148|59:113,1,69.0000026321412,2|0,0:0|0:0,0:0:0:0:
213,67,34015,5,2,0:0:0:0:
213,67,34191,1,0,0:0:0:0:
97,9,34368,2,0,P|111:36|121:83,1,69.0000026321412,2|0,0:0|0:0,0:0:0:0:
313,69,34720,2,0,P|295:93|278:138,1,69.0000026321412,2|0,0:0|0:0,0:0:0:0:
134,301,35073,6,0,P|138:278|148:257,1,46
103,149,35426,6,0,P|72:152|36:169,1,69.0000026321412,2|0,0:0|0:0,0:0:0:0:
240,196,35779,2,0,P|262:216|280:252,1,69.0000026321412,2|0,0:0|0:0,0:0:0:0:
280,250,36132,1,2,0:0:0:0:
103,149,36485,2,0,P|72:152|36:169,1,69.0000026321412,2|0,0:0|0:0,0:0:0:0:
63,267,36838,5,2,0:0:0:0:
14,64,37191,1,0,0:0:0:0:
216,18,37544,2,0,L|232:86,1,69.0000026321412,2|0,0:0|0:0,0:0:0:0:
263,218,37897,2,0,L|195:234,1,69.0000026321412,2|0,0:0|0:0,0:0:0:0:
163,149,38250,5,2,0:0:0:0:
163,149,38426,1,0,0:0:0:0:
154,300,38602,1,2,0:0:0:0:
306,308,38779,1,0,0:0:0:0:
314,156,38956,2,0,P|287:173|254:212,1,69.0000026321412,2|0,0:0|0:0,0:0:0:0:
310,312,39309,1,2,0:0:0:0:
310,312,39485,1,0,0:0:0:0:
414,358,39662,6,0,P|425:325|430:287,1,69.0000026321412,2|0,0:0|0:0,0:0:0:0:
475,214,40015,2,0,P|468:180|453:144,1,69.0000026321412,2|0,0:0|0:0,0:0:0:0:
483,62,40368,1,2,0:0:0:0:
454,369,40720,2,0,P|456:334|451:296,1,69.0000026321412,2|0,0:0|0:0,0:0:0:0:
475,214,41073,2,0,P|460:183|436:152,1,69.0000026321412,2|0,0:0|0:0,0:0:0:0:
444,65,41426,5,2,0:0:0:0:
256,248,41779,1,2,0:0:0:0:
68,65,42132,1,2,0:0:0:0:
68,65,42309,1,0,0:0:0:0:
68,65,42485,6,0,P|71:129|57:213,1,138.000005264282,2|2,0:0|0:0,0:0:0:0:
19,380,43015,1,0,0:0:0:0:
0,293,43191,2,0,P|36:287|77:284,1,69.0000026321412,2|0,0:0|0:0,0:0:0:0:
166,210,43544,2,0,P|225:234|289:281,1,138.000005264282,0|2,0:0|0:0,0:0:0:0:
303,365,44073,1,2,0:0:0:0:
217,335,44250,1,2,0:0:0:0:
371,306,44426,1,2,0:0:0:0:
371,306,44603,6,0,P|382:248|389:162,1,138.000005264282,2|2,0:0|0:0,0:0:0:0:
307,34,45132,1,0,0:0:0:0:
451,122,45309,2,0,P|458:83|471:55,1,69.0000026321412,2|0,0:0|0:0,0:0:0:0:
321,129,45662,1,2,0:0:0:0:
462,142,46015,2,0,P|478:106|498:82,1,69.0000026321412,2|0,0:0|0:0,0:0:0:0:
307,143,46368,1,2,0:0:0:0:
186,236,46720,6,0,P|147:195|67:145,1,138.000005264282,2|2,0:0|0:0,0:0:0:0:
5,248,47250,1,0,0:0:0:0:
67,311,47426,2,0,P|79:278|101:239,1,69.0000026321412,2|0,0:0|0:0,0:0:0:0:
54,77,47779,1,2,0:0:0:0:
129,28,47956,1,0,0:0:0:0:
216,47,48132,2,0,P|230:78|242:121,1,69.0000026321412,2|0,0:0|0:0,0:0:0:0:
360,150,48485,2,0,P|381:123|404:85,1,69.0000026321412,2|0,0:0|0:0,0:0:0:0:
322,269,48838,6,0,L|375:264,2,46,2|2|2,0:0|0:0|0:0,0:0:0:0:
146,315,49897,2,0,L|55:299,2,92,0|2|2,0:0|0:0|0:0,0:0:0:0:
367,362,50956,6,0,B|423:276|393:206|348:197|312:123|357:33,1,345.000013160706,2|0,0:0|0:0,0:0:0:0:
485,190,52015,6,0,P|246:207|15:190,1,460,2|0,0:0|0:0,0:0:0:0:
116,27,53073,6,0,P|168:48|171:126,1,138.000005264282,4|2,3:2|0:0,0:0:0:0:
176,126,53603,1,0,0:0:0:0:
26,274,53779,1,10,0:0:0:0:
26,274,54132,2,0,L|59:267,5,23.0000008773804,2|0|0|0|0|0,3:2|1:0|1:0|1:0|1:0|1:0,0:0:0:0:
71,265,54485,2,0,L|60:337,1,69.0000026321412,10|0,0:0|0:0,0:0:0:0:
220,352,54838,1,10,0:0:0:0:
252,262,55015,5,0,1:0:0:0:
240,264,55073,1,0,1:0:0:0:
228,266,55132,1,0,1:0:0:0:
216,268,55191,6,0,P|257:211|325:226,1,138.000005264282,2|10,3:2|0:0,0:0:0:0:
346,314,55720,1,0,0:0:0:0:
491,347,55897,2,0,P|471:319|441:301,1,69.0000026321412,10|0,3:2|0:0,0:0:0:0:
488,176,56250,2,0,P|480:185|461:189,5,23.0000008773804,2|0|0|0|0|0,3:2|1:0|1:0|1:0|1:0|1:0,0:0:0:0:
448,179,56603,1,10,0:0:0:0:
497,14,56779,1,0,0:0:0:0:
329,55,56956,1,10,0:0:0:0:
427,88,57309,5,2,3:2:0:0:
427,88,57485,1,0,0:0:0:0:
365,247,57662,2,0,P|357:281|354:325,1,69.0000026321412,10|0,0:0|0:0,0:0:0:0:
158,314,58015,2,0,P|154:280|147:247,1,69.0000026321412,10|0,0:0|0:0,0:0:0:0:
50,173,58368,2,0,P|60:183|84:186,5,23.0000008773804,2|0|0|0|0|0,3:2|1:0|1:0|1:0|1:0|1:0,0:0:0:0:
87,173,58720,1,10,0:0:0:0:
22,50,58897,1,0,0:0:0:0:
87,173,59073,1,10,0:0:0:0:
33,312,59250,5,0,1:0:0:0:
34,323,59309,1,0,1:0:0:0:
35,334,59368,1,0,1:0:0:0:
36,345,59426,6,0,P|70:330|108:325,1,69.0000026321412,2|0,3:2|0:0,0:0:0:0:
244,228,59779,2,0,P|210:222|178:208,1,69.0000026321412,10|0,0:0|0:0,0:0:0:0:
322,112,60132,1,10,0:0:0:0:
67,216,60485,2,0,P|82:222|99:235,5,23.0000008773804,2|0|0|0|0|0,3:2|1:0|1:0|1:0|1:0|1:0,0:0:0:0:
102,243,60838,1,10,0:0:0:0:
250,155,61015,1,2,1:2:0:0:
114,39,61191,2,0,P|112:72|119:111,1,69.0000026321412,10|0,0:0|0:0,0:0:0:0:
8,143,61544,6,0,P|19:69|20:1,1,138.000005264282,2|10,3:2|0:0,0:0:0:0:
230,122,62073,1,0,0:0:0:0:
199,22,62250,1,10,0:0:0:0:
199,22,62603,2,0,P|213:24|237:29,5,23.0000008773804,2|0|0|0|0|0,3:2|1:0|1:0|1:0|1:0|1:0,0:0:0:0:
237,42,62956,2,0,P|266:25|307:17,1,69.0000026321412,10|0,0:0|0:0,0:0:0:0:
342,177,63309,1,10,0:0:0:0:
390,101,63485,5,0,1:0:0:0:
396,91,63544,1,0,1:0:0:0:
402,81,63603,1,0,1:0:0:0:
408,71,63662,6,0,L|395:2,1,69.0000026321412,2|0,3:2|0:0,0:0:0:0:
502,160,64015,2,0,P|472:165|430:180,1,69.0000026321412,10|0,0:0|0:0,0:0:0:0:
306,72,64368,2,0,P|286:95|263:133,1,69.0000026321412,10|0,0:0|0:0,0:0:0:0:
272,254,64720,2,0,P|264:245|259:235,5,23.0000008773804,2|0|0|0|0|0,3:2|1:0|1:0|1:0|1:0|1:0,0:0:0:0:
257,212,65073,1,10,0:0:0:0:
306,72,65250,1,0,0:0:0:0:
443,17,65426,1,10,0:0:0:0:
443,17,65779,6,0,P|466:76|410:107,2,138.000005264282,2|10|8,3:2|0:0|0:0,0:0:0:0:
234,71,66838,2,0,P|234:85|248:104,5,23.0000008773804,2|0|0|0|0|0,3:2|1:0|1:0|1:0|1:0|1:0,0:0:0:0:
256,107,67191,2,0,P|311:75|288:16,1,138.000005264282,10|10,0:0|0:0,0:0:0:0:
115,44,67720,5,0,1:0:0:0:
116,55,67779,1,0,1:0:0:0:
117,66,67838,1,0,1:0:0:0:
118,77,67897,6,0,L|134:215,1,138.000005264282,2|0,3:2|0:0,0:0:0:0:
63,367,68426,2,0,P|76:356|90:346,1,34.5000013160706,8|0,0:0|0:0,0:0:0:0:
187,339,68603,2,0,P|204:347|217:359,1,34.5000013160706,2|0,3:2|0:0,0:0:0:0:
215,357,68956,6,0,P|282:359|283:297,1,138.000005264282,2|2,3:2|1:2,0:0:0:0:
192,259,69485,1,10,0:0:0:0:
89,275,69662,1,10,0:0:0:0:
287,302,69838,1,0,3:0:0:0:
321,306,69926,1,0,3:0:0:0:
355,310,70015,6,0,L|497:330,1,138.000005264282,6|10,3:2|0:0,0:0:0:0:
480,175,70544,1,2,0:0:0:0:
383,210,70720,1,10,0:0:0:0:
383,210,71073,2,0,P|374:199|370:180,5,23.0000008773804,0|0|0|0|0|0,3:0|1:0|1:0|1:0|1:0|1:0,0:0:0:0:
373,167,71426,1,10,0:0:0:0:
122,34,71779,1,10,0:0:0:0:
250,162,71956,5,0,1:0:0:0:
248,150,72015,1,0,1:0:0:0:
246,138,72073,1,0,1:0:0:0:
244,125,72132,6,0,L|235:56,1,69.0000026321412,2|0,3:2|0:0,0:0:0:0:
178,220,72485,2,0,P|150:199|115:195,1,69.0000026321412,10|0,0:0|0:0,0:0:0:0:
328,207,72838,2,0,P|354:183|388:176,1,69.0000026321412,10|0,0:0|0:0,0:0:0:0:
264,296,73191,2,0,P|260:305|261:324,5,23.0000008773804,2|0|0|0|0|0,3:2|1:0|1:0|1:0|1:0|1:0,0:0:0:0:
264,341,73544,2,0,L|196:359,1,69.0000026321412,10|0,0:0|0:0,0:0:0:0:
186,177,73897,2,0,L|150:237,1,69.0000026321412,10|0,0:0|0:0,0:0:0:0:
42,372,74250,5,2,3:2:0:0:
33,282,74426,1,2,0:0:0:0:
25,192,74603,2,0,L|17:100,1,69.0000026321412,10|0,0:0|0:0,0:0:0:0:
218,26,74956,2,0,L|210:118,1,69.0000026321412,10|0,0:0|0:0,0:0:0:0:
76,32,75309,2,0,P|87:29|106:32,5,23.0000008773804,2|0|0|0|0|0,3:2|1:0|1:0|1:0|1:0|1:0,0:0:0:0:
120,38,75662,1,10,0:0:0:0:
135,188,75838,1,0,0:0:0:0:
120,38,76015,1,10,0:0:0:0:
291,91,76191,5,0,1:0:0:0:
302,89,76250,1,0,1:0:0:0:
313,87,76309,1,0,1:0:0:0:
324,86,76368,6,0,L|394:72,1,69.0000026321412,2|0,3:2|0:0,0:0:0:0:
365,251,76720,2,0,P|332:245|298:212,1,69.0000026321412,10|0,0:0|0:0,0:0:0:0:
162,196,77073,2,0,P|142:168|142:121,1,69.0000026321412,10|0,0:0|0:0,0:0:0:0:
22,47,77426,2,0,P|22:34|29:21,5,23.0000008773804,2|0|0|0|0|0,3:2|1:0|1:0|1:0|1:0|1:0,0:0:0:0:
47,16,77779,1,10,0:0:0:0:
211,104,77956,1,2,1:2:0:0:
54,203,78132,1,10,0:0:0:0:
54,203,78485,6,0,P|90:185|103:257,1,138.000005264282,2|10,3:2|0:0,0:0:0:0:
184,301,79015,2,0,P|158:324|117:345,1,69.0000026321412,0|10,0:0|0:0,0:0:0:0:
337,177,79544,2,0,P|336:156|329:138,5,23.0000008773804,0|0|0|0|0|0,3:0|1:0|1:0|1:0|1:0|1:0,0:0:0:0:
327,132,79897,1,10,0:0:0:0:
278,58,80073,1,2,0:0:0:0:
461,13,80250,1,10,0:0:0:0:
435,98,80426,5,0,1:0:0:0:
437,109,80485,1,0,1:0:0:0:
439,120,80544,1,0,1:0:0:0:
441,131,80603,6,0,L|466:269,1,138.000005264282,2|10,3:2|0:0,0:0:0:0:
336,371,81132,1,2,0:0:0:0:
311,199,81309,2,0,L|321:267,1,69.0000026321412,10|0,0:0|0:0,0:0:0:0:
118,361,81662,6,0,P|149:346|200:334,1,69.0000026321412,2|0,3:2|0:0,0:0:0:0:
162,196,82015,2,0,P|131:211|80:223,1,69.0000026321412,2|0,0:0|0:0,0:0:0:0:
16,312,82368,1,10,0:0:0:0:
263,370,82720,5,2,3:2:0:0:
263,370,82897,1,0,0:0:0:0:
308,234,83073,2,0,P|332:205|366:183,1,69.0000026321412,10|0,0:0|0:0,0:0:0:0:
153,187,83426,2,0,P|181:207|204:234,1,69.0000026321412,10|0,0:0|0:0,0:0:0:0:
179,320,83779,1,2,3:2:0:0:
94,351,83956,1,0,0:0:0:0:
7,184,84132,2,0,P|24:119|64:50,1,138.000005264282,10|10,0:0|0:0,0:0:0:0:
27,284,84838,5,2,3:2:0:0:
27,284,85015,1,0,0:0:0:0:
108,156,85191,2,0,P|139:137|175:129,1,69.0000026321412,10|0,0:0|0:0,0:0:0:0:
219,53,85544,1,10,0:0:0:0:
219,53,85897,2,0,P|205:48|196:38,5,23.0000008773804,2|0|0|0|0|0,3:2|1:0|1:0|1:0|1:0|1:0,0:0:0:0:
191,20,86250,1,10,0:0:0:0:
250,135,86426,1,2,0:0:0:0:
95,40,86603,1,10,0:0:0:0:
154,155,86779,5,0,1:0:0:0:
152,166,86838,1,0,1:0:0:0:
150,177,86897,1,0,1:0:0:0:
148,188,86956,6,0,L|134:261,1,69.0000026321412,2|0,3:2|0:0,0:0:0:0:
276,367,87309,2,0,P|223:320|225:249,1,138.000005264282,10|10,0:0|0:0,0:0:0:0:
222,257,87838,1,0,0:0:0:0:
57,224,88015,2,0,P|54:237|44:256,5,23.0000008773804,2|0|0|0|0|0,3:2|1:0|1:0|1:0|1:0|1:0,0:0:0:0:
36,264,88368,1,10,0:0:0:0:
142,330,88544,1,8,0:0:0:0:
224,143,88720,1,10,0:0:0:0:
224,143,89073,6,0,P|296:124|372:113,2,138.000005264282,2|0|8,3:2|0:0|0:0,0:0:0:0:
255,269,89956,5,0,1:0:0:0:
258,280,90015,1,0,1:0:0:0:
260,290,90073,1,0,1:0:0:0:
263,301,90132,6,0,P|285:202|292:87,1,207.000007896424,2|2,3:2|0:0,0:0:0:0:
187,20,90838,2,0,P|184:53|201:89,1,69.0000026321412,2|0,0:0|0:0,0:0:0:0:
389,158,91191,5,6,3:2:0:0:
256,192,91419,12,2,94412,0:0:0:0:
38,338,94874,5,10,0:0:0:0:
38,338,94989,1,2,0:0:0:0:
38,338,95104,1,2,0:0:0:0:
125,359,95335,5,10,0:0:0:0:
125,345,95451,1,2,0:0:0:0:
125,331,95566,1,2,0:0:0:0:
241,341,95797,5,10,0:0:0:0:
229,315,95912,1,2,0:0:0:0:
216,291,96028,1,2,0:0:0:0:
387,275,96258,5,10,0:0:0:0:
349,248,96374,1,10,0:0:0:0:
311,221,96489,1,10,0:0:0:0:
460,74,96720,6,0,L|402:85,1,46,10|8,0:0|0:0,0:0:0:0:
310,101,96951,2,0,L|252:112,1,46,8|8,0:0|0:0,0:0:0:0:
109,212,97181,5,10,0:0:0:0:
155,159,97297,1,10,0:0:0:0:
143,90,97412,1,10,0:0:0:0:
84,56,97527,1,10,0:0:0:0:
20,82,97643,1,10,0:0:0:0:
0,149,97758,1,10,0:0:0:0:
38,205,97874,2,0,P|34:216|22:235,4,23,10|0|0|0|2,0:0|3:0|3:0|3:0|0:0,0:0:0:0:
218,307,98335,1,2,0:0:0:0:
225,333,98451,1,2,0:0:0:0:
232,359,98564,6,0,P|319:353|377:273,1,184,6|0,3:2|0:0,0:0:0:0:
220,142,98910,1,2,0:0:0:0:
192,173,99025,2,0,P|240:216|316:203,1,138.000005264282,10|0,0:0|0:0,0:0:0:0:
331,107,99371,1,2,0:0:0:0:
303,115,99487,1,2,3:2:0:0:
146,22,99717,1,2,0:0:0:0:
87,262,99948,5,10,0:0:0:0:
105,240,100064,2,0,P|107:213|100:190,1,46,2|0,0:0|0:0,0:0:0:0:
33,87,100294,1,2,0:0:0:0:
8,126,100410,5,2,3:2:0:0:
30,122,100525,1,2,0:0:0:0:
52,118,100640,1,2,0:0:0:0:
74,114,100756,1,2,0:0:0:0:
125,67,100871,5,10,0:0:0:0:
170,118,100987,1,2,0:0:0:0:
233,144,101102,1,2,0:0:0:0:
285,99,101217,1,2,0:0:0:0:
302,31,101333,6,0,P|338:21|371:20,1,69.0000026321412,2|0,3:2|0:0,0:0:0:0:
499,108,101564,1,2,0:0:0:0:
342,308,101794,2,0,P|356:232|378:174,1,138.000005264282,8|2,0:0|3:2,0:0:0:0:
200,81,102140,1,2,0:0:0:0:
220,99,102256,6,0,P|243:163|255:231,1,138.000005264282,2|0,3:2|0:0,0:0:0:0:
129,171,102602,1,2,0:0:0:0:
140,146,102717,1,10,0:0:0:0:
214,363,102948,1,2,0:0:0:0:
422,315,103179,5,2,3:2:0:0:
376,311,103294,1,2,0:0:0:0:
329,307,103410,1,2,0:0:0:0:
283,303,103525,1,2,0:0:0:0:
259,238,103640,5,10,0:0:0:0:
328,233,103756,1,0,0:0:0:0:
396,228,103871,1,2,0:0:0:0:
465,223,103987,1,2,0:0:0:0:
493,160,104102,5,2,3:2:0:0:
498,137,104217,1,2,0:0:0:0:
476,132,104333,1,2,0:0:0:0:
471,154,104448,1,2,0:0:0:0:
465,223,104564,5,10,0:0:0:0:
470,292,104680,1,2,0:0:0:0:
479,364,104795,1,2,0:0:0:0:
479,364,105025,6,0,P|416:336|329:317,1,138.000005264282,2|0,3:2|0:0,0:0:0:0:
230,347,105371,1,2,0:0:0:0:
194,374,105487,2,0,P|188:346|188:317,1,46,10|0,0:0|0:0,0:0:0:0:
358,242,105717,1,2,3:2:0:0:
112,118,105948,6,0,P|83:222|176:166,1,276,4|0,3:2|0:0,0:0:0:0:
181,97,106410,5,10,0:0:0:0:
196,29,106525,1,2,0:0:0:0:
262,8,106640,1,2,0:0:0:0:
313,54,106756,1,2,0:0:0:0:
299,121,106871,6,0,L|287:177,1,46,2|0,3:2|0:0,0:0:0:0:
251,327,107102,1,2,0:0:0:0:
251,327,107333,2,0,L|263:271,1,46,8|0,0:0|0:0,0:0:0:0:
303,125,107564,1,2,3:2:0:0:
303,125,107794,6,0,P|396:169|453:40,1,276,4|0,3:2|0:0,0:0:0:0:
383,35,108256,5,10,0:0:0:0:
314,31,108371,1,2,0:0:0:0:
244,28,108487,1,2,0:0:0:0:
175,25,108602,1,2,0:0:0:0:
186,92,108717,6,0,L|197:144,1,46,2|0,3:2|0:0,0:0:0:0:
228,283,108948,1,2,0:0:0:0:
228,283,109179,2,0,L|193:244,1,46,10|0,0:0|0:0,0:0:0:0:
97,140,109410,1,2,3:2:0:0:
416,10,109640,6,0,B|439:128|439:128|384:234|384:234|415:361,1,368,6|8,3:2|0:0,0:0:0:0:
91,21,110333,1,2,3:2:0:0:
122,81,110448,1,2,3:2:0:0:
89,141,110563,2,0,B|70:199|70:199|81:263|81:263|62:325,1,184,6|2,3:2|0:0,0:0:0:0:
256,366,111025,1,10,0:0:0:0:
222,220,111256,1,2,3:2:0:0:
290,220,111371,1,2,3:2:0:0:
256,280,111487,6,0,L|256:96,1,184,6|8,3:2|0:0,0:0:0:0:
384,41,112179,1,2,0:0:0:0:
394,33,112294,1,2,0:0:0:0:
405,25,112410,2,0,L|397:121,1,92,2|2,0:0|0:0,0:0:0:0:
450,164,112756,1,2,0:0:0:0:
463,140,112871,1,10,0:0:0:0:
326,267,113102,1,8,0:0:0:0:
335,311,113217,1,8,0:0:0:0:
345,355,113333,6,0,P|368:357|387:345,1,34.5000013160706,4|0,3:2|0:0,0:0:0:0:
447,244,113563,1,2,0:0:0:0:
255,357,113794,1,0,3:0:0:0:
103,248,114025,1,2,0:0:0:0:
122,240,114140,1,2,0:0:0:0:
142,237,114256,2,0,P|160:261|178:318,1,69.0000026321412,2|0,3:2|0:0,0:0:0:0:
132,358,114602,2,0,P|97:325|40:308,1,103.500003948212,2|2,0:0|0:0,0:0:0:0:
128,122,115179,6,0,P|177:169|263:172,1,138.000005264282,2|0,3:2|3:0,0:0:0:0:
244,177,116102,1,2,3:2:0:0:
313,82,116333,1,2,0:0:0:0:
312,102,116448,2,0,L|309:144,1,34.5000013160706,2|0,0:0|3:0,0:0:0:0:
202,259,116679,1,2,0:0:0:0:
201,239,116794,1,2,3:2:0:0:
83,144,117025,6,0,P|101:142|122:132,1,34.5000013160706,2|0,3:2|0:0,0:0:0:0:
203,24,117256,1,2,0:0:0:0:
317,210,117487,1,2,3:2:0:0:
432,18,117717,1,2,0:0:0:0:
443,34,117833,1,2,0:0:0:0:
448,54,117948,2,0,P|439:88|404:126,1,69.0000026321412,2|0,3:2|0:0,0:0:0:0:
450,178,118294,2,0,P|481:215|503:275,1,103.500003948212,2|2,0:0|0:0,0:0:0:0:
501,265,118871,6,0,P|484:270|473:283,3,34.5000013160706,2|0|0|0,3:2|0:0|0:0|0:0,0:0:0:0:
509,347,119333,1,2,3:2:0:0:
509,347,119794,1,2,3:2:0:0:
402,252,120025,1,2,0:0:0:0:
398,231,120140,1,2,0:0:0:0:
395,210,120256,2,0,L|402:168,1,34.5000013160706,0|0,3:0|0:0,0:0:0:0:
302,301,120487,2,0,L|295:343,1,34.5000013160706,0|0,3:0|0:0,0:0:0:0:
255,141,120717,6,0,P|245:83|227:38,1,103.500003948212,2|2,3:2|0:0,0:0:0:0:
163,68,121179,2,0,P|154:97|150:141,1,69.0000026321412,0|0,3:0|0:0,0:0:0:0:
18,235,121640,2,0,P|50:184|16:116,1,138.000005264282,2|0,3:2|3:0,0:0:0:0:
106,14,122333,2,0,P|122:17|140:18,1,34.5000013160706,2|0,0:0|0:0,0:0:0:0:
195,61,122563,2,0,P|261:56|346:13,1,138.000005264282,2|0,3:2|3:0,0:0:0:0:
399,90,123256,1,2,0:0:0:0:
506,14,123487,5,2,3:2:0:0:
491,184,123717,1,2,0:0:0:0:
478,167,123833,1,2,0:0:0:0:
466,150,123948,2,0,L|506:136,1,34.5000013160706,2|0,3:2|0:0,0:0:0:0:
366,101,124179,2,0,L|406:87,1,34.5000013160706,2|0,3:2|0:0,0:0:0:0:
254,19,124410,6,0,L|343:28,1,69.0000026321412,2|0,3:2|0:0,0:0:0:0:
289,119,124756,1,2,0:0:0:0:
282,99,124871,1,2,3:2:0:0:
91,17,125102,1,2,0:0:0:0:
84,37,125217,1,2,0:0:0:0:
77,57,125333,1,2,3:2:0:0:
130,248,125563,1,2,0:0:0:0:
4,114,125794,5,2,3:2:0:0:
23,121,125910,1,2,0:0:0:0:
190,178,126140,1,2,0:0:0:0:
170,185,126256,6,0,P|176:161|184:148,3,34.5000013160706,0|0|0|0,3:0|0:0|0:0|0:0,0:0:0:0:
102,157,126717,2,0,P|99:192|109:225,1,69.0000026321412,2|0,3:2|0:0,0:0:0:0:
256,358,127179,5,2,3:2:0:0:
102,317,127410,1,8,0:0:0:0:
128,295,127525,1,8,0:0:0:0:
161,301,127640,1,8,0:0:0:0:
356,363,127871,1,8,0:0:0:0:
400,371,127987,1,8,0:0:0:0:
433,339,128102,6,0,P|441:313|443:291,1,46,14|0,0:0|0:0,0:0:0:0:
442,89,128333,2,0,P|431:126|423:189,1,92,2|8,0:0|0:0,0:0:0:0:
423,178,128794,2,0,L|476:166,1,46,2|0,0:0|0:0,0:0:0:0:
328,241,129025,1,2,3:2:0:0:
239,131,129256,1,2,0:0:0:0:
265,139,129371,1,2,0:0:0:0:
303,350,129602,1,2,0:0:0:0:
277,358,129717,1,2,0:0:0:0:
35,261,129948,6,0,P|85:268|135:278,1,92,2|0,3:2|0:0,0:0:0:0:
163,337,130294,1,0,0:0:0:0:
136,345,130410,2,0,P|146:237|154:203,1,138,8|0,0:0|0:0,0:0:0:0:
175,145,130871,1,2,3:2:0:0:
90,25,131102,1,2,0:0:0:0:
82,52,131217,2,0,P|85:73|97:106,1,46,2|8,0:0|0:0,0:0:0:0:
270,124,131448,1,2,0:0:0:0:
281,101,131563,1,2,3:2:0:0:
281,101,131794,6,0,P|250:101|223:108,1,46,2|0,3:2|0:0,0:0:0:0:
97,173,132025,1,2,0:0:0:0:
97,173,132140,1,2,0:0:0:0:
97,173,132256,1,8,0:0:0:0:
229,27,132487,2,0,P|251:23|274:23,1,46,2|0,0:0|0:0,0:0:0:0:
415,96,132717,2,0,P|425:134|430:196,1,92,2|2,3:2|0:0,0:0:0:0:
385,272,133063,1,2,0:0:0:0:
377,244,133179,1,8,0:0:0:0:
494,229,133410,2,0,P|494:251|489:281,1,46,2|0,0:0|0:0,0:0:0:0:
345,366,133640,6,0,P|296:283|267:198,1,184,2|8,3:2|0:0,0:0:0:0:
267,200,134333,1,0,0:0:0:0:
44,297,134563,1,2,3:2:0:0:
185,371,134794,1,2,0:0:0:0:
176,325,134910,1,2,0:0:0:0:
168,279,135025,1,8,0:0:0:0:
131,141,135256,2,0,L|119:197,1,46,2|0,0:0|0:0,0:0:0:0:
184,84,135487,6,0,P|134:13|114:82,1,184,2|8,3:2|0:0,0:0:0:0:
266,189,136179,2,0,P|288:181|307:151,1,46,2|0,0:0|0:0,0:0:0:0:
351,32,136410,1,2,3:2:0:0:
422,186,136640,1,0,0:0:0:0:
442,204,136756,1,0,0:0:0:0:
471,219,136871,1,8,0:0:0:0:
474,66,137102,2,0,P|450:72|431:101,1,46,2|0,0:0|0:0,0:0:0:0:
265,17,137333,6,0,P|255:86|258:214,1,184,2|8,3:2|0:0,0:0:0:0:
291,285,138025,1,0,0:0:0:0:
469,370,138256,1,2,3:2:0:0:
389,228,138487,2,0,P|382:247|378:276,1,46,2|0,0:0|0:0,0:0:0:0:
241,365,138717,1,10,0:0:0:0:
216,325,138833,1,2,0:0:0:0:
181,303,138948,1,2,3:2:0:0:
181,303,139179,6,0,P|234:223|284:263,1,184,2|8,3:2|0:0,0:0:0:0:
455,363,139871,1,2,0:0:0:0:
429,351,139987,1,2,0:0:0:0:
413,328,140102,2,0,P|402:279|403:228,1,92,2|0,3:2|0:0,0:0:0:0:
454,108,140448,2,0,P|417:142|372:166,1,92,2|0,0:0|0:0,0:0:0:0:
380,162,140794,1,2,0:0:0:0:
243,183,141025,6,0,P|290:197|334:224,1,92,2|2,3:2|0:0,0:0:0:0:
333,245,141371,1,2,0:0:0:0:
308,232,141487,1,10,0:0:0:0:
145,366,141717,5,10,0:0:0:0:
162,308,141833,1,10,0:0:0:0:
179,250,141948,1,10,0:0:0:0:
17,99,142179,1,10,0:0:0:0:
58,142,142294,1,10,0:0:0:0:
269,77,142525,1,10,0:0:0:0:
211,91,142640,1,10,0:0:0:0:
21,262,142871,6,0,P|155:179|354:171,1,345,6|0,3:2|0:0,0:0:0:0:
338,167,144717,5,2,0:0:0:0:
336,146,144833,1,2,0:0:0:0:
334,125,144948,1,2,0:0:0:0:
332,104,145063,2,0,L|329:68,1,34.5000013160706,2|0,3:2|0:0,0:0:0:0:
231,234,145294,1,2,0:0:0:0:
235,213,145409,2,0,L|241:177,1,34.5000013160706,2|0,3:2|0:0,0:0:0:0:
167,353,145640,1,2,0:0:0:0:
187,350,145756,1,2,0:0:0:0:
207,347,145871,1,2,0:0:0:0:
227,344,145987,1,2,0:0:0:0:
244,313,146102,6,0,L|108:291,1,138,8|0,0:0|0:0,0:0:0:0:
0,376,146563,6,0,P|49:382|88:367,1,92,6|0,3:2|0:0,0:0:0:0:
152,232,146794,5,2,0:0:0:0:
123,212,146910,2,0,P|110:186|104:151,1,57.5,2|8,0:0|0:0,0:0:0:0:
199,27,147140,2,0,P|211:55|217:87,1,57.5,2|0,0:0|0:0,0:0:0:0:
41,125,147371,1,2,0:0:0:0:
64,99,147487,1,2,3:2:0:0:
64,99,147717,6,0,L|6:75,1,57.5,2|0,0:0|0:0,0:0:0:0:
220,158,147948,1,10,0:0:0:0:
272,179,148063,1,2,0:0:0:0:
324,200,148179,1,2,0:0:0:0:
489,30,148410,6,0,P|435:27|369:70,1,115,2|0,3:2|0:0,0:0:0:0:
412,201,148756,2,0,P|421:169|423:137,1,57.5,2|8,0:0|0:0,0:0:0:0:
323,281,148987,2,0,P|314:313|312:345,1,57.5,2|0,0:0|0:0,0:0:0:0:
440,376,149217,1,2,0:0:0:0:
450,343,149333,2,0,P|424:350|397:368,1,57.5,2|0,3:2|0:0,0:0:0:0:
226,362,149563,1,2,0:0:0:0:
184,322,149679,1,2,0:0:0:0:
134,292,149794,2,0,P|106:283|73:278,1,57.5,8|0,0:0|0:0,0:0:0:0:
130,81,150025,2,0,P|102:90|69:95,1,57.5,2|0,3:2|0:0,0:0:0:0:
8,190,150256,5,2,3:2:0:0:
8,190,150487,1,2,0:0:0:0:
65,186,150602,1,2,0:0:0:0:
122,182,150717,2,0,L|237:173,2,115,8|0|2,0:0|0:0|3:2,0:0:0:0:
231,84,151294,1,2,0:0:0:0:
265,77,151410,2,0,P|298:92|316:122,1,57.5,2|0,0:0|0:0,0:0:0:0:
307,232,151640,2,0,P|279:257|244:261,1,57.5,8|0,0:0|0:0,0:0:0:0:
370,172,151871,1,2,0:0:0:0:
482,364,152102,6,0,P|458:317|458:239,1,115,2|0,3:2|0:0,0:0:0:0:
424,83,152448,2,0,P|439:53|459:36,1,57.5,2|8,0:0|0:0,0:0:0:0:
378,207,152679,2,0,P|362:177|360:151,1,57.5,2|0,0:0|0:0,0:0:0:0:
205,44,152910,1,2,0:0:0:0:
238,51,153025,2,0,P|262:65|280:87,1,57.5,2|0,3:2|0:0,0:0:0:0:
299,251,153256,1,2,0:0:0:0:
287,307,153371,1,10,0:0:0:0:
246,348,153487,2,0,B|220:363|220:363|181:361,1,57.5,8|2,0:0|0:0,0:0:0:0:
176,169,153717,2,0,B|174:198|174:198|152:231,1,57.5,8|0,0:0|0:0,0:0:0:0:
26,328,153948,6,0,P|7:283|10:238,1,92,4|0,3:2|0:0,0:0:0:0:
84,89,154179,5,2,0:0:0:0:
97,120,154294,1,2,0:0:0:0:
80,150,154410,2,0,P|18:141|9:81,1,115,10|0,0:0|0:0,0:0:0:0:
284,66,154871,1,2,3:2:0:0:
310,88,154987,2,0,L|318:28,1,57.5,2|0,0:0|0:0,0:0:0:0:
175,87,155217,1,2,0:0:0:0:
201,65,155333,2,0,L|209:125,2,57.5,8|0|2,0:0|0:0|0:0,0:0:0:0:
479,19,155794,5,2,3:2:0:0:
405,186,156025,2,0,P|402:157|412:130,1,57.5,2|0,0:0|0:0,0:0:0:0:
479,19,156256,2,0,P|428:42|362:53,1,115,8|2,0:0|0:0,0:0:0:0:
160,10,156717,1,2,3:2:0:0:
149,43,156833,2,0,P|151:71|165:95,1,57.5,2|0,0:0|0:0,0:0:0:0:
176,208,157063,2,0,P|199:191|213:167,1,57.5,2|8,0:0|0:0,0:0:0:0:
326,132,157294,1,2,0:0:0:0:
302,105,157410,2,0,P|276:92|247:93,1,57.5,2|0,3:2|0:0,0:0:0:0:
70,54,157640,6,0,P|42:86|15:170,1,115,2|0,3:2|0:0,0:0:0:0:
216,374,158102,2,0,P|244:342|271:258,1,115,8|0,0:0|0:0,0:0:0:0:
19,230,158563,1,2,3:2:0:0:
33,261,158679,2,0,P|59:272|96:278,1,57.5,2|0,0:0|0:0,0:0:0:0:
267,198,158909,1,2,0:0:0:0:
253,167,159025,2,0,P|227:156|190:150,1,57.5,8|0,0:0|0:0,0:0:0:0:
159,355,159256,5,10,0:0:0:0:
215,343,159371,1,10,0:0:0:0:
271,331,159487,1,10,0:0:0:0:
87,194,159717,1,10,0:0:0:0:
142,206,159833,1,2,0:0:0:0:
15,15,160063,1,10,0:0:0:0:
59,48,160179,1,10,0:0:0:0:
142,206,160410,2,0,L|202:184,1,57.5,2|0,3:2|0:0,0:0:0:0:
326,34,160640,5,8,0:0:0:0:
337,36,160717,1,8,0:0:0:0:
348,38,160794,1,8,0:0:0:0:
359,40,160871,5,10,0:0:0:0:
350,98,160987,1,10,0:0:0:0:
342,154,161102,1,10,0:0:0:0:
499,360,161333,6,0,P|482:319|435:320,1,92,6|0,3:2|0:0,0:0:0:0:
299,217,161563,5,2,0:0:0:0:
267,231,161679,2,0,P|255:251|248:292,1,57.5,2|8,0:0|0:0,0:0:0:0:
339,372,161910,2,0,P|351:352|358:311,1,57.5,2|0,0:0|0:0,0:0:0:0:
166,287,162140,1,2,0:0:0:0:
179,324,162256,1,2,3:2:0:0:
179,324,162487,6,0,L|136:374,1,57.5,2|0,0:0|0:0,0:0:0:0:
32,262,162717,1,10,0:0:0:0:
25,204,162833,1,2,0:0:0:0:
19,146,162948,1,2,0:0:0:0:
193,207,163179,6,0,P|200:150|219:95,1,115,2|0,3:2|0:0,0:0:0:0:
106,24,163525,2,0,P|115:55|137:84,1,57.5,2|8,0:0|0:0,0:0:0:0:
298,125,163756,2,0,P|325:106|347:77,1,57.5,2|0,0:0|0:0,0:0:0:0:
486,41,163987,1,2,0:0:0:0:
464,14,164102,2,0,P|458:39|458:78,1,57.5,2|0,3:2|0:0,0:0:0:0:
377,191,164333,1,2,0:0:0:0:
349,241,164448,1,2,0:0:0:0:
353,298,164563,2,0,B|367:323|367:323|398:346,1,57.5,8|0,0:0|0:0,0:0:0:0:
497,205,164794,2,0,B|483:180|483:180|452:157,1,57.5,2|0,3:2|0:0,0:0:0:0:
502,318,165025,5,2,3:2:0:0:
286,175,165256,1,2,0:0:0:0:
254,161,165371,1,2,0:0:0:0:
219,156,165487,2,0,P|168:168|107:219,2,115,8|0|2,0:0|0:0|3:2,0:0:0:0:
114,41,166063,1,2,0:0:0:0:
83,58,166179,2,0,P|66:87|59:124,1,57.5,2|0,0:0|0:0,0:0:0:0:
19,255,166410,2,0,P|35:284|64:308,1,57.5,8|0,0:0|0:0,0:0:0:0:
181,381,166640,1,2,0:0:0:0:
351,253,166871,6,0,P|348:197|367:121,1,115,2|0,3:2|0:0,0:0:0:0:
484,196,167217,2,0,P|458:197|421:204,1,57.5,2|8,0:0|0:0,0:0:0:0:
433,24,167448,2,0,P|415:43|394:74,1,57.5,2|0,0:0|0:0,0:0:0:0:
265,29,167679,1,2,0:0:0:0:
255,61,167794,2,0,P|256:87|263:124,1,57.5,2|0,3:2|0:0,0:0:0:0:
79,274,168025,1,2,0:0:0:0:
127,304,168140,1,10,0:0:0:0:
170,265,168256,2,0,B|181:237|181:237|174:209,1,57.5,10|2,0:0|0:0,0:0:0:0:
127,13,168487,2,0,B|116:41|116:41|123:69,1,57.5,8|0,0:0|0:0,0:0:0:0:
319,147,168717,6,0,P|299:110|235:81,1,92,4|0,3:2|0:0,0:0:0:0:
46,106,168948,5,2,0:0:0:0:
27,135,169063,1,2,0:0:0:0:
25,169,169179,2,0,P|70:190|105:144,1,115,10|0,0:0|0:0,0:0:0:0:
349,32,169640,1,2,3:2:0:0:
365,62,169756,2,0,P|387:43|417:34,1,57.5,2|0,0:0|0:0,0:0:0:0:
495,127,169987,1,2,0:0:0:0:
475,152,170102,2,0,P|454:131|425:119,2,57.5,8|0|2,0:0|0:0|0:0,0:0:0:0:
375,357,170563,5,2,3:2:0:0:
365,186,170794,2,0,P|336:193|312:212,1,57.5,2|0,0:0|0:0,0:0:0:0:
375,357,171025,2,0,P|416:305|425:246,1,115,8|2,0:0|0:0,0:0:0:0:
220,138,171487,1,2,3:2:0:0:
197,163,171602,2,0,L|207:222,1,57.5,2|0,0:0|0:0,0:0:0:0:
304,307,171833,2,0,L|247:286,1,57.5,2|8,0:0|0:0,0:0:0:0:
92,328,172063,1,2,0:0:0:0:
125,335,172178,2,0,L|171:296,1,57.5,2|0,3:2|0:0,0:0:0:0:
336,178,172410,5,2,3:2:0:0:
323,233,172525,1,2,0:0:0:0:
280,195,172640,1,2,0:0:0:0:
473,360,172871,1,8,0:0:0:0:
342,187,173102,5,2,0:0:0:0:
311,234,173217,1,2,0:0:0:0:
284,184,173333,2,0,L|298:125,1,57.5,2|0,3:2|0:0,0:0:0:0:
149,250,173563,5,2,0:0:0:0:
145,216,173679,1,2,0:0:0:0:
140,182,173794,2,0,L|196:196,1,57.5,8|0,0:0|0:0,0:0:0:0:
455,348,174025,1,10,0:0:0:0:
407,316,174140,1,10,0:0:0:0:
370,274,174256,6,0,P|352:241|345:209,1,69.0000026321412,2|0,3:2|0:0,0:0:0:0:
263,364,174487,1,8,0:0:0:0:
234,333,174602,1,8,0:0:0:0:
219,293,174717,2,0,P|228:256|249:220,1,69.0000026321412,10|0,0:0|0:0,0:0:0:0:
120,165,174948,5,0,3:0:0:0:
133,162,175025,1,0,3:0:0:0:
146,159,175102,1,0,3:0:0:0:
158,155,175179,6,0,L|87:140,1,69.0000026321412,10|0,0:0|3:0,0:0:0:0:
335,32,175410,1,8,0:0:0:0:
320,84,175525,2,0,L|249:99,1,69.0000026321412,10|0,0:0|3:0,0:0:0:0:
447,184,175756,1,8,0:0:0:0:
432,130,175871,1,10,0:0:0:0:
207,17,176102,6,0,P|101:104|7:214,1,276.000010528565,6|8,3:2|0:0,0:0:0:0:
43,306,176679,5,2,0:0:0:0:
53,296,176794,1,2,0:0:0:0:
50,282,176910,1,2,0:0:0:0:
37,277,177025,2,0,P|33:316|56:383,1,103.500003948212,2|0,3:2|3:0,0:0:0:0:
141,242,177487,6,0,P|144:217|155:190,1,46,8|0,0:0|0:0,0:0:0:0:
206,66,177717,1,6,0:0:0:0:
248,26,177833,1,2,0:0:0:0:
305,17,177948,6,0,P|411:104|505:214,1,276.000010528565,6|8,3:2|0:0,0:0:0:0:
469,306,178525,5,2,0:0:0:0:
459,296,178640,1,2,0:0:0:0:
462,282,178756,1,2,0:0:0:0:
475,277,178871,2,0,P|479:316|456:383,1,103.500003948212,2|0,0:0|0:0,0:0:0:0:
344,300,179333,6,0,P|320:283|300:275,1,46,8|0,0:0|3:0,0:0:0:0:
268,138,179563,1,8,0:0:0:0:
306,94,179679,1,8,0:0:0:0:
356,67,179794,6,0,B|490:28|490:28|411:141,1,276.000010528565,10|10,0:0|0:0,0:0:0:0:
372,182,180371,1,10,0:0:0:0:
320,207,180487,1,2,3:2:0:0:
50,112,180717,6,0,B|39:20|39:20|119:71,1,184,10|0,0:0|3:0,0:0:0:0:
215,223,181063,1,0,3:0:0:0:
199,258,181179,6,0,B|123:314|123:314|127:219,1,184,10|2,0:0|3:2,0:0:0:0:
135,215,181487,1,2,3:2:0:0:
143,206,181563,1,2,3:2:0:0:
151,196,181640,5,4,3:2:0:0:
414,141,196414,6,0,P|423:198|418:256,1,115,6|0,3:2|0:0,0:0:0:0:
291,356,196766,6,0,P|280:294|288:199,1,138.000005264282,2|8,1:2|0:0,0:0:0:0:
222,151,197296,2,0,P|235:114|271:97,2,69.0000026321412,2|0|2,0:0|3:0|0:0,0:0:0:0:
368,252,197825,1,2,1:2:0:0:
87,304,198178,1,8,0:0:0:0:
183,366,198355,5,0,1:0:0:0:
184,354,198414,1,0,1:0:0:0:
185,342,198472,1,0,1:0:0:0:
186,330,198531,6,0,P|169:258|145:199,1,138.000005264282,2|2,3:2|0:0,0:0:0:0:
60,170,199061,1,2,0:0:0:0:
229,115,199237,2,0,P|206:89|159:80,1,69.0000026321412,10|0,0:0|0:0,0:0:0:0:
78,255,199590,1,2,3:2:0:0:
23,91,199766,5,0,1:0:0:0:
34,89,199825,1,0,1:0:0:0:
45,87,199884,1,0,1:0:0:0:
56,85,199943,5,2,0:0:0:0:
173,7,200119,1,2,1:2:0:0:
313,126,200296,1,10,0:0:0:0:
313,126,200649,6,0,P|301:155|294:201,1,69.0000026321412,2|0,3:2|0:0,0:0:0:0:
280,20,201002,2,0,P|249:58|209:152,1,138.000005264282,2|8,0:0|0:0,0:0:0:0:
356,258,201531,2,0,P|366:246|377:221,2,34.5000013160706,2|2|2,0:0|0:0|3:2,0:0:0:0:
352,364,201884,5,0,1:0:0:0:
363,362,201943,1,0,1:0:0:0:
374,360,202002,1,0,1:0:0:0:
385,358,202061,5,10,0:0:0:0:
108,246,202414,1,10,0:0:0:0:
103,337,202590,5,0,1:0:0:0:
114,335,202649,1,0,1:0:0:0:
125,333,202708,1,0,1:0:0:0:
136,331,202766,6,0,L|272:358,1,138.000005264282,2|2,3:2|0:0,0:0:0:0:
338,243,203296,1,2,0:0:0:0:
250,260,203472,2,0,P|226:237|201:195,1,69.0000026321412,2|0,3:2|0:0,0:0:0:0:
38,142,203825,2,0,P|39:73|84:9,1,138.000005264282,2|2,3:2|0:0,0:0:0:0:
75,16,204355,1,8,0:0:0:0:
162,52,204531,5,10,0:0:0:0:
108,224,204708,1,10,0:0:0:0:
358,339,204884,6,0,P|336:250|281:178,1,184,6|0,3:2|0:0,0:0:0:0:
189,277,205414,2,0,P|207:311|241:335,1,69.0000026321412,2|0,0:0|0:0,0:0:0:0:
230,329,205766,1,0,3:0:0:0:
82,174,205943,5,10,0:0:0:0:
194,132,206119,1,2,0:0:0:0:
237,53,206296,1,2,0:0:0:0:
234,32,206472,1,0,0:0:0:0:
350,8,206649,1,2,3:2:0:0:
328,94,206825,1,0,0:0:0:0:
484,68,207002,6,0,P|450:110|401:196,1,138.000005264282,2|0,3:2|0:0,0:0:0:0:
392,304,207531,1,2,0:0:0:0:
453,369,207708,2,0,P|471:344|479:301,1,69.0000026321412,2|0,0:0|3:0,0:0:0:0:
300,221,208061,5,10,0:0:0:0:
168,265,208237,1,2,0:0:0:0:
233,353,208414,1,2,0:0:0:0:
239,333,208590,1,0,0:0:0:0:
109,376,208766,1,2,3:2:0:0:
77,291,208943,1,0,0:0:0:0:
196,179,209119,6,0,P|161:168|127:149,2,69.0000026321412,2|0|0,3:2|0:0|0:0,0:0:0:0:
228,94,209649,2,0,P|197:77|164:67,1,69.0000026321412,2|0,0:0|0:0,0:0:0:0:
164,67,210002,1,0,3:0:0:0:
306,20,210178,5,10,0:0:0:0:
284,29,210355,1,0,0:0:0:0:
403,124,210531,1,2,0:0:0:0:
335,104,210708,1,0,0:0:0:0:
428,282,210884,1,2,3:2:0:0:
351,193,211061,1,2,0:0:0:0:
223,367,211237,6,0,P|250:279|254:152,1,207.000007896424,2|0,3:2|0:0,0:0:0:0:
147,16,211943,2,0,P|175:36|200:61,1,69.0000026321412,2|0,0:0|3:0,0:0:0:0:
32,197,212296,1,8,0:0:0:0:
127,102,212472,5,8,0:0:0:0:
126,113,212531,1,8,0:0:0:0:
125,124,212590,1,8,0:0:0:0:
124,135,212649,1,10,0:0:0:0:
178,267,212825,5,8,0:0:0:0:
177,256,212884,1,8,0:0:0:0:
176,245,212943,1,8,0:0:0:0:
175,234,213002,6,0,P|206:240|246:251,1,57.5,10|0,0:0|0:0,0:0:0:0:
273,76,213178,2,0,P|292:100|316:134,1,57.5,10|0,0:0|0:0,0:0:0:0:
455,14,213348,6,0,P|468:132|479:363,1,345,6|0,3:2|0:0,0:0:0:0:
478,357,215194,5,2,0:0:0:0:
462,344,215309,1,2,0:0:0:0:
441,340,215424,1,2,0:0:0:0:
420,341,215540,2,0,P|403:351|389:365,1,34.5000013160706,2|0,3:2|0:0,0:0:0:0:
327,244,215771,1,2,0:0:0:0:
310,256,215887,2,0,P|302:274|300:293,1,34.5000013160706,2|0,3:2|0:0,0:0:0:0:
150,279,216117,1,2,0:0:0:0:
148,300,216232,1,2,0:0:0:0:
152,320,216348,1,2,0:0:0:0:
162,337,216463,1,2,0:0:0:0:
207,347,216578,6,0,P|222:284|228:209,1,138,8|0,0:0|0:0,0:0:0:0:
213,231,217040,6,0,P|231:184|226:236,1,138.000005264282,6|0,3:2|0:0,0:0:0:0:
237,234,218424,6,0,P|232:184|213:231,1,138.000005264282,6|0,3:2|0:0,0:0:0:0:
232,301,218886,6,0,P|229:198|214:105,1,184,6|0,3:2|0:0,0:0:0:0:
325,34,219232,6,0,P|300:30|284:65,1,57.5,2|8,0:0|0:0,0:0:0:0:
136,70,219463,2,0,P|122:48|85:60,1,57.5,2|0,0:0|0:0,0:0:0:0:
69,274,219694,1,2,0:0:0:0:
86,303,219809,2,0,P|99:271|98:244,1,57.5,2|0,3:2|0:0,0:0:0:0:
23,170,220040,1,2,0:0:0:0:
79,162,220155,1,2,0:0:0:0:
136,154,220271,2,0,L|195:144,1,57.5,8|0,0:0|0:0,0:0:0:0:
304,23,220501,2,0,L|283:79,1,57.5,2|0,3:2|0:0,0:0:0:0:
367,280,220732,5,2,3:2:0:0:
367,280,220963,1,2,0:0:0:0:
330,235,221078,1,2,0:0:0:0:
294,190,221194,2,0,L|250:301,2,115,8|0|2,0:0|0:0|3:2,0:0:0:0:
122,281,221771,1,2,0:0:0:0:
126,315,221886,2,0,L|189:348,1,57.5,2|0,0:0|0:0,0:0:0:0:
341,315,222117,2,0,L|408:293,1,57.5,8|0,0:0|0:0,0:0:0:0:
459,139,222348,1,2,0:0:0:0:
459,139,222578,6,0,P|464:200|414:206,1,115,2|0,3:2|0:0,0:0:0:0:
320,123,222924,2,0,P|348:119|368:99,1,57.5,2|8,0:0|0:0,0:0:0:0:
316,17,223155,2,0,P|285:21|259:4,1,57.5,2|0,0:0|0:0,0:0:0:0:
126,82,223386,1,2,0:0:0:0:
95,64,223501,2,0,P|86:34|88:3,1,57.5,2|0,3:2|0:0,0:0:0:0:
218,155,223732,1,2,0:0:0:0:
227,210,223848,1,10,0:0:0:0:
187,251,223963,2,0,B|160:260|160:260|132:237,1,57.5,8|2,0:0|0:0,0:0:0:0:
325,133,224194,2,0,B|352:124|352:124|380:147,1,57.5,8|0,0:0|0:0,0:0:0:0:
309,348,224424,6,0,P|265:356|219:330,1,92,4|0,3:2|0:0,0:0:0:0:
83,179,224655,5,2,0:0:0:0:
59,204,224771,1,2,0:0:0:0:
49,236,224886,2,0,P|58:297|79:356,1,115,10|0,0:0|0:0,0:0:0:0:
290,264,225348,1,2,3:2:0:0:
254,266,225463,2,0,P|259:238|272:210,1,57.5,2|0,0:0|0:0,0:0:0:0:
416,288,225694,1,2,0:0:0:0:
407,322,225809,2,0,P|382:308|358:286,2,57.5,8|0|2,0:0|0:0|0:0,0:0:0:0:
490,113,226271,5,2,3:2:0:0:
292,196,226501,2,0,P|318:181|351:176,1,57.5,2|0,0:0|0:0,0:0:0:0:
405,84,226732,2,0,P|456:69|488:125,1,115,8|2,0:0|0:0,0:0:0:0:
227,11,227194,1,2,3:2:0:0:
245,39,227309,2,0,P|247:68|233:103,1,57.5,2|0,0:0|0:0,0:0:0:0:
122,179,227540,2,0,P|146:162|183:157,1,57.5,2|8,0:0|0:0,0:0:0:0:
330,213,227771,1,2,0:0:0:0:
296,214,227886,2,0,P|269:201|246:171,1,57.5,2|0,3:2|0:0,0:0:0:0:
387,29,228117,6,0,L|408:150,1,115,2|0,3:2|0:0,0:0:0:0:
198,367,228578,2,0,L|177:246,1,115,8|0,0:0|0:0,0:0:0:0:
434,226,229040,1,2,3:2:0:0:
411,251,229155,2,0,L|355:226,1,57.5,2|0,0:0|0:0,0:0:0:0:
151,170,229386,1,2,0:0:0:0:
174,145,229501,2,0,L|230:170,1,57.5,8|0,0:0|0:0,0:0:0:0:
358,34,229732,5,10,0:0:0:0:
373,89,229847,1,10,0:0:0:0:
389,144,229963,1,10,0:0:0:0:
219,299,230194,1,10,0:0:0:0:
258,257,230310,1,10,0:0:0:0:
476,325,230540,1,10,0:0:0:0:
420,312,230656,1,10,0:0:0:0:
389,144,230886,2,0,L|369:203,1,57.5,2|0,3:2|0:0,0:0:0:0:
239,384,231117,5,8,0:0:0:0:
236,372,231194,1,8,0:0:0:0:
233,360,231271,1,8,0:0:0:0:
230,348,231347,5,10,0:0:0:0:
286,360,231463,1,10,0:0:0:0:
341,372,231578,1,10,0:0:0:0:
110,130,231809,6,0,P|129:165|130:233,1,92,6|0,3:2|0:0,0:0:0:0:
41,364,232040,5,2,0:0:0:0:
28,332,232155,2,0,P|44:308|83:302,1,57.5,2|8,0:0|0:0,0:0:0:0:
223,242,232386,2,0,P|251:248|270:283,1,57.5,2|0,0:0|0:0,0:0:0:0:
421,297,232617,1,2,0:0:0:0:
428,330,232732,1,2,3:2:0:0:
223,242,232963,6,0,P|251:248|270:283,1,57.5,2|0,0:0|0:0,0:0:0:0:
328,376,233194,1,10,0:0:0:0:
338,319,233309,1,2,0:0:0:0:
348,262,233424,1,2,0:0:0:0:
497,78,233655,6,0,P|448:32|396:14,1,115,2|0,3:2|0:0,0:0:0:0:
260,152,234001,2,0,P|287:150|321:130,1,57.5,2|8,0:0|0:0,0:0:0:0:
291,16,234232,2,0,P|264:18|230:38,1,57.5,2|0,0:0|0:0,0:0:0:0:
115,88,234463,1,2,0:0:0:0:
91,113,234578,2,0,L|153:121,1,57.5,2|0,3:2|0:0,0:0:0:0:
209,250,234809,1,2,0:0:0:0:
171,293,234924,1,2,0:0:0:0:
132,337,235040,2,0,L|95:379,1,57.5,8|0,0:0|0:0,0:0:0:0:
51,204,235271,2,0,L|55:260,1,57.5,2|0,3:2|0:0,0:0:0:0:
232,383,235501,5,2,3:2:0:0:
232,383,235732,1,2,0:0:0:0:
266,375,235847,1,2,0:0:0:0:
299,366,235963,2,0,L|423:334,2,115,8|0|2,0:0|0:0|3:2,0:0:0:0:
413,250,236540,1,2,0:0:0:0:
446,258,236655,2,0,P|470:274|490:313,1,57.5,2|0,0:0|0:0,0:0:0:0:
305,262,236886,2,0,P|306:233|319:207,1,57.5,8|0,0:0|0:0,0:0:0:0:
409,103,237117,1,2,0:0:0:0:
173,16,237347,6,0,P|227:30|288:68,1,115,2|0,3:2|0:0,0:0:0:0:
394,48,237694,2,0,P|405:75|409:109,1,57.5,2|8,0:0|0:0,0:0:0:0:
507,161,237924,2,0,P|503:189|489:221,1,57.5,2|0,0:0|0:0,0:0:0:0:
443,368,238155,1,2,0:0:0:0:
427,336,238271,2,0,P|421:305|441:285,1,57.5,2|0,3:2|0:0,0:0:0:0:
271,230,238501,1,2,0:0:0:0:
287,284,238617,1,10,0:0:0:0:
257,333,238732,2,0,B|233:350|233:350|205:353,1,57.5,10|2,0:0|0:0,0:0:0:0:
34,167,238963,2,0,B|57:149|57:149|85:146,1,57.5,8|0,0:0|0:0,0:0:0:0:
139,287,239194,6,0,P|154:243|163:198,1,92,6|0,3:2|0:0,0:0:0:0:
289,112,239424,5,2,0:0:0:0:
310,84,239540,1,2,0:0:0:0:
313,49,239655,2,0,P|257:23|203:49,1,115,10|0,0:0|0:0,0:0:0:0:
66,202,240117,1,2,3:2:0:0:
53,233,240232,2,0,P|50:260|57:299,1,57.5,2|0,0:0|0:0,0:0:0:0:
182,311,240463,1,2,0:0:0:0:
173,276,240578,2,0,P|161:251|135:220,2,57.5,8|0|2,0:0|0:0|0:0,0:0:0:0:
330,63,241040,5,2,3:2:0:0:
232,175,241271,2,0,P|257:164|292:159,1,57.5,2|0,0:0|0:0,0:0:0:0:
437,97,241501,2,0,P|379:89|321:56,1,115,8|2,0:0|0:0,0:0:0:0:
220,260,241963,1,2,3:2:0:0:
249,277,242078,2,0,P|262:302|269:341,1,57.5,2|0,0:0|0:0,0:0:0:0:
373,215,242309,2,0,P|344:213|307:200,1,57.5,2|8,0:0|0:0,0:0:0:0:
370,384,242540,1,2,0:0:0:0:
370,350,242655,2,0,P|385:326|415:300,1,57.5,2|0,0:0|0:0,0:0:0:0:
422,121,242886,5,2,3:2:0:0:
428,63,243002,1,2,0:0:0:0:
474,97,243117,1,2,0:0:0:0:
247,234,243347,1,8,0:0:0:0:
415,115,243578,5,2,0:0:0:0:
436,60,243694,1,2,0:0:0:0:
472,105,243809,2,0,L|458:162,1,57.5,2|0,3:2|0:0,0:0:0:0:
344,341,244040,5,2,0:0:0:0:
334,307,244155,1,2,0:0:0:0:
325,273,244271,2,0,L|339:216,1,57.5,8|0,0:0|0:0,0:0:0:0:
253,46,244501,1,10,0:0:0:0:
197,33,244617,1,10,0:0:0:0:
141,20,244732,6,0,L|155:104,1,69.0000026321412,2|0,3:2|0:0,0:0:0:0:
74,205,244963,1,8,0:0:0:0:
50,239,245078,1,8,0:0:0:0:
26,273,245194,2,0,L|95:307,1,69.0000026321412,10|0,0:0|0:0,0:0:0:0:
224,377,245424,5,0,3:0:0:0:
227,363,245501,1,0,3:0:0:0:
230,349,245578,1,0,3:0:0:0:
233,335,245655,6,0,P|229:299|221:263,1,69.0000026321412,10|0,0:0|3:0,0:0:0:0:
370,297,245886,1,8,0:0:0:0:
396,248,246001,2,0,P|374:218|349:191,1,69.0000026321412,10|0,0:0|3:0,0:0:0:0:
491,147,246232,1,8,0:0:0:0:
489,91,246347,1,10,0:0:0:0:
489,91,246578,6,0,P|362:38|217:8,1,276.000010528565,6|8,3:2|0:0,0:0:0:0:
123,84,247155,5,2,0:0:0:0:
114,93,247271,1,2,0:0:0:0:
111,106,247386,1,2,0:0:0:0:
116,119,247501,2,0,P|171:120|230:105,1,103.500003948212,2|0,3:2|3:0,0:0:0:0:
288,255,247963,6,0,P|264:239|239:228,1,46,8|0,0:0|0:0,0:0:0:0:
103,222,248194,1,6,0:0:0:0:
50,243,248309,1,2,0:0:0:0:
23,293,248424,6,0,P|150:346|295:376,1,276.000010528565,6|8,3:2|0:0,0:0:0:0:
389,300,249001,5,2,0:0:0:0:
398,291,249117,1,2,0:0:0:0:
401,278,249232,1,2,0:0:0:0:
396,265,249347,2,0,P|341:264|282:279,1,103.500003948212,2|0,0:0|0:0,0:0:0:0:
244,115,249809,6,0,P|270:120|288:136,1,46,8|0,0:0|3:0,0:0:0:0:
432,13,250040,1,8,0:0:0:0:
477,47,250155,1,8,0:0:0:0:
439,91,250271,6,0,B|386:163|386:163|458:224|458:224|401:297,1,276.000010528565,10|10,0:0|0:0,0:0:0:0:
363,339,250847,1,10,0:0:0:0:
408,373,250962,1,2,3:2:0:0:
231,197,251194,6,0,B|220:148|220:148|223:62|223:62|213:7,1,184,10|0,0:0|3:0,0:0:0:0:
54,91,251540,1,0,3:0:0:0:
40,143,251655,6,0,B|31:189|31:189|34:275|34:275|23:324,1,184,10|2,0:0|3:2,0:0:0:0:
22,337,251963,1,2,3:2:0:0:
20,349,252040,1,2,3:2:0:0:
18,361,252117,6,0,P|99:312|202:295,1,184,6|2,3:2|0:0,0:0:0:0:
114,155,252463,1,2,0:0:0:0:
150,135,252578,2,0,P|196:167|248:244,1,138.000005264282,10|2,0:0|0:0,0:0:0:0:
338,193,252924,1,2,0:0:0:0:
332,219,253040,1,2,3:2:0:0:
470,371,253271,1,2,0:0:0:0:
269,316,253501,5,10,0:0:0:0:
293,330,253617,2,0,P|323:323|338:309,1,46,2|0,0:0|0:0,0:0:0:0:
425,192,253847,1,2,0:0:0:0:
453,228,253963,5,2,3:2:0:0:
431,221,254078,1,2,0:0:0:0:
408,214,254194,1,2,0:0:0:0:
385,207,254309,1,2,0:0:0:0:
338,156,254424,5,10,0:0:0:0:
404,139,254540,1,2,0:0:0:0:
422,72,254655,1,2,0:0:0:0:
373,23,254771,1,2,0:0:0:0:
307,41,254886,6,0,P|280:46|233:47,1,69.0000026321412,2|0,3:2|0:0,0:0:0:0:
93,8,255117,1,2,0:0:0:0:
253,180,255347,2,0,P|186:169|133:110,1,138.000005264282,8|2,0:0|0:0,0:0:0:0:
52,256,255694,1,2,0:0:0:0:
89,238,255809,6,0,P|156:249|209:308,1,138.000005264282,2|0,3:2|0:0,0:0:0:0:
149,367,256155,1,2,0:0:0:0:
141,340,256271,1,10,0:0:0:0:
178,174,256501,1,2,0:0:0:0:
21,24,256732,5,2,3:2:0:0:
53,56,256847,1,2,0:0:0:0:
65,100,256963,1,2,0:0:0:0:
53,145,257078,1,2,0:0:0:0:
91,202,257194,5,10,0:0:0:0:
154,175,257309,1,2,0:0:0:0:
195,120,257424,1,2,0:0:0:0:
203,51,257540,1,2,0:0:0:0:
261,14,257655,5,2,3:2:0:0:
283,21,257771,1,2,0:0:0:0:
296,39,257886,1,2,0:0:0:0:
302,62,258001,1,2,0:0:0:0:
285,129,258117,5,10,0:0:0:0:
352,114,258232,1,2,0:0:0:0:
419,99,258347,1,2,0:0:0:0:
481,315,258578,6,0,P|434:276|354:246,1,138.000005264282,2|0,3:2|0:0,0:0:0:0:
240,311,258924,1,2,0:0:0:0:
260,330,259040,2,0,P|283:318|305:296,1,46,10|0,0:0|0:0,0:0:0:0:
363,165,259271,1,2,3:2:0:0:
65,38,259501,6,0,P|121:142|148:308,1,276,6|0,3:2|0:0,0:0:0:0:
244,367,259963,5,10,0:0:0:0:
229,299,260078,1,2,0:0:0:0:
237,230,260194,1,2,0:0:0:0:
265,167,260309,1,2,0:0:0:0:
315,120,260424,6,0,P|337:102|358:91,1,46,2|0,3:2|0:0,0:0:0:0:
498,48,260655,1,2,0:0:0:0:
498,48,260886,2,0,P|475:50|453:57,1,46,8|0,0:0|0:0,0:0:0:0:
315,120,261117,1,2,3:2:0:0:
288,327,261347,6,0,P|370:300|422:126,1,276,6|0,3:2|0:0,0:0:0:0:
374,10,261809,5,10,0:0:0:0:
311,39,261924,1,2,0:0:0:0:
243,54,262040,1,2,0:0:0:0:
174,50,262155,1,2,0:0:0:0:
110,22,262271,6,0,P|86:15|54:11,1,46,2|0,3:2|0:0,0:0:0:0:
11,191,262501,1,2,0:0:0:0:
11,191,262732,2,0,P|33:187|55:181,1,46,10|0,0:0|0:0,0:0:0:0:
174,50,262963,1,2,3:2:0:0:
131,339,263194,6,0,P|249:185|402:88,1,368,6|8,3:2|0:0,0:0:0:0:
10,39,263886,1,2,3:2:0:0:
57,88,264001,1,2,3:2:0:0:
122,110,264117,2,0,P|173:99|270:-7,1,184,6|2,3:2|0:0,0:0:0:0:
54,213,264578,1,10,0:0:0:0:
289,288,264809,1,2,3:2:0:0:
224,311,264924,1,2,3:2:0:0:
277,355,265040,6,0,P|243:265|235:178,1,184,6|8,3:2|0:0,0:0:0:0:
343,120,265732,1,2,0:0:0:0:
350,131,265847,1,2,0:0:0:0:
357,142,265963,2,0,L|376:46,1,92,2|0,0:0|0:0,0:0:0:0:
292,18,266309,1,2,0:0:0:0:
300,44,266424,1,10,0:0:0:0:
442,112,266655,5,8,0:0:0:0:
471,76,266771,1,8,0:0:0:0:
500,40,266886,1,4,3:2:0:0:
