osu file format v14

[General]
AudioFilename: audio.mp3
AudioLeadIn: 0
PreviewTime: 52985
Countdown: 0
SampleSet: Normal
StackLeniency: 0.7
Mode: 1
LetterboxInBreaks: 0
WidescreenStoryboard: 1

[Editor]
Bookmarks: 34015,70015,146563,176102,204884,218886,246578
DistanceSpacing: 1.5
BeatDivisor: 4
GridSize: 32
TimelineZoom: 1.9

[Metadata]
Title:Replique (feat. Toromaru)
TitleUnicode:Réplique (feat. とろまる)
Artist:Risa Yuzuki
ArtistUnicode:Risa Yuzuki
Creator:Faputa
Version:Oni
Source:
Tags:featured artist fa osu! ゆずりさ Yuzurisa 柚木梨沙 Orchestral Gothic Rock Japanese J-rock Jrock Pop J-pop Jpop
BeatmapID:3245049
BeatmapSetID:1580723

[Difficulty]
HPDrainRate:5.5
CircleSize:2
OverallDifficulty:5.5
ApproachRate:10
SliderMultiplier:1.4
SliderTickRate:1

[Events]
//Background and Video events
0,0,"BG.jpg",0,60
//Break Periods
//Storyboard Layer 0 (Background)
//Storyboard Layer 1 (Fail)
//Storyboard Layer 2 (Pass)
//Storyboard Layer 3 (Foreground)
//Storyboard Layer 4 (Overlay)
//Storyboard Sound Samples

[TimingPoints]
1061,352.941176470588,3,1,0,60,1,0
1061,-133.333333333333,3,1,0,60,0,0
8472,375,3,1,0,60,1,0
8472,-125.486259254612,3,1,0,60,0,0
9597,-125.486259254612,3,1,0,70,0,0
10721,352.941176470588,3,1,0,70,1,0
10721,-133.333333333333,3,1,0,70,0,0
32956,-131.578947368421,3,1,0,70,0,0
33132,-130.446125750065,3,1,0,70,0,0
33309,-129.315918789603,3,1,0,70,0,0
33485,-128.205128205128,3,1,0,70,0,0
33662,-127.129417747267,3,1,0,70,0,0
33838,-126.055716626749,3,1,0,70,0,0
34015,-125,3,1,0,70,0,0
52015,-117.647058823529,3,1,0,70,0,0
52985,-111.111111111111,3,1,0,75,0,0
68956,-109.89010989011,3,1,0,75,0,0
69132,-109.096344072414,3,1,0,75,0,0
69220,-108.703804959285,3,1,0,75,0,0
69309,-108.314080505523,3,1,0,75,0,0
69485,-107.542839690191,3,1,0,75,0,0
69662,-106.782504327361,3,1,0,75,0,0
69838,-106.032957163746,3,1,0,75,0,0
70015,-105.293748499564,3,1,0,75,0,0
89073,-105.263157894737,3,1,0,75,0,0
89426,-109.07718519779,3,1,0,75,0,0
89779,-113.177992765663,3,1,0,75,0,0
89956,-115.346240577654,3,1,0,75,0,0
90044,-116.461752213647,3,1,0,75,0,0
90132,-117.599189035992,3,1,0,75,0,0
90485,-122.379847465758,3,1,0,75,0,0
90662,-124.918958825462,3,1,0,75,0,0
90838,-127.565664425763,3,1,0,75,0,0
91015,-130.326951222532,3,1,0,75,0,0
91191,457.142857142857,4,1,0,75,1,0
91191,-103.092783505155,3,1,0,75,0,0
91305,-103.092783505155,3,1,0,40,0,0
92105,461.538461538461,4,1,0,40,1,8
93028,461.538461538461,4,1,0,40,1,0
94758,-100,4,1,0,80,0,0
94874,-100,4,1,0,80,0,0
95335,-96.8830776265971,4,1,0,80,0,0
95797,-93.9546743859827,4,1,0,80,0,0
96258,-91.1980228268651,4,1,0,80,0,0
96374,-90.5339511370159,4,1,0,80,0,0
96489,-89.8794806044575,4,1,0,80,0,0
96720,-88.5986004965065,4,1,0,80,0,0
96835,-87.9717153340858,4,1,0,80,0,0
96951,-87.3536389778925,4,1,0,80,0,0
97181,-86.143180302845,4,1,0,80,0,0
97297,-85.5504443917834,4,1,0,80,0,0
97412,-84.9658097581533,4,1,0,80,0,0
97643,-83.8202591890055,4,1,0,80,0,0
97758,-83.2589553332356,4,1,0,80,0,0
97874,-82.7051190333426,4,1,0,80,0,0
97989,-82.1586022521316,4,1,0,80,0,0
98104,-81.61926083965,4,1,0,80,0,0
98335,-80.5615462016439,4,1,0,80,0,0
98451,-80.0429029960059,4,1,0,80,0,0
98564,461.538461538461,4,1,0,80,1,0
98564,-80,4,1,0,90,0,1
113333,-80,4,1,0,80,0,0
113563,-100,4,1,0,80,0,0
126256,-100,4,1,0,80,0,0
126717,-97.5609756097561,4,1,0,80,0,0
126948,-96.3855421686747,4,1,0,80,0,0
127179,-95.2380952380952,4,1,0,80,0,0
127294,-94.6745562130178,4,1,0,80,0,0
127410,-94.1176470588235,4,1,0,80,0,0
127525,-93.5672514619883,4,1,0,80,0,0
127640,-93.0232558139535,4,1,0,80,0,0
127871,-91.9540229885058,4,1,0,80,0,0
127987,-91.4285714285714,4,1,0,80,0,0
128102,-90.9090909090909,4,1,0,80,0,0
143333,-100,4,1,0,80,0,0
143448,-99.1150021458398,4,1,0,80,0,0
143563,-98.2456278239478,4,1,0,80,0,0
143679,-97.3912772476446,4,1,0,80,0,0
143794,-96.5517507728968,4,1,0,80,0,0
143910,-95.7264826356947,4,1,0,80,0,0
144025,-94.9152928468988,4,1,0,80,0,0
144140,-94.1176470588235,4,1,0,80,0,0
144256,-93.3332960000149,4,1,0,80,0,0
144371,-92.5619957106771,4,1,0,80,0,0
144487,-91.8032546089824,4,1,0,80,0,0
144602,-91.0569342587146,4,1,0,80,0,0
144717,-90.3225689906363,4,1,0,80,0,0
144833,-89.6000344064132,4,1,0,80,0,0
144948,-88.8888888888889,4,1,0,80,0,0
145063,-88.1889430466987,4,1,0,80,0,0
145179,-87.5000109375014,4,1,0,80,0,0
145294,-86.8216838891947,4,1,0,80,0,0
145410,-86.153867360952,4,1,0,80,0,0
145525,-85.4961727638262,4,1,0,80,0,0
145640,-84.8485157024906,4,1,0,80,0,0
145698,-84.528281472415,4,1,0,80,0,0
145756,-84.2105263157895,4,1,0,80,0,0
145871,-83.5820596123966,4,1,0,80,0,0
145987,-82.9629727956116,4,1,0,80,0,0
146102,-82.3529217993125,4,1,0,80,0,0
146563,-80,4,1,0,90,0,1
176102,-80,4,1,0,80,0,0
176333,-95.2380952380952,4,1,0,80,0,0
178871,-95.2380952380952,4,1,0,80,0,0
179102,-94.4882187364469,4,1,0,80,0,0
179333,-93.7499707031342,4,1,0,80,0,0
179448,-93.3852430771185,4,1,0,80,0,0
179563,-93.0232558139535,4,1,0,80,0,0
179679,-92.6640640419879,4,1,0,80,0,0
179794,-92.3077207100679,4,1,0,80,0,0
180025,-91.6030254647251,4,1,0,80,0,0
180256,-90.9090909090909,4,1,0,80,0,0
180371,-90.5660103951667,4,1,0,80,0,0
180487,-90.2255910452905,4,1,0,80,0,0
180717,-89.5522120739665,4,1,0,80,0,0
180948,-88.8888888888889,4,1,0,80,0,0
181063,-88.5608594654289,4,1,0,80,0,0
181179,-88.2353200692118,4,1,0,80,0,0
181294,-87.9120879120879,4,1,0,80,0,0
181410,-87.591215301835,4,1,0,80,0,0
181640,-86.9565217391304,4,1,0,80,0,0
181756,-86.9565217391304,4,1,0,40,0,0
182102,-100,4,1,0,40,0,0
195371,-100,4,1,0,60,0,0
195794,-98.0392156862745,4,1,0,60,0,0
196102,-96.1538461538461,4,1,0,60,0,0
196410,352.941176470588,3,1,0,70,1,8
196414,352.941176470588,3,1,0,70,1,0
196414,-125,3,1,0,70,0,0
203825,-125,3,1,0,70,0,0
203914,-123.720115406124,3,1,0,70,0,0
204002,-122.466174842509,3,1,0,70,0,0
204178,-120.03317717017,3,1,0,70,0,0
204355,-117.694829077684,3,1,0,70,0,0
204531,-115.445846085289,3,1,0,70,0,0
204708,-113.281201324484,3,1,0,70,0,0
204884,-111.196361655047,3,1,0,75,0,0
213348,461.538461538461,4,1,0,70,1,0
213348,-85.1063829787234,4,1,0,70,0,0
213463,-85.1063829787234,4,1,0,40,0,0
215078,-85.1063829787234,4,1,0,80,0,0
215194,-100,4,1,0,80,0,0
215309,-98.4615384615385,4,1,0,80,0,0
215424,-96.969696969697,4,1,0,80,0,0
215655,-94.1176470588235,4,1,0,80,0,0
215771,-92.7536231884058,4,1,0,80,0,0
215886,-91.4285714285714,4,1,0,80,0,0
216117,-88.8888888888889,4,1,0,80,0,0
216232,-87.6712328767123,4,1,0,80,0,0
216348,-86.4864864864865,4,1,0,80,0,0
216463,-85.3333333333333,4,1,0,80,0,0
216578,-84.2105263157895,4,1,0,80,0,0
217040,-80,4,1,0,80,0,0
218424,-76.9230769230769,4,1,0,80,0,0
218886,-76.9230769230769,4,1,0,90,0,1
246578,-76.9230769230769,4,1,0,80,0,0
246809,-90.9090909090909,4,1,0,80,0,0
249347,-90.9090909090909,4,1,0,80,0,0
249578,-89.5522120739665,4,1,0,80,0,0
249809,-88.2353200692118,4,1,0,80,0,0
249924,-87.591215301835,4,1,0,80,0,0
250040,-86.9565217391304,4,1,0,80,0,0
250155,-86.3309600952403,4,1,0,80,0,0
250271,-85.7142612244968,4,1,0,80,0,0
250501,-84.5070660583285,4,1,0,80,0,0
250732,-83.3333333333333,4,1,0,80,0,0
250847,-82.7586435196258,4,1,0,80,0,0
250963,-82.1917583036279,4,1,0,80,0,0
251194,-81.0811029948927,4,1,0,80,0,0
251424,-80,4,1,0,80,0,0
251540,-79.4702197272105,4,1,0,80,0,0
251655,-78.9473476454348,4,1,0,80,0,0
251771,-78.4313725490196,4,1,0,80,0,0
251886,-77.9220981615839,4,1,0,80,0,0
252040,-77.2532454088396,4,1,0,80,0,0
252117,-76.9230769230769,4,1,0,90,0,1
266886,-76.9230769230769,4,1,0,90,0,0
267117,-83.3333333333333,4,1,0,60,0,0
267809,-84.2683610225123,4,1,0,60,0,0
268271,-85.2246094582272,4,1,0,60,0,0
268501,-85.7108817678384,4,1,0,60,0,0
268963,-86.7003410791418,4,1,0,60,0,0
269194,-87.2036492983158,4,1,0,60,0,0
269424,-87.719298245614,4,1,0,60,0,0
269655,-88.228080174621,4,1,0,60,0,0
270117,-89.276866310571,4,1,0,60,0,0
270578,-90.3508867036021,4,1,0,60,0,0
271040,-91.4510631643348,4,1,0,60,0,0
271501,-92.5783629553235,4,1,0,60,0,0
271963,-93.733713767233,4,1,0,60,0,0
272194,-94.3223598699861,4,1,0,60,0,0
272655,-95.5220230800312,4,1,0,60,0,0
272886,-96.1333253863118,4,1,0,60,0,0
273117,-96.1538461538461,4,1,0,60,0,0
273347,-97.3798016762959,4,1,0,60,0,0
273809,-98.6590265116536,4,1,0,60,0,0
274271,-99.9723076707752,4,1,0,60,0,0
274386,-99.9723076707752,4,1,0,40,0,0
276001,-99.9723076707752,4,1,0,30,0,0
277847,-99.9723076707752,4,1,0,20,0,0
279694,-99.9723076707752,4,1,0,10,0,0
281540,-99.9723076707752,4,1,0,5,0,0

[HitObjects]
256,192,1061,5,0,0:0:0:0:
256,192,1413,1,8,0:0:0:0:
256,192,2119,1,0,0:0:0:0:
256,192,2472,1,0,0:0:0:0:
256,192,2825,1,8,0:0:0:0:
256,192,3178,1,0,0:0:0:0:
256,192,3531,1,8,0:0:0:0:
256,192,4237,1,0,0:0:0:0:
256,192,4590,1,8,0:0:0:0:
256,192,4943,1,8,0:0:0:0:
256,192,5296,1,8,0:0:0:0:
256,192,5825,1,0,0:0:0:0:
256,192,6002,1,8,0:0:0:0:
256,192,6178,1,0,0:0:0:0:
256,192,6355,1,8,0:0:0:0:
256,192,6884,1,8,0:0:0:0:
256,192,7060,1,8,0:0:0:0:
256,192,7413,1,8,0:0:0:0:
256,192,7590,1,8,0:0:0:0:
256,192,7766,1,0,0:0:0:0:
256,192,8119,1,8,0:0:0:0:
256,192,8472,1,0,0:0:0:0:
256,192,10721,1,8,0:0:0:0:
256,192,11073,1,0,0:0:0:0:
256,192,11426,1,8,0:0:0:0:
256,192,11779,1,8,0:0:0:0:
256,192,12309,1,8,0:0:0:0:
256,192,12485,1,0,0:0:0:0:
256,192,12662,1,8,0:0:0:0:
256,192,12838,1,8,0:0:0:0:
256,192,13191,1,0,0:0:0:0:
256,192,13897,1,0,0:0:0:0:
256,192,14250,1,0,0:0:0:0:
256,192,14956,1,8,0:0:0:0:
256,192,15309,1,0,0:0:0:0:
256,192,16015,1,0,0:0:0:0:
256,192,16368,1,0,0:0:0:0:
256,192,17073,1,8,0:0:0:0:
256,192,17426,1,8,0:0:0:0:
256,192,17956,1,0,0:0:0:0:
256,192,18132,1,8,0:0:0:0:
256,192,18309,1,0,0:0:0:0:
256,192,18485,1,8,0:0:0:0:
256,192,18838,1,8,0:0:0:0:
256,192,19191,1,0,0:0:0:0:
256,192,19544,1,8,0:0:0:0:
256,192,20250,1,0,0:0:0:0:
256,192,20603,1,0,0:0:0:0:
256,192,21309,1,0,0:0:0:0:
256,192,21485,1,0,0:0:0:0:
256,192,21662,1,8,0:0:0:0:
256,192,22191,1,0,0:0:0:0:
256,192,22368,1,0,0:0:0:0:
256,192,22544,1,8,0:0:0:0:
256,192,22720,1,8,0:0:0:0:
256,192,23073,1,0,0:0:0:0:
256,192,23426,1,8,0:0:0:0:
256,192,23779,1,8,0:0:0:0:
256,192,24485,1,0,0:0:0:0:
256,192,24838,1,0,0:0:0:0:
256,192,25191,1,8,0:0:0:0:
256,192,25368,1,8,0:0:0:0:
256,192,25544,1,8,0:0:0:0:
256,192,26073,1,0,0:0:0:0:
256,192,26250,1,8,0:0:0:0:
256,192,26603,1,8,0:0:0:0:
256,192,26956,1,0,0:0:0:0:
256,192,27309,1,8,0:0:0:0:
256,192,27662,1,0,0:0:0:0:
256,192,28191,1,8,0:0:0:0:
256,192,28368,1,0,0:0:0:0:
256,192,28544,1,0,0:0:0:0:
256,192,28720,1,8,0:0:0:0:
256,192,29073,1,8,0:0:0:0:
256,192,29603,1,0,0:0:0:0:
256,192,29779,1,8,0:0:0:0:
256,192,29956,1,0,0:0:0:0:
256,192,30132,1,8,0:0:0:0:
256,192,30662,1,8,0:0:0:0:
256,192,30838,1,8,0:0:0:0:
256,192,31015,1,0,0:0:0:0:
256,192,31191,1,8,0:0:0:0:
256,192,31544,1,8,0:0:0:0:
256,192,31897,1,0,0:0:0:0:
256,192,32250,1,0,0:0:0:0:
256,192,32956,1,0,0:0:0:0:
256,192,33132,1,0,0:0:0:0:
256,192,33309,1,8,0:0:0:0:
256,192,33485,1,8,0:0:0:0:
256,192,33662,1,0,0:0:0:0:
256,192,34015,1,8,0:0:0:0:
256,192,34191,1,0,0:0:0:0:
256,192,34368,1,8,0:0:0:0:
256,192,34897,1,0,0:0:0:0:
256,192,35073,1,8,0:0:0:0:
256,192,35250,1,8,0:0:0:0:
256,192,35426,1,0,0:0:0:0:
256,192,35779,1,8,0:0:0:0:
256,192,36132,1,0,0:0:0:0:
256,192,36485,1,8,0:0:0:0:
256,192,37191,1,0,0:0:0:0:
256,192,37544,1,8,0:0:0:0:
256,192,37897,1,8,0:0:0:0:
256,192,38250,1,0,0:0:0:0:
256,192,38426,1,8,0:0:0:0:
256,192,38603,1,8,0:0:0:0:
256,192,39132,1,8,0:0:0:0:
256,192,39309,1,0,0:0:0:0:
256,192,39485,1,8,0:0:0:0:
256,192,39662,1,8,0:0:0:0:
256,192,40015,1,0,0:0:0:0:
256,192,40368,1,8,0:0:0:0:
256,192,40720,1,0,0:0:0:0:
256,192,41426,1,0,0:0:0:0:
256,192,41779,1,8,0:0:0:0:
256,192,42132,1,8,0:0:0:0:
256,192,42309,1,0,0:0:0:0:
256,192,42485,1,8,0:0:0:0:
256,192,43015,1,0,0:0:0:0:
256,192,43191,1,8,0:0:0:0:
256,192,43544,1,8,0:0:0:0:
256,192,43897,1,0,0:0:0:0:
256,192,44250,1,8,0:0:0:0:
256,192,44603,1,0,0:0:0:0:
256,192,45132,1,8,0:0:0:0:
256,192,45309,1,8,0:0:0:0:
256,192,45485,1,0,0:0:0:0:
256,192,45662,1,8,0:0:0:0:
256,192,46015,1,0,0:0:0:0:
256,192,46368,1,8,0:0:0:0:
256,192,46720,1,8,0:0:0:0:
256,192,47250,1,8,0:0:0:0:
256,192,47426,1,0,0:0:0:0:
256,192,47603,1,0,0:0:0:0:
256,192,47779,1,8,0:0:0:0:
256,192,48132,1,8,0:0:0:0:
256,192,48485,1,0,0:0:0:0:
256,192,48838,1,8,0:0:0:0:
256,192,49191,1,0,0:0:0:0:
256,192,49309,1,0,0:0:0:0:
256,192,49426,1,0,0:0:0:0:
256,192,49544,1,8,0:0:0:0:
256,192,49897,1,8,0:0:0:0:
256,192,50250,1,0,0:0:0:0:
256,192,50368,1,0,0:0:0:0:
256,192,50485,1,0,0:0:0:0:
256,192,50603,1,8,0:0:0:0:
256,192,50956,1,0,0:0:0:0:
256,192,51132,8,0,52897,0:0:0:0:
257,187,53073,5,12,0:0:0:0:
257,187,53426,1,8,0:0:0:0:
257,187,53603,1,0,0:0:0:0:
257,187,53779,1,8,0:0:0:0:
257,187,54132,1,0,0:0:0:0:
257,187,54220,1,0,0:0:0:0:
257,187,54309,1,0,0:0:0:0:
257,187,54485,1,8,0:0:0:0:
257,187,54662,1,0,0:0:0:0:
257,187,54838,1,8,0:0:0:0:
257,187,55015,1,8,0:0:0:0:
257,187,55103,1,8,0:0:0:0:
257,187,55191,1,8,0:0:0:0:
257,187,55544,1,0,0:0:0:0:
257,187,55720,1,8,0:0:0:0:
257,187,55897,1,8,0:0:0:0:
257,187,56073,1,0,0:0:0:0:
257,187,56250,1,8,0:0:0:0:
257,187,56338,1,8,0:0:0:0:
257,187,56426,1,8,0:0:0:0:
257,187,56603,1,0,0:0:0:0:
257,187,56779,1,0,0:0:0:0:
257,187,56956,1,8,0:0:0:0:
257,187,57309,1,0,0:0:0:0:
257,187,57662,1,8,0:0:0:0:
257,187,58015,1,0,0:0:0:0:
257,187,58191,1,8,0:0:0:0:
257,187,58368,1,0,0:0:0:0:
257,187,58456,1,0,0:0:0:0:
257,187,58544,1,0,0:0:0:0:
257,187,58720,1,8,0:0:0:0:
257,187,58897,1,0,0:0:0:0:
257,187,59073,1,8,0:0:0:0:
257,187,59250,1,8,0:0:0:0:
257,187,59338,1,8,0:0:0:0:
257,187,59426,1,8,0:0:0:0:
257,187,59779,1,0,0:0:0:0:
257,187,60132,1,8,0:0:0:0:
257,187,60485,1,0,0:0:0:0:
257,187,60573,1,0,0:0:0:0:
257,187,60662,1,0,0:0:0:0:
257,187,60838,1,8,0:0:0:0:
257,187,61015,1,0,0:0:0:0:
257,187,61191,1,8,0:0:0:0:
257,187,61368,1,8,0:0:0:0:
257,187,61544,1,0,0:0:0:0:
257,187,61897,1,8,0:0:0:0:
257,187,62073,1,0,0:0:0:0:
257,187,62250,1,8,0:0:0:0:
257,187,62603,1,0,0:0:0:0:
257,187,62691,1,0,0:0:0:0:
257,187,62779,1,0,0:0:0:0:
257,187,62956,1,8,0:0:0:0:
257,187,63132,1,0,0:0:0:0:
257,187,63309,1,8,0:0:0:0:
257,187,63485,1,8,0:0:0:0:
257,187,63573,1,8,0:0:0:0:
257,187,63662,1,8,0:0:0:0:
257,187,64015,1,8,0:0:0:0:
257,187,64191,1,8,0:0:0:0:
257,187,64368,1,0,0:0:0:0:
257,187,64544,1,0,0:0:0:0:
257,187,64720,1,8,0:0:0:0:
257,187,64809,1,8,0:0:0:0:
257,187,64897,1,8,0:0:0:0:
257,187,65073,1,0,0:0:0:0:
257,187,65250,1,0,0:0:0:0:
257,187,65426,1,8,0:0:0:0:
257,187,65603,1,8,0:0:0:0:
257,187,65779,1,0,0:0:0:0:
257,187,66132,1,8,0:0:0:0:
257,187,66485,1,8,0:0:0:0:
257,187,66838,1,0,0:0:0:0:
257,187,66926,1,0,0:0:0:0:
257,187,67015,1,0,0:0:0:0:
257,187,67191,1,8,0:0:0:0:
257,187,67368,1,8,0:0:0:0:
257,187,67544,1,0,0:0:0:0:
257,187,67720,1,8,0:0:0:0:
257,187,67809,1,8,0:0:0:0:
257,187,67897,1,8,0:0:0:0:
257,187,68250,1,0,0:0:0:0:
257,187,68426,1,8,0:0:0:0:
257,187,68603,1,8,0:0:0:0:
257,187,68956,1,8,0:0:0:0:
257,187,69132,1,0,0:0:0:0:
257,187,69220,1,0,0:0:0:0:
257,187,69309,1,0,0:0:0:0:
257,187,69485,1,8,0:0:0:0:
257,187,69662,1,8,0:0:0:0:
257,187,69838,1,0,0:0:0:0:
257,187,70015,1,12,0:0:0:0:
257,187,70368,1,0,0:0:0:0:
257,187,70544,1,8,0:0:0:0:
257,187,70720,1,8,0:0:0:0:
257,187,71073,1,8,0:0:0:0:
257,187,71162,1,8,0:0:0:0:
257,187,71250,1,8,0:0:0:0:
257,187,71426,1,8,0:0:0:0:
257,187,71603,1,0,0:0:0:0:
257,187,71779,1,8,0:0:0:0:
257,187,71956,1,0,0:0:0:0:
257,187,72044,1,0,0:0:0:0:
257,187,72132,1,0,0:0:0:0:
257,187,72485,1,0,0:0:0:0:
257,187,72662,1,8,0:0:0:0:
257,187,72838,1,0,0:0:0:0:
257,187,73015,1,8,0:0:0:0:
257,187,73191,1,0,0:0:0:0:
257,187,73279,1,0,0:0:0:0:
257,187,73368,1,0,0:0:0:0:
257,187,73544,1,8,0:0:0:0:
257,187,73720,1,0,0:0:0:0:
257,187,73897,1,8,0:0:0:0:
257,187,74250,1,0,0:0:0:0:
257,187,74603,1,8,0:0:0:0:
257,187,74779,1,0,0:0:0:0:
257,187,74956,1,8,0:0:0:0:
257,187,75132,1,0,0:0:0:0:
257,187,75309,1,8,0:0:0:0:
257,187,75397,1,8,0:0:0:0:
257,187,75485,1,8,0:0:0:0:
257,187,75662,1,0,0:0:0:0:
257,187,75838,1,0,0:0:0:0:
257,187,76015,1,8,0:0:0:0:
257,187,76191,1,0,0:0:0:0:
257,187,76279,1,0,0:0:0:0:
257,187,76368,1,0,0:0:0:0:
257,187,76720,1,8,0:0:0:0:
257,187,76897,1,0,0:0:0:0:
257,187,77073,1,8,0:0:0:0:
257,187,77426,1,0,0:0:0:0:
257,187,77515,1,0,0:0:0:0:
257,187,77603,1,0,0:0:0:0:
257,187,77779,1,8,0:0:0:0:
257,187,77956,1,0,0:0:0:0:
257,187,78132,1,8,0:0:0:0:
257,187,78309,1,8,0:0:0:0:
257,187,78485,1,0,0:0:0:0:
257,187,78838,1,0,0:0:0:0:
257,187,79015,1,8,0:0:0:0:
257,187,79191,1,8,0:0:0:0:
257,187,79544,1,0,0:0:0:0:
257,187,79632,1,0,0:0:0:0:
257,187,79720,1,0,0:0:0:0:
257,187,79897,1,8,0:0:0:0:
257,187,80073,1,0,0:0:0:0:
257,187,80250,1,8,0:0:0:0:
257,187,80426,1,0,0:0:0:0:
257,187,80515,1,0,0:0:0:0:
257,187,80603,1,0,0:0:0:0:
257,187,80956,1,8,0:0:0:0:
257,187,81132,1,0,0:0:0:0:
257,187,81309,1,8,0:0:0:0:
257,187,81485,1,8,0:0:0:0:
257,187,81573,1,8,0:0:0:0:
257,187,81662,1,8,0:0:0:0:
257,187,81838,1,0,0:0:0:0:
257,187,82015,1,8,0:0:0:0:
257,187,82368,1,8,0:0:0:0:
257,187,82720,1,0,0:0:0:0:
257,187,82897,1,0,0:0:0:0:
257,187,83073,1,8,0:0:0:0:
257,187,83426,1,8,0:0:0:0:
257,187,83779,1,0,0:0:0:0:
257,187,83956,1,8,0:0:0:0:
257,187,84132,1,8,0:0:0:0:
257,187,84485,1,8,0:0:0:0:
257,187,84838,1,8,0:0:0:0:
257,187,85015,1,0,0:0:0:0:
257,187,85191,1,8,0:0:0:0:
257,187,85544,1,8,0:0:0:0:
257,187,85897,1,0,0:0:0:0:
257,187,86073,1,0,0:0:0:0:
257,187,86250,1,8,0:0:0:0:
257,187,86603,1,8,0:0:0:0:
257,187,86779,1,8,0:0:0:0:
257,187,86868,1,8,0:0:0:0:
257,187,86956,1,8,0:0:0:0:
257,187,87132,1,8,0:0:0:0:
257,187,87309,1,0,0:0:0:0:
257,187,87662,1,8,0:0:0:0:
257,187,87838,1,0,0:0:0:0:
257,187,88015,1,8,0:0:0:0:
257,187,88103,1,8,0:0:0:0:
257,187,88191,1,8,0:0:0:0:
257,187,88368,1,0,0:0:0:0:
257,187,88544,1,0,0:0:0:0:
257,187,88720,1,8,0:0:0:0:
257,187,89073,1,0,0:0:0:0:
257,187,89426,1,0,0:0:0:0:
257,187,89779,1,8,0:0:0:0:
257,187,89956,1,0,0:0:0:0:
257,187,90044,1,0,0:0:0:0:
257,187,90132,1,0,0:0:0:0:
257,187,90485,1,0,0:0:0:0:
257,187,90662,1,8,0:0:0:0:
257,187,90838,1,8,0:0:0:0:
257,187,91015,1,8,0:0:0:0:
257,187,91191,1,4,0:0:0:0:
256,192,91419,8,4,94643,0:0:0:0:
263,191,94874,5,0,0:0:0:0:
263,191,95335,1,0,0:0:0:0:
263,191,95797,1,0,0:0:0:0:
263,191,96258,1,8,0:0:0:0:
263,191,96374,1,8,0:0:0:0:
263,191,96489,1,8,0:0:0:0:
263,191,96720,1,0,0:0:0:0:
263,191,96835,1,0,0:0:0:0:
263,191,96951,1,0,0:0:0:0:
263,191,97181,1,8,0:0:0:0:
263,191,97297,1,8,0:0:0:0:
263,191,97412,1,0,0:0:0:0:
263,191,97643,1,8,0:0:0:0:
263,191,97758,1,0,0:0:0:0:
263,191,97874,1,8,0:0:0:0:
263,191,97989,1,8,0:0:0:0:
263,191,98104,1,0,0:0:0:0:
263,191,98335,1,0,0:0:0:0:
263,191,98564,1,12,0:0:0:0:
263,191,98794,1,0,0:0:0:0:
263,191,98910,1,0,0:0:0:0:
263,191,99025,1,8,0:0:0:0:
263,191,99256,1,8,0:0:0:0:
263,191,99371,1,8,0:0:0:0:
263,191,99487,1,0,0:0:0:0:
263,191,99717,1,0,0:0:0:0:
263,191,99948,1,8,0:0:0:0:
263,191,100064,1,8,0:0:0:0:
263,191,100294,1,8,0:0:0:0:
263,191,100410,1,0,0:0:0:0:
263,191,100640,1,0,0:0:0:0:
263,191,100871,1,8,0:0:0:0:
263,191,101102,1,0,0:0:0:0:
263,191,101217,1,0,0:0:0:0:
263,191,101333,1,8,0:0:0:0:
263,191,101679,1,8,0:0:0:0:
263,191,101794,1,0,0:0:0:0:
263,191,102025,1,8,0:0:0:0:
263,191,102140,1,8,0:0:0:0:
263,191,102256,1,8,0:0:0:0:
263,191,102487,1,0,0:0:0:0:
263,191,102602,1,0,0:0:0:0:
263,191,102717,1,8,0:0:0:0:
263,191,102948,1,0,0:0:0:0:
263,191,103179,1,8,0:0:0:0:
263,191,103294,1,8,0:0:0:0:
263,191,103410,1,0,0:0:0:0:
263,191,103525,1,0,0:0:0:0:
263,191,103640,1,8,0:0:0:0:
263,191,103871,1,8,0:0:0:0:
263,191,103987,1,8,0:0:0:0:
263,191,104102,1,8,0:0:0:0:
263,191,104333,1,0,0:0:0:0:
263,191,104564,1,8,0:0:0:0:
263,191,104679,1,8,0:0:0:0:
263,191,104794,1,0,0:0:0:0:
263,191,105025,1,8,0:0:0:0:
263,191,105256,1,0,0:0:0:0:
263,191,105371,1,0,0:0:0:0:
263,191,105487,1,8,0:0:0:0:
263,191,105602,1,8,0:0:0:0:
263,191,105717,1,0,0:0:0:0:
263,191,105948,1,4,0:0:0:0:
263,191,106410,1,8,0:0:0:0:
263,191,106525,1,8,0:0:0:0:
263,191,106640,1,0,0:0:0:0:
263,191,106756,1,0,0:0:0:0:
263,191,106871,1,8,0:0:0:0:
263,191,107102,1,8,0:0:0:0:
263,191,107333,1,0,0:0:0:0:
263,191,107563,1,0,0:0:0:0:
263,191,107794,1,12,0:0:0:0:
263,191,108256,1,0,0:0:0:0:
263,191,108371,1,0,0:0:0:0:
263,191,108487,1,8,0:0:0:0:
263,191,108602,1,8,0:0:0:0:
263,191,108717,1,0,0:0:0:0:
263,191,108948,1,8,0:0:0:0:
263,191,109179,1,8,0:0:0:0:
263,191,109410,1,0,0:0:0:0:
263,191,109640,1,4,0:0:0:0:
263,191,110102,1,0,0:0:0:0:
263,191,110333,1,0,0:0:0:0:
263,191,110563,1,12,0:0:0:0:
263,191,110794,1,8,0:0:0:0:
263,191,111025,1,0,0:0:0:0:
263,191,111256,1,0,0:0:0:0:
263,191,111487,1,12,0:0:0:0:
263,191,111948,1,8,0:0:0:0:
263,191,112179,1,8,0:0:0:0:
263,191,112294,1,8,0:0:0:0:
263,191,112410,1,8,0:0:0:0:
263,191,112640,1,0,0:0:0:0:
263,191,112871,1,8,0:0:0:0:
263,191,113102,1,8,0:0:0:0:
263,191,113333,1,4,0:0:0:0:
263,191,113794,1,0,0:0:0:0:
263,191,114025,1,8,0:0:0:0:
263,191,114256,1,0,0:0:0:0:
263,191,114487,1,0,0:0:0:0:
263,191,114602,1,0,0:0:0:0:
263,191,114833,1,0,0:0:0:0:
263,191,114948,1,8,0:0:0:0:
263,191,115179,1,0,0:0:0:0:
263,191,115640,1,8,0:0:0:0:
263,191,116102,1,0,0:0:0:0:
263,191,116333,1,0,0:0:0:0:
263,191,116448,1,0,0:0:0:0:
263,191,116679,1,0,0:0:0:0:
263,191,116794,1,8,0:0:0:0:
263,191,117025,1,0,0:0:0:0:
263,191,117487,1,8,0:0:0:0:
263,191,117717,1,0,0:0:0:0:
263,191,117948,1,8,0:0:0:0:
263,191,118179,1,0,0:0:0:0:
263,191,118294,1,0,0:0:0:0:
263,191,118525,1,0,0:0:0:0:
263,191,118640,1,8,0:0:0:0:
263,191,118871,1,0,0:0:0:0:
263,191,119333,1,8,0:0:0:0:
263,191,119794,1,8,0:0:0:0:
263,191,119910,1,0,0:0:0:0:
263,191,120140,1,8,0:0:0:0:
263,191,120371,1,0,0:0:0:0:
263,191,120487,1,8,0:0:0:0:
263,191,120717,1,0,0:0:0:0:
263,191,121179,1,0,0:0:0:0:
263,191,121410,1,8,0:0:0:0:
263,191,121640,1,0,0:0:0:0:
263,191,121871,1,0,0:0:0:0:
263,191,121987,1,8,0:0:0:0:
263,191,122217,1,0,0:0:0:0:
263,191,122333,1,0,0:0:0:0:
263,191,122563,1,8,0:0:0:0:
263,191,123025,1,8,0:0:0:0:
263,191,123256,1,0,0:0:0:0:
263,191,123487,1,8,0:0:0:0:
263,191,123602,1,0,0:0:0:0:
263,191,123833,1,8,0:0:0:0:
263,191,124063,1,0,0:0:0:0:
263,191,124179,1,8,0:0:0:0:
263,191,124410,1,0,0:0:0:0:
263,191,124871,1,8,0:0:0:0:
263,191,125102,1,0,0:0:0:0:
263,191,125333,1,8,0:0:0:0:
263,191,125563,1,0,0:0:0:0:
263,191,125794,1,8,0:0:0:0:
263,191,125910,1,8,0:0:0:0:
263,191,126025,1,0,0:0:0:0:
263,191,126256,1,8,0:0:0:0:
263,191,126717,1,0,0:0:0:0:
263,191,126948,1,8,0:0:0:0:
263,191,127179,1,0,0:0:0:0:
263,191,127294,1,0,0:0:0:0:
263,191,127410,1,8,0:0:0:0:
263,191,127525,1,8,0:0:0:0:
263,191,127640,1,0,0:0:0:0:
263,191,127871,1,8,0:0:0:0:
263,191,128102,1,4,0:0:0:0:
263,191,128563,1,0,0:0:0:0:
263,191,128794,1,8,0:0:0:0:
263,191,128910,1,8,0:0:0:0:
263,191,129025,1,0,0:0:0:0:
263,191,129256,1,8,0:0:0:0:
263,191,129371,1,0,0:0:0:0:
263,191,129602,1,0,0:0:0:0:
263,191,129717,1,8,0:0:0:0:
263,191,129948,1,0,0:0:0:0:
263,191,130410,1,8,0:0:0:0:
263,191,130640,1,0,0:0:0:0:
263,191,130871,1,8,0:0:0:0:
263,191,130987,1,0,0:0:0:0:
263,191,131217,1,8,0:0:0:0:
263,191,131333,1,8,0:0:0:0:
263,191,131563,1,8,0:0:0:0:
263,191,131794,1,0,0:0:0:0:
263,191,132256,1,8,0:0:0:0:
263,191,132487,1,0,0:0:0:0:
263,191,132602,1,0,0:0:0:0:
263,191,132717,1,8,0:0:0:0:
263,191,132948,1,8,0:0:0:0:
263,191,133063,1,8,0:0:0:0:
263,191,133294,1,0,0:0:0:0:
263,191,133410,1,8,0:0:0:0:
263,191,133640,1,0,0:0:0:0:
263,191,134102,1,8,0:0:0:0:
263,191,134333,1,0,0:0:0:0:
263,191,134563,1,8,0:0:0:0:
263,191,134794,1,0,0:0:0:0:
263,191,134910,1,0,0:0:0:0:
263,191,135025,1,8,0:0:0:0:
263,191,135256,1,0,0:0:0:0:
263,191,135487,1,8,0:0:0:0:
263,191,135948,1,8,0:0:0:0:
263,191,136179,1,0,0:0:0:0:
263,191,136410,1,8,0:0:0:0:
263,191,136640,1,8,0:0:0:0:
263,191,136871,1,0,0:0:0:0:
263,191,137102,1,8,0:0:0:0:
263,191,137217,1,8,0:0:0:0:
263,191,137333,1,0,0:0:0:0:
263,191,137794,1,8,0:0:0:0:
263,191,138025,1,0,0:0:0:0:
263,191,138140,1,0,0:0:0:0:
263,191,138256,1,8,0:0:0:0:
263,191,138487,1,8,0:0:0:0:
263,191,138602,1,8,0:0:0:0:
263,191,138717,1,0,0:0:0:0:
263,191,138948,1,8,0:0:0:0:
263,191,139179,1,0,0:0:0:0:
263,191,139640,1,8,0:0:0:0:
263,191,139871,1,8,0:0:0:0:
263,191,139987,1,8,0:0:0:0:
263,191,140102,1,0,0:0:0:0:
263,191,140333,1,8,0:0:0:0:
263,191,140448,1,8,0:0:0:0:
263,191,140679,1,8,0:0:0:0:
263,191,140794,1,0,0:0:0:0:
263,191,141025,1,8,0:0:0:0:
263,191,141487,1,8,0:0:0:0:
263,191,141717,1,8,0:0:0:0:
263,191,141833,1,8,0:0:0:0:
263,191,141948,1,0,0:0:0:0:
263,191,142179,1,8,0:0:0:0:
263,191,142294,1,0,0:0:0:0:
263,191,142525,1,0,0:0:0:0:
263,191,142640,1,0,0:0:0:0:
263,191,142871,1,12,0:0:0:0:
263,191,143333,1,8,0:0:0:0:
263,191,143794,1,0,0:0:0:0:
263,191,144256,1,0,0:0:0:0:
263,191,144717,1,8,0:0:0:0:
263,191,144833,1,8,0:0:0:0:
263,191,144948,1,8,0:0:0:0:
263,191,145179,1,0,0:0:0:0:
263,191,145294,1,0,0:0:0:0:
263,191,145410,1,0,0:0:0:0:
263,191,145640,1,8,0:0:0:0:
263,191,145756,1,8,0:0:0:0:
263,191,145871,1,0,0:0:0:0:
263,191,145987,1,0,0:0:0:0:
263,191,146102,1,8,0:0:0:0:
263,191,146563,1,4,0:0:0:0:
263,191,146794,1,0,0:0:0:0:
263,191,147025,1,8,0:0:0:0:
263,191,147140,1,0,0:0:0:0:
263,191,147371,1,0,0:0:0:0:
263,191,147487,1,8,0:0:0:0:
263,191,147717,1,0,0:0:0:0:
263,191,147948,1,8,0:0:0:0:
263,191,148063,1,8,0:0:0:0:
263,191,148179,1,8,0:0:0:0:
263,191,148410,1,0,0:0:0:0:
263,191,148640,1,8,0:0:0:0:
263,191,148756,1,8,0:0:0:0:
263,191,148987,1,0,0:0:0:0:
263,191,149217,1,8,0:0:0:0:
263,191,149333,1,0,0:0:0:0:
263,191,149563,1,8,0:0:0:0:
263,191,149679,1,8,0:0:0:0:
263,191,149794,1,8,0:0:0:0:
263,191,150025,1,0,0:0:0:0:
263,191,150256,1,8,0:0:0:0:
263,191,150717,1,8,0:0:0:0:
263,191,150948,1,0,0:0:0:0:
263,191,151179,1,8,0:0:0:0:
263,191,151410,1,0,0:0:0:0:
263,191,151525,1,0,0:0:0:0:
263,191,151640,1,8,0:0:0:0:
263,191,151871,1,8,0:0:0:0:
263,191,152102,1,0,0:0:0:0:
263,191,152333,1,0,0:0:0:0:
263,191,152448,1,8,0:0:0:0:
263,191,152679,1,0,0:0:0:0:
263,191,152910,1,8,0:0:0:0:
263,191,153140,1,0,0:0:0:0:
263,191,153256,1,0,0:0:0:0:
263,191,153371,1,8,0:0:0:0:
263,191,153487,1,8,0:0:0:0:
263,191,153948,1,12,0:0:0:0:
263,191,154179,1,0,0:0:0:0:
263,191,154294,1,0,0:0:0:0:
263,191,154410,1,8,0:0:0:0:
263,191,154640,1,0,0:0:0:0:
263,191,154871,1,8,0:0:0:0:
263,191,154987,1,0,0:0:0:0:
263,191,155217,1,8,0:0:0:0:
263,191,155448,1,0,0:0:0:0:
263,191,155563,1,8,0:0:0:0:
263,191,155794,1,0,0:0:0:0:
263,191,156256,1,8,0:0:0:0:
263,191,156487,1,0,0:0:0:0:
263,191,156717,1,8,0:0:0:0:
263,191,156833,1,0,0:0:0:0:
263,191,157063,1,8,0:0:0:0:
263,191,157179,1,8,0:0:0:0:
263,191,157410,1,8,0:0:0:0:
263,191,157640,1,0,0:0:0:0:
263,191,157871,1,8,0:0:0:0:
263,191,158102,1,0,0:0:0:0:
263,191,158333,1,0,0:0:0:0:
263,191,158563,1,8,0:0:0:0:
263,191,158679,1,0,0:0:0:0:
263,191,158910,1,0,0:0:0:0:
263,191,159025,1,8,0:0:0:0:
263,191,159256,1,8,0:0:0:0:
263,191,159371,1,8,0:0:0:0:
263,191,159487,1,0,0:0:0:0:
263,191,159833,1,0,0:0:0:0:
263,191,160179,1,0,0:0:0:0:
263,191,160410,1,8,0:0:0:0:
263,191,160640,1,8,0:0:0:0:
263,191,160756,1,8,0:0:0:0:
263,191,160871,1,0,0:0:0:0:
263,191,161333,1,12,0:0:0:0:
263,191,161563,1,0,0:0:0:0:
263,191,161679,1,8,0:0:0:0:
263,191,161910,1,0,0:0:0:0:
263,191,162140,1,8,0:0:0:0:
263,191,162256,1,8,0:0:0:0:
263,191,162487,1,0,0:0:0:0:
263,191,162602,1,0,0:0:0:0:
263,191,162717,1,8,0:0:0:0:
263,191,162948,1,0,0:0:0:0:
263,191,163179,1,8,0:0:0:0:
263,191,163410,1,0,0:0:0:0:
263,191,163525,1,8,0:0:0:0:
263,191,163756,1,0,0:0:0:0:
263,191,163987,1,8,0:0:0:0:
263,191,164102,1,0,0:0:0:0:
263,191,164333,1,8,0:0:0:0:
263,191,164448,1,8,0:0:0:0:
263,191,164563,1,8,0:0:0:0:
263,191,164794,1,0,0:0:0:0:
263,191,165025,1,8,0:0:0:0:
263,191,165487,1,8,0:0:0:0:
263,191,165717,1,0,0:0:0:0:
263,191,165948,1,8,0:0:0:0:
263,191,166179,1,0,0:0:0:0:
263,191,166294,1,0,0:0:0:0:
263,191,166410,1,8,0:0:0:0:
263,191,166640,1,8,0:0:0:0:
263,191,166871,1,0,0:0:0:0:
263,191,167102,1,0,0:0:0:0:
263,191,167217,1,8,0:0:0:0:
263,191,167448,1,8,0:0:0:0:
263,191,167679,1,0,0:0:0:0:
263,191,167910,1,0,0:0:0:0:
263,191,168025,1,0,0:0:0:0:
263,191,168140,1,8,0:0:0:0:
263,191,168256,1,8,0:0:0:0:
263,191,168717,1,12,0:0:0:0:
263,191,168948,1,0,0:0:0:0:
263,191,169063,1,0,0:0:0:0:
263,191,169179,1,8,0:0:0:0:
263,191,169410,1,0,0:0:0:0:
263,191,169640,1,8,0:0:0:0:
263,191,169756,1,0,0:0:0:0:
263,191,169987,1,8,0:0:0:0:
263,191,170217,1,0,0:0:0:0:
263,191,170333,1,8,0:0:0:0:
263,191,170563,1,0,0:0:0:0:
263,191,171025,1,8,0:0:0:0:
263,191,171256,1,0,0:0:0:0:
263,191,171487,1,8,0:0:0:0:
263,191,171602,1,0,0:0:0:0:
263,191,171833,1,8,0:0:0:0:
263,191,171948,1,8,0:0:0:0:
263,191,172179,1,8,0:0:0:0:
263,191,172410,1,0,0:0:0:0:
263,191,172525,1,0,0:0:0:0:
263,191,172640,1,8,0:0:0:0:
263,191,172871,1,0,0:0:0:0:
263,191,173102,1,8,0:0:0:0:
263,191,173217,1,8,0:0:0:0:
263,191,173333,1,8,0:0:0:0:
263,191,173563,1,0,0:0:0:0:
263,191,173679,1,0,0:0:0:0:
263,191,173794,1,8,0:0:0:0:
263,191,173910,1,8,0:0:0:0:
263,191,174025,1,0,0:0:0:0:
263,191,174256,1,0,0:0:0:0:
263,191,174487,1,8,0:0:0:0:
263,191,174602,1,0,0:0:0:0:
263,191,174717,1,0,0:0:0:0:
263,191,174948,1,0,0:0:0:0:
263,191,175063,1,0,0:0:0:0:
263,191,175179,1,8,0:0:0:0:
263,191,175294,1,8,0:0:0:0:
263,191,175410,1,0,0:0:0:0:
263,191,175640,1,8,0:0:0:0:
263,191,175756,1,8,0:0:0:0:
263,191,175871,1,8,0:0:0:0:
263,191,176102,1,4,0:0:0:0:
263,191,176563,1,8,0:0:0:0:
263,191,176679,1,8,0:0:0:0:
263,191,176794,1,0,0:0:0:0:
263,191,177025,1,8,0:0:0:0:
263,191,177256,1,0,0:0:0:0:
263,191,177371,1,0,0:0:0:0:
263,191,177487,1,8,0:0:0:0:
263,191,177717,1,0,0:0:0:0:
263,191,177948,1,12,0:0:0:0:
263,191,178410,1,8,0:0:0:0:
263,191,178525,1,8,0:0:0:0:
263,191,178640,1,8,0:0:0:0:
263,191,178871,1,0,0:0:0:0:
263,191,179102,1,0,0:0:0:0:
263,191,179333,1,8,0:0:0:0:
263,191,179448,1,0,0:0:0:0:
263,191,179563,1,8,0:0:0:0:
263,191,179679,1,0,0:0:0:0:
263,191,179794,1,8,0:0:0:0:
263,191,180025,1,0,0:0:0:0:
263,191,180256,1,8,0:0:0:0:
263,191,180371,1,8,0:0:0:0:
263,191,180487,1,0,0:0:0:0:
263,191,180717,1,8,0:0:0:0:
263,191,180948,1,0,0:0:0:0:
263,191,181063,1,0,0:0:0:0:
263,191,181179,1,8,0:0:0:0:
263,191,181294,1,8,0:0:0:0:
263,191,181410,1,0,0:0:0:0:
263,191,181640,1,4,0:0:0:0:
256,192,181871,8,0,188794,0:0:0:0:
256,192,189025,5,8,0:0:0:0:
256,192,192717,8,0,195256,0:0:0:0:
256,192,195487,5,0,0:0:0:0:
256,192,195794,1,0,0:0:0:0:
256,192,196102,1,0,0:0:0:0:
256,192,196414,1,12,0:0:0:0:
256,192,196590,1,0,0:0:0:0:
256,192,196766,1,8,0:0:0:0:
256,192,197296,1,0,0:0:0:0:
256,192,197472,1,0,0:0:0:0:
256,192,197649,1,8,0:0:0:0:
256,192,197825,1,8,0:0:0:0:
256,192,198178,1,0,0:0:0:0:
256,192,198355,1,8,0:0:0:0:
256,192,198443,1,8,0:0:0:0:
256,192,198531,1,8,0:0:0:0:
256,192,198884,1,8,0:0:0:0:
256,192,199061,1,8,0:0:0:0:
256,192,199237,1,0,0:0:0:0:
256,192,199414,1,8,0:0:0:0:
256,192,199590,1,0,0:0:0:0:
256,192,199678,1,0,0:0:0:0:
256,192,199766,1,0,0:0:0:0:
256,192,199943,1,8,0:0:0:0:
256,192,200119,1,8,0:0:0:0:
256,192,200296,1,0,0:0:0:0:
256,192,200649,1,8,0:0:0:0:
256,192,200825,1,0,0:0:0:0:
256,192,201002,1,8,0:0:0:0:
256,192,201531,1,8,0:0:0:0:
256,192,201708,1,0,0:0:0:0:
256,192,201796,1,0,0:0:0:0:
256,192,201884,1,0,0:0:0:0:
256,192,202061,1,8,0:0:0:0:
256,192,202414,1,0,0:0:0:0:
256,192,202590,1,8,0:0:0:0:
256,192,202678,1,8,0:0:0:0:
256,192,202766,1,8,0:0:0:0:
256,192,203119,1,0,0:0:0:0:
256,192,203296,1,8,0:0:0:0:
256,192,203472,1,0,0:0:0:0:
256,192,203649,1,8,0:0:0:0:
256,192,203825,1,0,0:0:0:0:
256,192,203914,1,0,0:0:0:0:
256,192,204002,1,0,0:0:0:0:
256,192,204178,1,8,0:0:0:0:
256,192,204355,1,0,0:0:0:0:
256,192,204531,1,8,0:0:0:0:
256,192,204708,1,8,0:0:0:0:
256,192,204884,1,4,0:0:0:0:
256,192,205414,1,8,0:0:0:0:
256,192,205590,1,8,0:0:0:0:
256,192,205766,1,0,0:0:0:0:
256,192,205943,1,8,0:0:0:0:
256,192,206119,1,0,0:0:0:0:
256,192,206296,1,8,0:0:0:0:
256,192,206649,1,0,0:0:0:0:
256,192,207002,1,8,0:0:0:0:
256,192,207531,1,8,0:0:0:0:
256,192,207708,1,8,0:0:0:0:
256,192,207884,1,0,0:0:0:0:
256,192,208061,1,8,0:0:0:0:
256,192,208414,1,8,0:0:0:0:
256,192,208766,1,0,0:0:0:0:
256,192,209119,1,0,0:0:0:0:
256,192,209296,1,0,0:0:0:0:
256,192,209472,1,8,0:0:0:0:
256,192,209825,1,0,0:0:0:0:
256,192,210002,1,0,0:0:0:0:
256,192,210178,1,8,0:0:0:0:
256,192,210355,1,8,0:0:0:0:
256,192,210531,1,0,0:0:0:0:
256,192,210884,1,8,0:0:0:0:
256,192,211237,1,8,0:0:0:0:
256,192,211590,1,0,0:0:0:0:
256,192,211766,1,0,0:0:0:0:
256,192,211943,1,8,0:0:0:0:
256,192,212296,1,8,0:0:0:0:
256,192,212472,1,8,0:0:0:0:
256,192,212561,1,8,0:0:0:0:
256,192,212649,1,0,0:0:0:0:
256,192,212825,1,0,0:0:0:0:
256,192,212914,1,0,0:0:0:0:
256,192,213002,1,8,0:0:0:0:
256,192,213178,1,0,0:0:0:0:
256,192,213348,1,12,0:0:0:0:
256,192,213578,8,0,214963,0:0:0:0:
263,191,215194,5,8,0:0:0:0:
263,191,215309,1,8,0:0:0:0:
263,191,215424,1,8,0:0:0:0:
263,191,215655,1,0,0:0:0:0:
263,191,215771,1,0,0:0:0:0:
263,191,215886,1,0,0:0:0:0:
263,191,216117,1,8,0:0:0:0:
263,191,216232,1,8,0:0:0:0:
263,191,216348,1,0,0:0:0:0:
263,191,216463,1,0,0:0:0:0:
263,191,216578,1,8,0:0:0:0:
263,191,217040,1,4,0:0:0:0:
263,191,218424,1,4,0:0:0:0:
263,191,218886,1,12,0:0:0:0:
263,191,219117,1,0,0:0:0:0:
263,191,219232,1,8,0:0:0:0:
263,191,219463,1,0,0:0:0:0:
263,191,219694,1,8,0:0:0:0:
263,191,219809,1,0,0:0:0:0:
263,191,220040,1,8,0:0:0:0:
263,191,220155,1,8,0:0:0:0:
263,191,220271,1,8,0:0:0:0:
263,191,220501,1,0,0:0:0:0:
263,191,220732,1,8,0:0:0:0:
263,191,220963,1,0,0:0:0:0:
263,191,221078,1,0,0:0:0:0:
263,191,221194,1,8,0:0:0:0:
263,191,221424,1,0,0:0:0:0:
263,191,221655,1,8,0:0:0:0:
263,191,221886,1,8,0:0:0:0:
263,191,222001,1,0,0:0:0:0:
263,191,222117,1,8,0:0:0:0:
263,191,222348,1,8,0:0:0:0:
263,191,222578,1,0,0:0:0:0:
263,191,222809,1,0,0:0:0:0:
263,191,222924,1,8,0:0:0:0:
263,191,223155,1,0,0:0:0:0:
263,191,223386,1,8,0:0:0:0:
263,191,223617,1,0,0:0:0:0:
263,191,223732,1,0,0:0:0:0:
263,191,223848,1,8,0:0:0:0:
263,191,223963,1,8,0:0:0:0:
263,191,224424,1,12,0:0:0:0:
263,191,224655,1,0,0:0:0:0:
263,191,224771,1,0,0:0:0:0:
263,191,224886,1,8,0:0:0:0:
263,191,225117,1,0,0:0:0:0:
263,191,225348,1,8,0:0:0:0:
263,191,225463,1,0,0:0:0:0:
263,191,225694,1,8,0:0:0:0:
263,191,225924,1,0,0:0:0:0:
263,191,226040,1,8,0:0:0:0:
263,191,226271,1,0,0:0:0:0:
263,191,226501,1,8,0:0:0:0:
263,191,226617,1,8,0:0:0:0:
263,191,226732,1,8,0:0:0:0:
263,191,226963,1,0,0:0:0:0:
263,191,227194,1,8,0:0:0:0:
263,191,227309,1,0,0:0:0:0:
263,191,227540,1,8,0:0:0:0:
263,191,227655,1,8,0:0:0:0:
263,191,227771,1,0,0:0:0:0:
263,191,227886,1,0,0:0:0:0:
263,191,228117,1,8,0:0:0:0:
263,191,228347,1,0,0:0:0:0:
263,191,228463,1,0,0:0:0:0:
263,191,228578,1,8,0:0:0:0:
263,191,228809,1,0,0:0:0:0:
263,191,229040,1,8,0:0:0:0:
263,191,229155,1,0,0:0:0:0:
263,191,229386,1,0,0:0:0:0:
263,191,229501,1,8,0:0:0:0:
263,191,229732,1,8,0:0:0:0:
263,191,229847,1,8,0:0:0:0:
263,191,229963,1,0,0:0:0:0:
263,191,230309,1,0,0:0:0:0:
263,191,230655,1,0,0:0:0:0:
263,191,230886,1,8,0:0:0:0:
263,191,231117,1,8,0:0:0:0:
263,191,231232,1,8,0:0:0:0:
263,191,231347,1,0,0:0:0:0:
263,191,231809,1,12,0:0:0:0:
263,191,232040,1,0,0:0:0:0:
263,191,232155,1,8,0:0:0:0:
263,191,232386,1,0,0:0:0:0:
263,191,232617,1,8,0:0:0:0:
263,191,232732,1,8,0:0:0:0:
263,191,232963,1,0,0:0:0:0:
263,191,233078,1,0,0:0:0:0:
263,191,233194,1,8,0:0:0:0:
263,191,233309,1,8,0:0:0:0:
263,191,233424,1,0,0:0:0:0:
263,191,233655,1,8,0:0:0:0:
263,191,233886,1,0,0:0:0:0:
263,191,234001,1,8,0:0:0:0:
263,191,234232,1,0,0:0:0:0:
263,191,234463,1,8,0:0:0:0:
263,191,234578,1,0,0:0:0:0:
263,191,234809,1,8,0:0:0:0:
263,191,234924,1,8,0:0:0:0:
263,191,235040,1,8,0:0:0:0:
263,191,235271,1,0,0:0:0:0:
263,191,235501,1,8,0:0:0:0:
263,191,235732,1,0,0:0:0:0:
263,191,235847,1,0,0:0:0:0:
263,191,235963,1,8,0:0:0:0:
263,191,236194,1,0,0:0:0:0:
263,191,236424,1,8,0:0:0:0:
263,191,236655,1,8,0:0:0:0:
263,191,236771,1,8,0:0:0:0:
263,191,236886,1,8,0:0:0:0:
263,191,237117,1,8,0:0:0:0:
263,191,237347,1,0,0:0:0:0:
263,191,237578,1,0,0:0:0:0:
263,191,237694,1,8,0:0:0:0:
263,191,237924,1,8,0:0:0:0:
263,191,238155,1,0,0:0:0:0:
263,191,238386,1,0,0:0:0:0:
263,191,238501,1,0,0:0:0:0:
263,191,238617,1,8,0:0:0:0:
263,191,238732,1,8,0:0:0:0:
263,191,239194,1,12,0:0:0:0:
263,191,239424,1,0,0:0:0:0:
263,191,239540,1,0,0:0:0:0:
263,191,239655,1,8,0:0:0:0:
263,191,239886,1,0,0:0:0:0:
263,191,240117,1,8,0:0:0:0:
263,191,240232,1,0,0:0:0:0:
263,191,240463,1,8,0:0:0:0:
263,191,240694,1,0,0:0:0:0:
263,191,240809,1,0,0:0:0:0:
263,191,241040,1,8,0:0:0:0:
263,191,241271,1,0,0:0:0:0:
263,191,241386,1,0,0:0:0:0:
263,191,241501,1,8,0:0:0:0:
263,191,241732,1,0,0:0:0:0:
263,191,241963,1,8,0:0:0:0:
263,191,242078,1,0,0:0:0:0:
263,191,242309,1,8,0:0:0:0:
263,191,242424,1,8,0:0:0:0:
263,191,242655,1,8,0:0:0:0:
263,191,242886,1,0,0:0:0:0:
263,191,243001,1,0,0:0:0:0:
263,191,243117,1,8,0:0:0:0:
263,191,243347,1,0,0:0:0:0:
263,191,243578,1,8,0:0:0:0:
263,191,243694,1,8,0:0:0:0:
263,191,243809,1,8,0:0:0:0:
263,191,244040,1,0,0:0:0:0:
263,191,244155,1,0,0:0:0:0:
263,191,244271,1,8,0:0:0:0:
263,191,244386,1,8,0:0:0:0:
263,191,244501,1,0,0:0:0:0:
263,191,244732,1,0,0:0:0:0:
263,191,244963,1,8,0:0:0:0:
263,191,245078,1,0,0:0:0:0:
263,191,245194,1,0,0:0:0:0:
263,191,245424,1,0,0:0:0:0:
263,191,245540,1,0,0:0:0:0:
263,191,245655,1,8,0:0:0:0:
263,191,245771,1,8,0:0:0:0:
263,191,245886,1,0,0:0:0:0:
263,191,246117,1,8,0:0:0:0:
263,191,246232,1,8,0:0:0:0:
263,191,246347,1,8,0:0:0:0:
263,191,246578,1,4,0:0:0:0:
263,191,247040,1,8,0:0:0:0:
263,191,247155,1,8,0:0:0:0:
263,191,247271,1,0,0:0:0:0:
263,191,247501,1,8,0:0:0:0:
263,191,247732,1,0,0:0:0:0:
263,191,247847,1,0,0:0:0:0:
263,191,247963,1,8,0:0:0:0:
263,191,248194,1,0,0:0:0:0:
263,191,248424,1,12,0:0:0:0:
263,191,248886,1,8,0:0:0:0:
263,191,249001,1,8,0:0:0:0:
263,191,249117,1,8,0:0:0:0:
263,191,249347,1,0,0:0:0:0:
263,191,249578,1,0,0:0:0:0:
263,191,249809,1,8,0:0:0:0:
263,191,249924,1,0,0:0:0:0:
263,191,250040,1,8,0:0:0:0:
263,191,250155,1,0,0:0:0:0:
263,191,250271,1,8,0:0:0:0:
263,191,250501,1,0,0:0:0:0:
263,191,250732,1,8,0:0:0:0:
263,191,250847,1,8,0:0:0:0:
263,191,250963,1,0,0:0:0:0:
263,191,251194,1,8,0:0:0:0:
263,191,251424,1,0,0:0:0:0:
263,191,251540,1,0,0:0:0:0:
263,191,251655,1,8,0:0:0:0:
263,191,251771,1,8,0:0:0:0:
263,191,251886,1,0,0:0:0:0:
263,191,252117,1,12,0:0:0:0:
263,191,252347,1,0,0:0:0:0:
263,191,252463,1,0,0:0:0:0:
263,191,252578,1,8,0:0:0:0:
263,191,252809,1,8,0:0:0:0:
263,191,252924,1,8,0:0:0:0:
263,191,253040,1,0,0:0:0:0:
263,191,253271,1,0,0:0:0:0:
263,191,253501,1,8,0:0:0:0:
263,191,253617,1,8,0:0:0:0:
263,191,253847,1,8,0:0:0:0:
263,191,253963,1,0,0:0:0:0:
263,191,254194,1,0,0:0:0:0:
263,191,254424,1,8,0:0:0:0:
263,191,254655,1,0,0:0:0:0:
263,191,254771,1,0,0:0:0:0:
263,191,254886,1,8,0:0:0:0:
263,191,255232,1,8,0:0:0:0:
263,191,255347,1,0,0:0:0:0:
263,191,255578,1,8,0:0:0:0:
263,191,255694,1,8,0:0:0:0:
263,191,255809,1,8,0:0:0:0:
263,191,256040,1,0,0:0:0:0:
263,191,256155,1,0,0:0:0:0:
263,191,256271,1,8,0:0:0:0:
263,191,256501,1,0,0:0:0:0:
263,191,256732,1,8,0:0:0:0:
263,191,256847,1,8,0:0:0:0:
263,191,256963,1,0,0:0:0:0:
263,191,257078,1,0,0:0:0:0:
263,191,257194,1,8,0:0:0:0:
263,191,257424,1,8,0:0:0:0:
263,191,257540,1,8,0:0:0:0:
263,191,257655,1,8,0:0:0:0:
263,191,257886,1,0,0:0:0:0:
263,191,258117,1,8,0:0:0:0:
263,191,258232,1,8,0:0:0:0:
263,191,258347,1,0,0:0:0:0:
263,191,258578,1,8,0:0:0:0:
263,191,258809,1,0,0:0:0:0:
263,191,258924,1,0,0:0:0:0:
263,191,259040,1,8,0:0:0:0:
263,191,259155,1,8,0:0:0:0:
263,191,259271,1,0,0:0:0:0:
263,191,259501,1,4,0:0:0:0:
263,191,259963,1,8,0:0:0:0:
263,191,260078,1,8,0:0:0:0:
263,191,260194,1,0,0:0:0:0:
263,191,260309,1,0,0:0:0:0:
263,191,260424,1,8,0:0:0:0:
263,191,260655,1,8,0:0:0:0:
263,191,260886,1,0,0:0:0:0:
263,191,261117,1,0,0:0:0:0:
263,191,261347,1,12,0:0:0:0:
263,191,261809,1,0,0:0:0:0:
263,191,261924,1,0,0:0:0:0:
263,191,262040,1,8,0:0:0:0:
263,191,262155,1,8,0:0:0:0:
263,191,262271,1,0,0:0:0:0:
263,191,262501,1,8,0:0:0:0:
263,191,262732,1,8,0:0:0:0:
263,191,262963,1,0,0:0:0:0:
263,191,263194,1,4,0:0:0:0:
263,191,263655,1,0,0:0:0:0:
263,191,263886,1,0,0:0:0:0:
263,191,264117,1,12,0:0:0:0:
263,191,264347,1,8,0:0:0:0:
263,191,264578,1,0,0:0:0:0:
263,191,264809,1,0,0:0:0:0:
263,191,265040,1,12,0:0:0:0:
263,191,265501,1,8,0:0:0:0:
263,191,265732,1,8,0:0:0:0:
263,191,265847,1,8,0:0:0:0:
263,191,265963,1,8,0:0:0:0:
263,191,266194,1,0,0:0:0:0:
263,191,266424,1,8,0:0:0:0:
263,191,266655,1,8,0:0:0:0:
263,191,266886,1,4,0:0:0:0:
263,191,267347,1,0,0:0:0:0:
263,191,267809,1,8,0:0:0:0:
263,191,268271,1,8,0:0:0:0:
263,191,268501,1,0,0:0:0:0:
263,191,268963,1,8,0:0:0:0:
263,191,269194,1,8,0:0:0:0:
263,191,269424,1,0,0:0:0:0:
263,191,269655,1,8,0:0:0:0:
263,191,270117,1,8,0:0:0:0:
263,191,270578,1,0,0:0:0:0:
263,191,271040,1,0,0:0:0:0:
263,191,271501,1,8,0:0:0:0:
263,191,271963,1,8,0:0:0:0:
263,191,272194,1,0,0:0:0:0:
263,191,272655,1,8,0:0:0:0:
263,191,272886,1,8,0:0:0:0:
263,191,273117,1,0,0:0:0:0:
263,191,273347,1,8,0:0:0:0:
263,191,273809,1,8,0:0:0:0:
263,191,274271,1,4,0:0:0:0:
256,192,274501,8,4,283501,0:0:0:0:
