osu file format v14

[General]
AudioFilename: audio.mp3
AudioLeadIn: 0
PreviewTime: 53832
Countdown: 0
SampleSet: Soft
StackLeniency: 0.2
Mode: 0
LetterboxInBreaks: 0
WidescreenStoryboard: 0

[Editor]
DistanceSpacing: 0.1
BeatDivisor: 4
GridSize: 4
TimelineZoom: 1

[Metadata]
Title:Cinderella Maker
TitleUnicode:シンデレラメイカー
Artist:Risa Yuzuki
ArtistUnicode:Risa Yuzuki
Creator:-Syncro
Version:Shining
Source:
Tags:dog food ganyumymommy nytrocide_ nytro lean monster shii guchiry mindmaster107 fa featured artist mpg mappers' guild group Japanese J-Pop JPop Pop Electronic Electro Electropop yuuta yuyu-uta mori ゆずりさ 柚木梨沙 Luminaria Replique Réplique 3rd third album yuyuta morimori atsushi モリモリあつし ゆゆうた door weapon hanakumo rin barkingmaddog bmd
BeatmapID:3451313
BeatmapSetID:1688873

[Difficulty]
HPDrainRate:6
CircleSize:4
OverallDifficulty:9.2
ApproachRate:9.6
SliderMultiplier:2.05
SliderTickRate:1

[Events]
//Background and Video events
0,0,"bg.jpg",0,0
//Break Periods
2,154746,163180
//Storyboard Layer 0 (Background)
//Storyboard Layer 1 (Fail)
//Storyboard Layer 2 (Pass)
//Storyboard Layer 3 (Foreground)
//Storyboard Layer 4 (Overlay)
//Storyboard Sound Samples

[TimingPoints]
1119,285.714285714286,4,2,1,10,1,0
11976,-100,4,2,1,20,0,0
12547,-100,4,2,1,60,0,0
14833,-100,4,2,1,70,0,0
17119,-100,4,2,1,80,0,0
21119,-66.6666666666667,4,2,1,70,0,0
21690,-100,4,2,2,70,0,0
21904,-100,4,2,2,5,0,0
21976,-100,4,2,2,70,0,0
23333,-100,4,2,2,5,0,0
23404,-100,4,2,2,70,0,0
24190,-100,4,2,2,5,0,0
24261,-100,4,2,2,70,0,0
26547,-80,4,2,1,70,0,0
26833,-133.333333333333,4,2,1,70,0,0
27690,-74.0740740740741,4,2,1,70,0,0
27976,-100,4,2,1,70,0,0
28619,-74.0740740740741,4,2,1,5,0,0
28690,-74.0740740740741,4,2,1,70,0,0
29976,-68.9655172413793,4,2,1,70,0,0
30190,-68.9655172413793,4,2,1,5,0,0
30261,-68.9655172413793,4,2,1,70,0,0
30833,-90.9090909090909,4,2,1,80,0,0
31047,-90.9090909090909,4,2,1,5,0,0
31119,-90.9090909090909,4,2,1,80,0,0
33333,-90.9090909090909,4,2,1,5,0,0
33404,-90.9090909090909,4,2,1,80,0,0
34761,-90.9090909090909,4,2,1,5,0,0
34833,-90.9090909090909,4,2,1,80,0,0
36047,-90.9090909090909,4,2,1,5,0,0
36119,-90.9090909090909,4,2,1,80,0,0
36904,-90.9090909090909,4,2,1,5,0,0
36976,-90.9090909090909,4,2,1,80,0,0
37761,-90.9090909090909,4,2,1,5,0,0
37833,-90.9090909090909,4,2,1,80,0,0
38833,285.714285714286,3,2,2,80,1,0
43975,-80,3,2,2,80,0,0
44261,-100,3,2,2,80,0,0
44547,-200,3,2,2,80,0,0
45047,-80,3,2,2,5,0,0
45118,-80,3,2,3,60,0,0
45547,-80,3,2,1,80,0,0
45690,-100,3,2,2,80,0,0
48261,285.714285714286,4,2,1,60,1,0
49403,-80,4,2,1,70,0,0
50046,-80,4,2,1,5,0,0
50118,-80,4,2,1,70,0,0
50403,-74.0740740740741,4,2,1,80,0,0
50618,-74.0740740740741,4,2,1,5,0,0
50689,-74.0740740740741,4,2,1,80,0,0
50975,-68.9655172413793,4,2,1,90,0,0
51189,-68.9655172413793,4,2,1,5,0,0
51261,-68.9655172413793,4,2,1,90,0,0
51689,-66.6666666666667,4,2,1,80,0,0
52261,-66.6666666666667,4,2,1,90,0,0
52832,-64.5161290322581,4,2,1,100,0,0
53046,-64.5161290322581,4,2,1,5,0,0
53118,-64.5161290322581,4,2,1,60,0,0
53546,-400,4,2,1,60,0,0
53761,-400,4,2,1,5,0,0
53832,-80,4,2,1,90,0,1
54046,-80,4,2,1,5,0,1
54118,-80,4,2,1,90,0,1
55189,-80,4,2,1,5,0,1
55261,-80,4,2,1,90,0,1
56332,-80,4,2,1,5,0,1
56403,-80,4,2,1,90,0,1
58618,-80,4,2,1,5,0,1
58689,-80,4,2,1,90,0,1
59761,-80,4,2,1,5,0,1
59832,-80,4,2,1,90,0,1
62046,-80,4,2,1,5,0,1
62118,-80,4,2,1,90,0,1
63118,-400,4,2,1,90,0,0
63332,-400,4,2,1,5,0,0
63403,-74.0740740740741,4,2,1,95,0,1
69975,-100,4,2,1,80,0,0
71975,-80,4,2,1,80,0,0
72261,-90.9090909090909,4,2,1,80,0,0
72475,-90.9090909090909,4,2,1,5,0,0
72546,-90.9090909090909,4,2,1,80,0,0
72903,-90.9090909090909,4,2,1,5,0,0
72975,-90.9090909090909,4,2,1,80,0,0
73332,-90.9090909090909,4,2,1,5,0,0
73403,-90.9090909090909,4,2,1,80,0,0
73761,-90.9090909090909,4,2,1,5,0,0
73832,-90.9090909090909,4,2,1,80,0,0
74261,-74.0740740740741,4,2,1,80,0,0
74546,-74.0740740740741,4,2,1,90,0,0
76261,-80,4,2,1,80,0,0
76546,-90.9090909090909,4,2,1,80,0,0
77546,-80,4,2,1,80,0,0
77832,-74.0740740740741,4,2,1,80,0,0
78046,-74.0740740740741,4,2,1,5,0,0
78118,-74.0740740740741,4,2,1,80,0,0
78261,-80,4,2,1,80,0,0
79118,-100,4,2,3,70,0,0
79332,-100,4,2,3,5,0,0
79403,-100,4,2,3,70,0,0
80761,-100,4,2,3,5,0,0
80832,-100,4,2,3,70,0,0
81618,-100,4,2,3,5,0,0
81689,-100,4,2,3,70,0,0
85403,-80,4,2,3,70,0,0
88261,-90.9090909090909,4,2,3,80,0,0
88475,-90.9090909090909,4,2,3,5,0,0
88546,-90.9090909090909,4,2,3,80,0,0
90761,-90.9090909090909,4,2,3,5,0,0
90832,-90.9090909090909,4,2,3,80,0,0
92832,-90.9090909090909,4,2,1,80,0,0
93618,-90.9090909090909,4,2,1,5,0,0
93689,-90.9090909090909,4,2,1,80,0,0
94046,-90.9090909090909,4,2,1,5,0,0
94118,-90.9090909090909,4,2,1,80,0,0
94761,-90.9090909090909,4,2,1,5,0,0
94832,-90.9090909090909,4,2,1,80,0,0
95189,-90.9090909090909,4,2,1,5,0,0
95261,-90.9090909090909,4,2,1,80,0,0
96261,-400,4,2,1,60,0,0
96475,-400,4,2,1,5,0,0
96546,-90.9090909090909,4,2,1,70,0,0
96761,-90.9090909090909,4,2,1,5,0,0
96832,-400,4,2,1,70,0,0
97046,-400,4,2,1,5,0,0
97118,-80,4,2,1,80,0,0
97332,-80,4,2,1,5,0,0
97403,-68.9655172413793,4,2,3,90,0,0
97618,-68.9655172413793,4,2,3,5,0,0
97689,-68.9655172413793,4,2,3,90,0,0
97903,-68.9655172413793,4,2,3,5,0,0
97975,-68.9655172413793,4,2,3,90,0,0
98189,-68.9655172413793,4,2,3,5,0,0
98261,-68.9655172413793,4,2,1,80,0,0
98403,-90.9090909090909,4,2,1,80,0,0
98618,-90.9090909090909,4,2,1,5,0,0
98689,-90.9090909090909,4,2,1,80,0,0
99689,-68.9655172413793,4,2,3,90,0,0
99903,-68.9655172413793,4,2,3,5,0,0
99975,-68.9655172413793,4,2,3,90,0,0
100189,-68.9655172413793,4,2,3,5,0,0
100261,-68.9655172413793,4,2,3,90,0,0
100475,-68.9655172413793,4,2,3,5,0,0
100546,-68.9655172413793,4,2,1,80,0,0
100689,-90.9090909090909,4,2,1,80,0,0
100903,-90.9090909090909,4,2,1,5,0,0
100975,-90.9090909090909,4,2,1,80,0,0
104261,-66.6666666666667,4,2,1,80,0,0
104832,-66.6666666666667,4,2,1,90,0,0
105403,-64.5161290322581,4,2,1,100,0,0
105618,-64.5161290322581,4,2,1,5,0,0
105689,-64.5161290322581,4,2,1,60,0,0
106118,-400,4,2,1,60,0,0
106332,-400,4,2,1,5,0,0
106403,-80,4,2,1,90,0,1
106618,-80,4,2,1,5,0,1
106689,-80,4,2,1,90,0,1
107761,-80,4,2,1,5,0,1
107832,-80,4,2,1,90,0,1
108903,-80,4,2,1,5,0,1
108975,-80,4,2,1,90,0,1
111189,-80,4,2,1,5,0,1
111261,-80,4,2,1,90,0,1
112332,-80,4,2,1,5,0,1
112403,-80,4,2,1,90,0,1
114618,-80,4,2,1,5,0,1
114689,-80,4,2,1,90,0,1
115689,-400,4,2,1,90,0,0
115903,-400,4,2,1,5,0,0
115975,-74.0740740740741,4,2,1,95,0,1
122546,-100,4,2,1,80,0,0
124546,-80,4,2,1,80,0,0
124832,-90.9090909090909,4,2,1,90,0,0
126046,-90.9090909090909,4,2,1,5,0,0
126118,-90.9090909090909,4,2,1,90,0,0
127118,-80,4,2,1,80,0,0
130546,-100,4,2,1,80,0,0
131689,-100,4,2,1,90,0,0
135689,-200,4,2,1,90,0,0
135761,-200,4,1,1,5,0,0
136261,-400,4,2,1,60,0,0
136475,-400,4,2,1,5,0,0
136546,-90.9090909090909,4,2,1,80,0,0
145403,-90.9090909090909,4,2,1,90,0,0
153261,-1000,4,2,1,80,0,0
153332,-1000,4,1,1,5,0,0
154546,-400,4,2,1,40,0,0
154618,-400,4,1,1,5,0,0
155689,-400,4,2,1,40,0,0
156903,-400,4,1,1,5,0,0
157975,-400,4,2,1,40,0,0
159189,-400,4,1,1,5,0,0
160261,-400,4,2,1,40,0,0
160332,-400,4,1,1,5,0,0
160832,-400,4,2,1,40,0,0
160903,-400,4,1,1,5,0,0
161403,-400,4,2,1,40,0,0
161475,-400,4,1,1,5,0,0
162546,-400,4,2,1,40,0,0
162618,-400,4,1,1,5,0,0
162975,-400,4,2,1,40,0,0
163118,-100,4,2,1,60,0,0
163689,-100,4,2,1,80,0,0
168261,-100,4,2,1,70,0,0
168832,-100,4,2,1,75,0,0
169403,-100,4,2,1,80,0,0
169975,-100,4,2,1,85,0,0
170546,-100,4,2,1,90,0,0
171118,-100,4,2,1,95,0,0
171689,-111.111111111111,4,2,1,100,0,0
171761,-111.111111111111,4,1,1,5,0,0
172689,-500,4,2,1,70,0,0
172761,-500,4,2,1,10,0,0
173832,-80,4,2,1,70,0,0
174046,-80,4,2,1,5,0,0
174118,-80,4,2,1,70,0,0
174332,-80,4,2,1,5,0,0
174403,-80,4,2,1,70,0,0
174618,-80,4,2,1,5,0,0
174689,-80,4,2,1,70,0,0
174975,-400,4,2,1,80,0,0
175189,-400,4,2,1,5,0,0
175261,-400,4,2,1,80,0,0
175403,-80,4,2,1,90,0,1
177475,-80,4,2,1,5,0,1
177546,-80,4,2,1,90,0,1
178618,-80,4,2,1,5,0,1
178689,-80,4,2,1,90,0,1
180903,-80,4,2,1,5,0,1
180975,-80,4,2,1,90,0,1
181975,-400,4,2,1,90,0,0
182189,-400,4,2,1,5,0,0
182261,-74.0740740740741,4,2,1,95,0,1
188832,-100,4,2,1,80,0,0
189332,-100,4,2,1,5,0,0
189403,-100,4,2,1,80,0,0
190832,-64.5161290322581,4,2,1,80,0,0
191046,-64.5161290322581,4,2,1,5,0,0
191118,-74.0740740740741,4,2,1,95,0,1
195689,-400,4,2,1,95,0,0

[Colours]
Combo1 : 245,130,130
Combo2 : 203,129,245
Combo3 : 126,167,255
Combo4 : 135,218,158

[HitObjects]
216,103,12547,6,0,P|247:72|278:68,5,51.25,6|0|0|0|0|0,0:2|0:0|0:0|0:0|0:0|0:0,0:0:0:0:
287,141,12976,2,0,P|329:152|348:177,5,51.25,2|0|0|0|0|0,0:2|0:0|0:0|0:0|0:0|0:0,0:0:0:0:
280,220,13404,2,0,P|291:262|279:291,5,51.25,2|0|0|0|0|0,0:2|0:0|0:0|0:0|0:0|0:0,0:0:0:0:
201,264,13833,2,0,P|170:295|139:299,5,51.25,2|0|0|0|0|0,0:2|0:0|0:0|0:0|0:0|0:0,0:0:0:0:
86,266,14261,6,0,P|86:216|77:184,3,51.25,2|0|0|0,1:2|0:0|0:0|0:0,0:0:0:0:
159,185,14547,2,0,P|159:135|168:103,3,51.25,2|0|0|0,1:2|0:0|0:0|0:0,0:0:0:0:
83,88,14833,6,0,P|52:95|25:140,5,51.25,6|0|0|0|0|0,0:2|0:0|0:0|0:0|0:0|0:0,0:0:0:0:
175,32,15261,2,0,P|153:8|100:7,5,51.25,2|0|0|0|0|0,0:2|0:0|0:0|0:0|0:0|0:0,0:0:0:0:
271,80,15690,2,0,P|280:49|254:3,5,51.25,2|0|0|0|0|0,0:2|0:0|0:0|0:0|0:0|0:0,0:0:0:0:
272,190,16119,2,0,P|303:188|338:148,5,51.25,2|0|0|0|0|0,0:2|0:0|0:0|0:0|0:0|0:0,0:0:0:0:
371,59,16547,6,0,P|380:104|392:134,3,51.25,2|0|0|0,1:2|0:0|0:0|0:0,0:0:0:0:
360,272,16833,2,0,P|369:317|381:347,3,51.25,2|0|0|0,1:2|0:0|0:0|0:0,0:0:0:0:
238,360,17119,5,6,0:2:0:0:
216,372,17190,1,0,0:0:0:0:
195,371,17261,1,0,0:0:0:0:
176,359,17333,1,0,0:0:0:0:
164,336,17404,2,0,P|160:295|155:261,1,51.25,8|0,0:2|0:0,0:0:0:0:
7,262,17547,5,2,1:2:0:0:
29,274,17618,1,0,0:0:0:0:
50,273,17689,1,0,0:0:0:0:
69,261,17761,1,0,0:0:0:0:
81,238,17832,2,0,P|85:197|90:163,1,51.25
274,206,17976,5,2,0:2:0:0:
252,218,18047,1,0,0:0:0:0:
231,217,18118,1,0,0:0:0:0:
212,205,18190,1,0,0:0:0:0:
200,182,18261,2,0,P|196:141|191:107,1,51.25,8|0,0:2|0:0,0:0:0:0:
56,92,18404,5,2,0:2:0:0:
78,104,18475,1,0,0:0:0:0:
99,103,18546,1,0,0:0:0:0:
118,91,18618,1,0,0:0:0:0:
130,68,18689,2,0,P|134:27|139:-7,1,51.25,8|0,0:2|0:0,0:0:0:0:
274,40,18833,6,0,B|310:47|316:100|316:100|321:152|391:167,1,153.75,2|0,1:2|0:0,0:0:0:0:
275,209,19119,2,0,B|311:216|317:269|317:269|322:321|392:336,1,153.75,10|0,0:2|0:0,0:0:0:0:
448,270,19404,2,0,P|449:192|451:140,1,102.5,10|0,0:2|0:0,0:0:0:0:
219,108,19690,6,0,B|189:113|147:117|147:117|159:179|152:261,1,205,10|0,0:2|0:0,0:0:0:0:
177,358,20119,2,0,P|256:344|318:342,1,102.5,10|0,0:2|0:0,0:0:0:0:
313,127,20404,6,0,P|291:53|250:31,1,102.5,10|0,0:2|0:2,0:0:0:0:
248,258,20690,2,0,P|172:240|133:264,1,102.5,10|0,0:2|0:0,0:0:0:0:
401,188,20976,1,2,1:2:0:0:
219,108,21119,2,0,P|121:115|54:120,1,153.750005865097,10|0,0:2|0:0,0:0:0:0:
358,270,21404,2,0,P|414:286|452:264,3,76.8750029325486,10|8|8|8,0:2|0:2|0:2|0:2,0:0:0:0:
236,350,21690,6,0,B|255:310|269:274|269:274|226:255|226:198,1,153.75,4|0,1:2|0:0,0:0:0:0:
235,206,21975,2,0,P|294:196|356:177,1,102.5,10|0,0:2|0:0,0:0:0:0:
429,280,22261,1,2,0:2:0:0:
332,352,22404,1,2,1:2:0:0:
335,184,22547,1,10,0:2:0:0:
236,350,22690,6,0,B|182:313|149:289|149:289|127:328|65:372,1,205,2|0,0:2|0:0,0:0:0:0:
41,248,23118,1,8,0:2:0:0:
80,361,23261,1,0,0:0:0:0:
129,200,23404,6,0,P|118:148|109:85,1,102.5,2|2,0:2|1:2,0:0:0:0:
335,184,23690,2,0,P|346:132|355:69,1,102.5,10|2,0:2|0:2,0:0:0:0:
18,64,23975,6,0,B|45:36|64:10|64:10|110:14|170:9,1,153.75,2|0,1:2|0:0,0:0:0:0:
155,14,24261,1,10,0:2:0:0:
110,99,24404,6,0,B|148:118|157:151|157:151|171:213|213:221,1,153.75,2|0,0:2|0:0,0:0:0:0:
210,221,24690,2,0,P|275:211|325:203,1,102.5,2|8,1:2|0:2,0:0:0:0:
512,250,24975,6,0,B|451:245|392:247|392:247|423:199|383:123,1,205,2|0,0:2|0:0,0:0:0:0:
491,51,25404,2,0,P|442:66|392:77,1,102.5,10|2,0:2|0:2,0:0:0:0:
256,116,25690,5,2,0:2:0:0:
400,165,25833,1,2,1:2:0:0:
311,52,25976,1,10,0:2:0:0:
311,205,26118,1,2,0:2:0:0:
159,127,26261,6,0,P|167:69|167:0,1,102.5,2|0,1:2|0:0,0:0:0:0:
311,205,26547,2,0,P|303:263|303:332,1,128.125,2|0,1:2|0:0,0:0:0:0:
142,221,26833,2,0,P|74:182|62:105,1,153.750005865097,2|0,1:2|0:0,0:0:0:0:
358,127,27261,6,0,B|382:104|424:122|424:122|484:146|518:108,1,153.750005865097,2|0,1:2|0:0,0:0:0:0:
473,244,27690,2,0,P|461:331|451:400,1,138.375000527859,2|0,1:2|0:0,0:0:0:0:
311,205,27976,2,0,P|239:219|186:236,1,102.5,2|0,1:2|0:0,0:0:0:0:
40,332,28261,1,2,0:2:0:0:
172,366,28404,6,0,B|142:317|113:287|113:287|130:230|120:187,1,153.75,2|0,1:2|0:0,0:0:0:0:
115,225,28690,1,10,0:2:0:0:
212,227,28833,1,2,0:2:0:0:
106,147,28976,1,2,0:2:0:0:
237,311,29118,5,10,0:2:0:0:
275,107,29261,1,2,1:2:0:0:
106,147,29404,1,10,0:2:0:0:
332,29,29547,6,0,B|375:55|376:115|376:115|378:165|455:207,1,207.562500791788,2|0,1:2|0:0,0:0:0:0:
455,199,29833,1,10,0:2:0:0:
378,266,29976,2,0,P|304:287|226:315,1,148.625004535675,2|0,1:2|0:0,0:0:0:0:
449,116,30261,5,10,0:2:0:0:
332,29,30404,1,2,0:2:0:0:
286,165,30547,1,0,0:0:0:0:
358,117,30690,1,0,0:0:0:0:
189,131,30833,6,0,B|136:146|130:195|130:195|135:233|97:268,1,169.125005161286,4|0,1:2|0:0,0:0:0:0:
92,273,31119,2,0,P|109:346|118:386,1,112.750003440857,10|0,0:2|0:0,0:0:0:0:
210,219,31404,1,2,0:2:0:0:
47,199,31547,1,2,1:2:0:0:
200,320,31690,1,10,0:2:0:0:
325,215,31833,6,0,B|336:164|369:134|369:134|340:91|320:7,1,225.500006881714,2|0,0:2|0:0,0:0:0:0:
156,23,32261,2,0,P|188:129|194:159,1,112.750003440857,8|0,0:2|0:0,0:0:0:0:
271,285,32547,1,2,0:2:0:0:
289,300,32619,1,0,0:0:0:0:
312,302,32690,1,2,1:2:0:0:
210,219,32833,1,10,0:2:0:0:
325,215,32976,1,2,0:2:0:0:
142,271,33119,6,0,B|101:271|75:312|75:312|48:354|-23:350,1,169.125005161286,2|0,1:2|0:0,0:0:0:0:
0,344,33404,1,10,0:2:0:0:
147,366,33547,2,0,P|228:373|278:383,1,112.750003440857,2|0,0:2|0:0,0:0:0:0:
115,189,33833,2,0,P|34:182|-16:172,1,112.750003440857,2|8,1:2|0:2,0:0:0:0:
325,215,34119,6,0,B|370:251|395:290|395:290|458:271|527:248,1,225.500006881714,2|2,0:2|0:2,0:0:0:0:
325,133,34547,2,0,P|252:168|241:225,1,112.750003440857,10|0,0:2|0:0,0:0:0:0:
258,378,34833,1,2,0:2:0:0:
271,372,34904,1,0,0:0:0:0:
276,356,34976,1,2,1:2:0:0:
189,273,35119,1,10,0:2:0:0:
325,215,35261,1,2,0:2:0:0:
103,163,35404,5,6,1:2:0:0:
76,338,35547,1,2,0:2:0:0:
241,193,35690,1,2,0:2:0:0:
44,230,35833,2,0,P|13:170|119:73,1,225.500006881714,6|2,1:2|0:2,0:0:0:0:
241,193,36261,5,6,1:2:0:0:
76,338,36404,1,2,0:2:0:0:
103,163,36547,1,2,0:2:0:0:
289,285,36690,2,0,B|349:280|384:335|384:335|419:386|510:384,1,225.500006881714,6|2,1:2|0:2,0:0:0:0:
241,193,37119,5,6,1:2:0:0:
299,370,37261,1,2,0:2:0:0:
425,153,37404,1,2,0:2:0:0:
197,304,37547,2,0,B|167:278|132:257|132:257|156:181|149:94,1,225.500006881714,6|2,1:2|0:2,0:0:0:0:
425,153,37976,5,6,1:2:0:0:
292,41,38119,1,2,0:2:0:0:
241,193,38261,1,2,0:2:0:0:
428,34,38404,5,6,1:2:0:0:
345,277,38547,1,2,0:2:0:0:
150,113,38690,1,2,0:2:0:0:
323,169,38833,6,0,P|403:155|438:151,1,102.5,6|0,1:2|0:0,0:0:0:0:
345,277,39118,2,0,P|425:263|460:259,1,102.5,0|0,1:0|0:0,0:0:0:0:
266,344,39404,2,0,P|253:258|234:164,1,153.75,8|0,0:2|0:0,0:0:0:0:
208,113,39690,6,0,P|163:158|165:214,1,102.5,0|0,1:0|0:0,0:0:0:0:
74,232,39975,2,0,P|90:293|139:319,1,102.5,2|0,1:2|0:0,0:0:0:0:
266,344,40261,2,0,P|363:335|438:331,1,153.75,10|0,0:2|0:0,0:0:0:0:
460,256,40547,6,0,P|469:200|488:146,1,102.5,2|0,1:2|0:0,0:0:0:0:
361,216,40833,2,0,P|370:160|389:106,1,102.5,0|0,1:0|0:0,0:0:0:0:
314,1,41118,2,0,P|198:21|116:31,1,153.75,8|0,0:2|0:0,0:0:0:0:
89,4,41404,6,0,P|86:56|138:102,1,102.5,2|0,1:2|0:0,0:0:0:0:
274,111,41690,2,0,P|234:101|210:99,2,51.25,2|0|0,1:2|0:0|0:0,0:0:0:0:
250,198,41975,2,0,P|210:188|186:186,2,51.25,10|0|0,0:2|0:0|0:0,0:0:0:0:
0,176,42261,6,0,P|16:248|29:322,1,102.5,2|0,1:2|0:0,0:0:0:0:
102,210,42547,2,0,P|118:282|131:356,1,102.5,2|0,1:2|0:0,0:0:0:0:
273,291,42833,2,0,P|334:231|317:143,1,153.75,10|0,0:2|0:0,0:0:0:0:
274,111,43118,6,0,P|213:129|158:134,1,102.5,2|0,1:2|0:0,0:0:0:0:
413,213,43404,2,0,P|474:195|529:190,1,102.5,2|0,1:2|0:0,0:0:0:0:
400,13,43690,2,0,P|397:55|394:107,1,51.25,10|0,0:2|0:0,0:0:0:0:
331,167,43833,1,0,0:0:0:0:
174,133,43975,6,0,P|111:138|28:187,1,128.125,10|0,0:2|0:0,0:0:0:0:
192,229,44261,2,0,P|147:232|89:266,1,102.5,10|0,0:2|0:0,0:0:0:0:
194,321,44547,2,0,P|167:323|132:343,1,51.25,10|0,0:2|0:0,0:0:0:0:
318,242,44833,6,0,P|327:179|337:150,1,76.875,10|0,0:2|0:0,0:0:0:0:
274,111,45118,5,8,0:2:0:0:
274,111,45404,5,10,0:2:0:0:
329,52,45547,1,2,1:2:0:0:
399,88,45690,2,0,P|444:95|475:97,3,51.25,2|0|0|0,1:2|0:0|0:0|0:0,0:0:0:0:
430,189,45975,6,0,P|345:168|297:165,1,102.5,2|0,1:2|0:0,0:0:0:0:
186,223,46261,2,0,P|101:202|53:199,1,102.5,10|0,0:2|0:0,0:0:0:0:
366,384,46547,2,0,P|384:358|382:332,3,51.25,2|0|0|0,1:2|0:0|0:0|0:0,0:0:0:0:
293,341,46833,6,0,P|282:272|258:199,1,102.5,2|0,1:2|0:0,0:0:0:0:
86,200,47118,2,0,P|75:131|51:58,1,102.5,10|0,0:2|0:0,0:0:0:0:
304,54,47404,6,0,B|345:62|352:104|352:104|361:158|414:166,1,153.75,2|0,1:2|0:0,0:0:0:0:
414,168,47690,2,0,P|429:237|446:290,1,102.5,2|0,1:2|1:0,0:0:0:0:
273,240,47975,1,10,0:2:0:0:
430,92,48118,1,0,0:0:0:0:
222,96,48261,6,0,P|163:92|144:96,15,51.25,2|0|0|0|0|0|0|0|0|0|0|0|0|0|0|0,1:2|0:0|0:0|0:0|0:0|0:0|0:0|0:0|0:0|0:0|0:0|0:0|0:0|0:0|0:0|0:0,0:0:0:0:
261,177,49403,6,0,P|272:237|282:266,1,64.0625,6|0,1:2|0:0,0:0:0:0:
171,170,49546,1,2,0:2:0:0:
301,107,49689,1,10,0:2:0:0:
189,244,49832,6,0,B|145:258|129:313|129:313|121:359|63:387,1,192.1875,6|0,1:2|0:0,0:0:0:0:
48,298,50118,1,2,1:2:0:0:
210,328,50261,1,10,0:2:0:0:
89,194,50403,6,0,B|79:135|63:80|63:80|128:63|163:39,1,207.562500791788,6|0,1:2|0:0,0:0:0:0:
165,132,50689,1,2,1:2:0:0:
4,182,50832,1,10,0:2:0:0:
189,244,50975,6,0,B|244:244|286:260|286:260|330:217|400:202,1,222.937506803513,6|0,1:2|0:0,0:0:0:0:
474,210,51261,1,2,1:2:0:0:
326,129,51403,1,10,0:2:0:0:
387,328,51546,1,2,1:2:0:0:
478,100,51689,6,0,P|488:19|504:-22,1,102.500003910065,4|0,0:3|0:0,0:0:0:0:
326,129,51880,2,0,P|336:48|352:7,1,102.500003910065,4|0,0:3|0:0,0:0:0:0:
169,162,52070,2,0,P|179:81|195:40,1,102.500003910065,4|0,0:3|0:0,0:0:0:0:
368,233,52261,6,0,P|392:309|365:357,1,102.500003910065,4|0,0:3|0:0,0:0:0:0:
234,315,52451,2,0,P|156:298|128:251,1,102.500003910065,4|0,0:3|0:0,0:0:0:0:
253,192,52641,2,0,P|307:133|362:132,1,102.500003910065,4|0,0:3|0:0,0:0:0:0:
500,47,52832,6,0,B|467:75|411:120|411:120|392:35|276:34,1,238.31250181818,6|0,1:2|0:0,0:2:0:0:
325,128,53118,1,2,1:2:0:0:
430,0,53261,1,8,0:2:0:0:
236,0,53403,1,10,0:2:0:0:
193,5,53475,1,8,0:2:0:0:
179,43,53546,2,0,P|147:56|139:57,1,38.4375,2|0,1:2|0:0,0:0:0:0:
25,78,53832,6,0,B|75:84|85:144|85:144|97:206|159:209,1,192.1875,6|0,1:2|0:0,0:0:0:0:
162,128,54118,1,0,0:0:0:0:
309,279,54261,2,0,B|270:246|232:215|232:215|223:272|151:299,1,192.1875,10|0,0:2|0:0,0:0:0:0:
96,273,54546,1,2,0:2:0:0:
250,340,54689,1,2,1:2:0:0:
162,128,54832,1,8,0:2:0:0:
5,262,54975,2,0,P|26:323|41:391,1,128.125,2|0,1:2|0:0,0:0:0:0:
247,163,55261,6,0,P|246:82|198:41,1,128.125,0|8,1:0|0:2,0:0:0:0:
309,279,55546,2,0,P|379:318|439:297,1,128.125,0|0,1:0|0:0,0:0:0:0:
178,286,55832,2,0,P|129:314|121:358,1,64.0625,2|0,1:2|0:0,0:0:0:0:
146,197,55975,2,0,P|96:169|54:184,1,64.0625,10|0,0:2|0:0,0:0:0:0:
346,194,56118,6,0,B|387:180|438:171|438:171|436:123|461:63,1,192.1875,2|0,1:2|0:0,0:0:0:0:
362,96,56403,1,0,1:0:0:0:
308,306,56546,2,0,B|271:301|253:341|253:341|234:377|189:365,1,128.125,10|2,0:2|0:2,0:0:0:0:
271,164,56832,1,2,0:2:0:0:
422,308,56975,1,2,1:2:0:0:
178,286,57118,1,10,0:2:0:0:
466,203,57261,6,0,P|457:134|455:68,1,128.125,2|0,1:2|0:0,0:0:0:0:
259,36,57546,2,0,P|268:105|270:171,1,128.125,0|8,1:0|0:2,0:0:0:0:
84,293,57832,2,0,P|75:224|73:158,1,128.125,0|0,1:0|0:0,0:0:0:0:
362,166,58118,2,0,P|364:232|367:273,1,64.0625,2|0,1:2|0:0,0:0:0:0:
163,155,58261,2,0,P|162:122|161:90,1,64.0625,10|0,0:2|0:0,0:0:0:0:
328,328,58403,6,0,B|381:348|423:364|423:364|427:311|456:260,1,192.1875,2|0,1:2|0:0,0:0:0:0:
363,230,58689,1,0,1:0:0:0:
217,274,58832,2,0,B|174:279|144:336|144:336|122:379|54:382,1,192.1875,10|0,0:2|0:0,0:0:0:0:
71,290,59118,1,2,0:2:0:0:
235,364,59261,1,2,1:2:0:0:
281,176,59403,1,10,0:2:0:0:
70,179,59546,6,0,B|58:126|43:83|43:83|71:52|97:-2,1,192.1875,2|0,1:2|0:0,0:0:0:0:
138,91,59832,1,0,1:0:0:0:
149,234,59975,2,0,P|147:303|151:379,1,128.125,10|0,0:2|0:0,0:0:0:0:
229,139,60261,1,2,0:2:0:0:
246,106,60332,1,0,0:0:0:0:
239,64,60403,1,0,1:0:0:0:
70,179,60546,1,10,0:2:0:0:
268,259,60689,1,0,1:0:0:0:
138,91,60832,5,10,0:2:0:0:
356,80,60975,1,0,1:0:0:0:
70,179,61118,5,8,0:2:0:0:
268,259,61261,1,2,1:2:0:0:
25,262,61403,5,2,0:2:0:0:
35,305,61475,1,0,0:2:0:0:
46,347,61546,1,0,1:0:0:0:
229,139,61689,1,8,0:2:0:0:
289,359,61832,6,0,B|349:348|395:345|395:345|418:290|442:250,1,192.1875,0|0,1:0|0:0,0:0:0:0:
331,248,62118,2,0,P|278:257|234:260,1,64.0625,0|0,1:0|0:0,0:0:0:0:
445,172,62261,1,10,0:2:0:0:
229,139,62403,1,0,1:0:0:0:
222,116,62475,1,0,0:0:0:0:
241,100,62546,1,2,0:2:0:0:
346,105,62689,6,0,P|355:172|361:192,1,64.0625,2|0,1:2|0:0,0:0:0:0:
411,48,62832,2,0,P|464:6|478:-8,1,64.0625,0|0,1:0|0:0,0:0:0:0:
331,24,62975,2,0,P|268:-1|248:-6,1,64.0625,2|0,1:2|0:0,0:0:0:0:
229,139,63118,6,0,P|204:151|189:158,1,38.4375
228,244,63403,6,0,B|166:245|145:294|145:294|116:354|52:351,1,207.562500791788,14|0,0:2|0:0,0:0:0:0:
70,255,63689,1,2,1:2:0:0:
218,331,63832,1,2,0:2:0:0:
194,155,63975,2,0,P|187:99|180:58,2,69.1875002639294,8|0|2,0:2|0:0|0:2,0:0:0:0:
301,281,64261,5,0,1:0:0:0:
400,113,64403,1,0,0:0:0:0:
393,337,64546,5,8,0:2:0:0:
302,174,64689,1,0,0:0:0:0:
218,331,64832,6,0,P|156:336|105:354,1,69.1875002639294,0|0,1:0|0:0,0:0:0:0:
404,231,64975,1,2,0:2:0:0:
194,155,65118,1,10,0:2:0:0:
297,381,65261,6,0,P|299:253|302:151,1,207.562500791788,2|0,0:2|0:0,0:0:0:0:
265,96,65546,1,0,0:0:0:0:
149,337,65689,2,0,B|130:321|62:323|62:323|79:269|57:191,1,207.562500791788,10|0,0:2|0:0,0:0:0:0:
151,246,65975,1,2,1:2:0:0:
5,382,66118,1,2,0:2:0:0:
61,206,66261,1,10,0:2:0:0:
149,337,66403,1,2,0:2:0:0:
211,139,66546,5,0,1:0:0:0:
61,206,66689,1,0,0:0:0:0:
240,282,66832,5,8,0:2:0:0:
119,97,66975,1,0,0:0:0:0:
149,337,67118,5,0,1:0:0:0:
211,139,67261,1,0,0:0:0:0:
240,282,67403,2,0,B|298:278|327:326|327:326|357:371|422:361,1,207.562500791788,10|0,0:2|0:0,0:0:0:0:
394,277,67689,5,10,1:2:0:0:
250,368,67832,1,2,0:2:0:0:
481,297,67975,1,10,1:2:0:0:
307,189,68118,1,2,0:2:0:0:
418,361,68261,5,10,1:2:0:0:
446,113,68403,1,2,0:2:0:0:
250,368,68546,1,10,1:2:0:0:
211,139,68689,1,2,0:2:0:0:
481,297,68832,5,10,1:2:0:0:
96,253,68975,1,10,0:2:0:0:
327,39,69118,5,10,1:2:0:0:
250,368,69261,1,10,0:2:0:0:
81,82,69403,5,10,1:2:0:0:
122,50,69475,1,8,0:2:0:0:
171,53,69546,1,10,0:2:0:0:
203,92,69618,1,8,0:2:0:0:
211,139,69689,1,10,1:2:0:0:
232,193,69761,1,8,0:2:0:0:
284,213,69832,1,10,0:2:0:0:
338,195,69903,1,8,0:2:0:0:
361,150,69975,6,0,P|306:155|139:170,1,205,6|0,1:2|0:0,0:0:0:0:
0,253,70403,2,0,B|51:264|65:317|65:317|75:380|167:389,1,205,2|0,1:2|0:0,0:0:0:0:
277,276,70832,2,0,P|265:191|250:47,1,205,2|0,1:2|0:0,0:0:0:0:
51,0,71261,2,0,P|63:85|78:229,1,205,2|0,1:2|0:0,0:0:0:0:
181,245,71689,6,0,P|249:259|286:283,1,102.5,2|0,1:2|0:0,0:0:0:0:
326,381,71975,2,0,P|372:329|431:295,1,128.125,2|0,1:2|0:0,0:0:0:0:
497,94,72261,6,0,B|445:93|429:139|429:139|412:187|349:185,1,169.125005161286,6|0,1:2|0:0,0:0:0:0:
357,104,72546,1,8,0:2:0:0:
421,298,72689,6,0,B|453:285|497:277|497:277|495:228|513:173,1,169.125005161286,2|0,1:2|0:0,0:0:0:0:
497,94,72975,1,8,0:2:0:0:
309,256,73118,6,0,P|227:259|101:283,1,169.125005161286,2|0,1:2|0:0,0:0:0:0:
82,217,73403,1,8,0:2:0:0:
353,375,73546,6,0,P|417:323|416:276,1,112.750003440857,2|0,1:2|0:0,0:0:0:0:
293,169,73832,1,8,0:2:0:0:
142,273,73975,6,0,P|153:342|159:392,1,112.750003440857,6|0,1:2|0:0,0:0:0:0:
394,192,74261,2,0,P|380:109|373:49,1,138.375000527859,6|0,1:2|0:0,0:0:0:0:
11,60,74546,5,6,1:2:0:0:
112,80,74689,1,0,1:0:0:0:
121,106,74761,1,0,0:0:0:0:
116,129,74832,1,8,0:2:0:0:
16,230,74975,5,2,1:2:0:0:
128,217,75118,1,0,1:0:0:0:
151,217,75189,1,0,0:0:0:0:
172,218,75261,1,8,0:2:0:0:
235,328,75403,5,2,1:2:0:0:
300,236,75546,1,0,1:0:0:0:
283,202,75618,1,0,0:0:0:0:
293,169,75689,1,8,0:2:0:0:
406,127,75832,5,2,1:2:0:0:
486,179,75975,1,0,1:0:0:0:
481,198,76046,1,0,0:0:0:0:
467,206,76118,1,8,0:2:0:0:
293,169,76261,6,0,P|208:157|131:157,1,128.125,6|0,1:2|0:0,0:0:0:0:
378,47,76546,2,0,P|455:34|507:21,1,112.750003440857,6|0,1:2|0:0,0:0:0:0:
375,265,76832,5,10,0:2:0:0:
167,32,77118,5,10,0:2:0:0:
39,383,77546,5,10,0:2:0:0:
166,337,77832,2,0,B|177:298|211:276|211:276|180:228|163:143,1,207.562500791788,10|0,0:2|0:0,0:0:0:0:
87,157,78118,1,0,1:0:0:0:
245,355,78261,5,10,0:2:0:0:
91,263,78403,1,0,0:0:0:0:
293,103,78546,5,10,0:2:0:0:
293,103,78832,2,0,P|397:121|455:129,1,128.125,10|8,0:2|0:2,0:0:0:0:
484,312,79118,6,0,B|444:292|408:278|408:278|389:321|332:321,1,153.75,4|0,1:2|0:0,0:0:0:0:
340,312,79403,2,0,P|330:253|311:191,1,102.5,10|0,1:2|0:0,0:0:0:0:
430,373,79689,1,2,1:2:0:0:
416,200,79832,1,2,0:2:0:0:
484,312,79975,1,10,1:2:0:0:
318,211,80118,6,0,B|259:238|222:255|222:255|207:213|154:159,1,205,2|0,0:2|0:0,0:0:0:0:
259,124,80546,1,8,1:2:0:0:
317,212,80689,1,0,0:0:0:0:
166,173,80832,6,0,P|114:184|51:193,1,102.5,2|0,1:2|0:0,0:0:0:0:
259,124,81118,2,0,P|311:113|374:104,1,102.5,10|2,1:2|0:2,0:0:0:0:
118,320,81403,6,0,B|90:293|64:274|64:274|68:228|63:168,1,153.75,2|0,1:2|0:0,0:0:0:0:
68,183,81689,1,10,1:2:0:0:
176,251,81832,6,0,B|214:270|223:303|223:303|237:365|279:373,1,153.75,2|0,0:2|0:0,0:0:0:0:
271,366,82118,2,0,P|336:356|386:348,1,102.5,2|8,0:2|1:2,0:0:0:0:
476,205,82403,6,0,B|414:213|370:200|370:200|387:154|347:78,1,205,2|2,0:2|0:2,0:0:0:0:
477,21,82832,2,0,P|456:91|448:135,1,102.5,10|0,1:2|0:0,0:0:0:0:
450,292,83118,5,2,1:2:0:0:
349,216,83261,1,2,0:2:0:0:
476,205,83403,1,10,1:2:0:0:
372,350,83546,1,2,0:2:0:0:
285,160,83689,6,0,P|227:168|158:168,1,102.5,2|0,1:2|0:0,0:0:0:0:
54,317,83975,2,0,P|112:309|181:309,1,102.5,10|0,1:2|0:0,0:0:0:0:
126,81,84261,2,0,P|89:131|133:243,1,153.75,2|0,1:2|0:0,0:0:0:0:
110,224,84546,1,10,1:2:0:0:
259,257,84689,6,0,B|312:262|332:318|332:318|356:363|426:367,1,205,2|2,0:2|0:2,0:0:0:0:
391,215,85118,2,0,P|382:161|372:92,1,102.5,10|0,1:2|0:0,0:0:0:0:
250,347,85403,2,0,P|178:361|118:380,1,128.125,2|0,1:2|0:0,0:0:0:0:
13,249,85689,1,10,1:2:0:0:
157,242,85832,6,0,B|156:185|146:145|146:145|189:104|199:59,1,192.1875,2|0,0:2|0:0,0:0:0:0:
205,65,86118,1,2,0:2:0:0:
111,60,86261,1,10,1:2:0:0:
237,160,86403,1,2,0:2:0:0:
270,5,86546,5,2,1:2:0:0:
237,160,86689,1,2,0:2:0:0:
111,60,86832,1,10,1:2:0:0:
333,92,86975,6,0,B|376:118|377:178|377:178|379:228|433:260,1,192.1875,2|0,0:2|0:0,0:0:0:0:
435,257,87261,1,2,0:2:0:0:
305,244,87403,2,0,P|231:265|165:289,1,128.125,10|0,1:2|0:0,0:0:0:0:
443,172,87689,5,2,1:2:0:0:
237,160,87832,1,2,0:2:0:0:
362,384,87975,1,0,1:2:0:0:
363,369,88046,1,0,0:0:0:0:
364,352,88118,1,0,0:0:0:0:
365,335,88189,1,0,0:0:0:0:
366,318,88261,6,0,B|324:309|293:346|293:346|268:379|206:358,1,169.125005161286,4|0,1:2|0:0,0:0:0:0:
204,357,88546,2,0,P|200:284|186:212,1,112.750003440857,10|0,1:2|0:0,0:0:0:0:
369,237,88832,1,2,1:2:0:0:
237,160,88975,1,2,0:2:0:0:
355,63,89118,1,10,1:2:0:0:
193,244,89261,6,0,B|139:215|112:195|112:195|129:143|135:58,1,225.500006881714,2|0,0:2|0:0,0:0:0:0:
237,160,89689,2,0,P|315:151|369:142,1,112.750003440857,8|0,1:2|0:0,0:0:0:0:
273,25,89975,5,2,1:2:0:0:
134,66,90118,1,2,0:2:0:0:
237,160,90261,1,10,1:2:0:0:
193,0,90403,1,2,0:2:0:0:
193,244,90546,6,0,B|241:244|260:287|260:287|279:330|353:331,1,169.125005161286,2|0,1:2|0:0,0:0:0:0:
345,330,90832,1,10,1:2:0:0:
184,334,90975,2,0,P|112:349|67:363,1,112.750003440857,2|0,0:2|1:0,0:0:0:0:
338,243,91261,2,0,P|410:228|455:214,1,112.750003440857,2|8,0:2|1:2,0:0:0:0:
101,262,91546,6,0,B|105:197|93:156|93:156|142:123|154:98,1,169.125005161286,2|0,0:2|0:0,0:0:0:0:
151,115,91832,1,2,0:2:0:0:
70,63,91975,1,10,1:2:0:0:
184,198,92118,1,2,0:2:0:0:
243,72,92261,2,0,P|254:22|260:-9,2,56.3750017204285,2|0|2,1:2|0:0|0:2,0:0:0:0:
184,198,92546,5,10,1:2:0:0:
307,158,92689,1,2,0:2:0:0:
222,301,92832,6,0,B|173:301|152:342|152:342|135:375|58:377,1,169.125005161286,6|0,1:2|0:0,0:0:0:0:
76,301,93118,2,0,B|125:301|146:342|146:342|163:375|240:377,1,169.125005161286,2|0,1:2|0:0,0:0:0:0:
299,329,93403,2,0,P|299:278|267:254,1,56.3750017204285,2|0,1:2|0:0,0:0:0:0:
184,198,93546,1,0,0:0:0:0:
307,158,93689,5,10,0:2:0:0:
158,119,93832,2,0,B|154:85|138:52|138:52|195:45|244:-6,1,169.125005161286,2|0,1:2|0:0,0:0:0:0:
246,21,94118,1,2,1:2:0:0:
184,198,94261,2,0,P|185:274|186:336,1,112.750003440857,10|2,0:2|1:2,0:0:0:0:
344,75,94546,6,0,B|382:87|393:137|393:137|405:184|455:194,1,169.125005161286,2|0,1:2|0:0,0:0:0:0:
467,117,94832,1,2,1:2:0:0:
347,278,94975,6,0,B|300:277|266:302|266:302|268:358|215:385,1,169.125005161286,6|0,1:2|0:0,0:0:0:0:
185,310,95261,1,2,1:2:0:0:
364,368,95403,2,0,P|434:312|426:264,1,112.750003440857,14|2,1:2|0:2,0:0:0:0:
87,283,95689,2,0,P|170:315|208:284,1,112.750003440857,14|2,1:2|0:2,0:0:0:0:
149,20,95975,2,0,P|162:108|208:125,1,112.750003440857,6|2,1:2|0:2,0:0:0:0:
440,190,96261,6,0,P|404:197|396:199,1,38.4375,2|0,1:2|0:0,0:0:0:0:
347,271,96546,2,0,B|333:245|293:223|293:223|338:175|342:90,1,169.125005161286,2|0,0:2|0:0,0:0:0:0:
211,122,96832,6,0,P|189:114|174:117,1,38.4375,2|0,1:2|0:0,0:0:0:0:
104,216,97118,2,0,P|228:212|325:227,1,192.1875,2|0,0:2|0:0,0:0:0:0:
335,138,97403,6,0,P|348:66|355:37,1,74.3125022678376,14|0,1:2|0:0,0:0:0:0:
118,290,97689,2,0,P|105:218|98:189,1,74.3125022678376,10|0,1:2|0:0,0:0:0:0:
419,366,97975,2,0,P|432:294|439:265,1,74.3125022678376,10|0,1:2|0:0,0:0:0:0:
104,216,98261,5,8,0:2:0:0:
37,143,98403,2,0,B|78:121|111:87|111:87|133:136|207:151,1,169.125005161286,2|0,1:2|0:0,0:0:0:0:
192,65,98689,1,2,1:2:0:0:
104,216,98832,1,10,0:2:0:0:
241,173,98975,1,2,1:2:0:0:
118,290,99118,1,2,0:2:0:0:
90,294,99189,1,0,0:0:0:0:
68,284,99261,1,0,1:0:0:0:
232,292,99403,1,10,0:2:0:0:
248,180,99546,5,0,0:0:0:0:
248,180,99618,1,0,0:0:0:0:
248,180,99689,2,0,B|311:182|330:239|330:239|354:300|425:296,1,222.937506803513,10|0,1:2|0:0,0:0:0:0:
425,278,99975,2,0,B|360:282|336:221|336:221|317:164|254:162,1,222.937506803513,10|0,1:2|0:0,0:0:0:0:
264,145,100261,2,0,P|336:180|352:201,1,74.3125022678376,10|0,1:2|0:0,0:0:0:0:
36,341,100546,5,8,0:2:0:0:
136,384,100689,2,0,B|160:345|196:332|196:332|155:308|155:236,1,169.125005161286,2|0,1:2|0:0,0:0:0:0:
87,229,100975,1,2,1:2:0:0:
237,264,101118,1,10,0:2:0:0:
144,146,101261,1,2,0:2:0:0:
22,294,101403,1,2,0:2:0:0:
31,318,101475,1,0,0:0:0:0:
36,341,101546,1,0,1:0:0:0:
54,139,101689,1,10,0:2:0:0:
155,257,101832,5,0,0:0:0:0:
155,257,101903,1,0,0:0:0:0:
155,257,101975,5,14,1:2:0:0:
275,72,102118,1,0,0:0:0:0:
249,324,102261,1,10,1:2:0:0:
144,146,102403,1,0,0:0:0:0:
335,148,102546,6,0,P|405:130|432:128,1,56.3750017204285,10|0,1:2|0:0,0:0:0:0:
275,72,102689,1,0,0:0:0:0:
331,264,102832,1,8,1:2:0:0:
480,132,102975,1,2,0:2:0:0:
238,198,103118,5,8,1:2:0:0:
432,276,103261,1,8,0:2:0:0:
155,257,103403,5,10,1:2:0:0:
311,381,103546,1,10,0:2:0:0:
89,316,103689,5,10,1:2:0:0:
60,276,103761,1,8,0:2:0:0:
64,226,103832,1,10,0:2:0:0:
96,187,103903,1,8,0:2:0:0:
137,161,103975,5,10,1:2:0:0:
177,123,104046,1,8,0:2:0:0:
184,67,104118,1,10,0:2:0:0:
156,21,104189,1,8,0:2:0:0:
100,21,104261,6,0,P|42:34|-16:41,1,102.500003910065,4|0,0:3|0:0,0:0:0:0:
137,161,104451,2,0,P|79:148|21:141,1,102.500003910065,4|0,0:3|0:0,0:0:0:0:
284,48,104641,2,0,P|226:61|168:68,1,102.500003910065,4|0,0:3|0:0,0:0:0:0:
405,136,104832,6,0,P|463:149|521:156,1,102.500003910065,4|0,0:3|0:0,0:0:0:0:
346,356,105022,2,0,P|404:343|462:336,1,102.500003910065,4|0,0:3|0:0,0:0:0:0:
212,146,105212,2,0,P|270:159|328:166,1,102.500003910065,4|0,0:3|0:0,0:0:0:0:
229,384,105403,6,0,P|221:231|203:79,1,238.31250181818,6|0,1:2|0:0,0:0:0:0:
137,161,105689,1,10,0:2:0:0:
284,48,105832,1,8,0:2:0:0:
76,101,105975,1,10,0:2:0:0:
51,117,106046,1,8,0:2:0:0:
46,149,106118,6,0,P|56:183|56:187,1,38.4375,2|0,0:2|0:0,0:0:0:0:
137,161,106403,6,0,B|187:157|214:205|214:205|238:263|328:244,1,192.1875,6|0,1:2|0:0,0:0:0:0:
286,167,106689,1,0,1:0:0:0:
217,362,106832,2,0,B|169:333|121:329|121:329|146:268|137:213,1,192.1875,10|0,0:2|0:0,0:0:0:0:
137,161,107118,1,2,0:2:0:0:
293,248,107261,1,2,1:2:0:0:
51,267,107403,1,10,0:2:0:0:
286,167,107546,6,0,P|297:82|305:25,1,128.125,2|0,1:2|0:0,0:0:0:0:
51,267,107832,2,0,P|40:182|32:125,1,128.125,0|8,1:0|0:2,0:0:0:0:
392,312,108118,2,0,P|403:227|411:170,1,128.125,0|0,1:2|0:0,0:0:0:0:
128,97,108403,2,0,P|132:128|136:160,1,64.0625,2|0,1:2|0:0,0:0:0:0:
284,311,108546,2,0,P|288:279|292:247,1,64.0625,10|0,0:2|0:0,0:0:0:0:
302,39,108689,6,0,B|352:50|381:93|381:93|410:42|474:33,1,192.1875,2|0,1:2|0:0,0:0:0:0:
460,117,108975,1,2,1:2:0:0:
292,247,109118,1,10,0:2:0:0:
302,39,109261,1,2,0:2:0:0:
408,184,109403,2,0,P|476:200|497:206,1,64.0625,2|0,0:2|0:0,0:0:0:0:
248,127,109546,1,2,1:2:0:0:
453,37,109689,1,10,0:2:0:0:
292,247,109832,6,0,P|219:262|143:322,1,128.125,2|0,1:2|0:0,0:0:0:0:
248,127,110118,2,0,P|198:71|108:35,1,128.125,0|8,1:0|0:2,0:0:0:0:
425,260,110403,2,0,P|401:330|415:426,1,128.125,0|0,1:0|0:0,0:0:0:0:
184,187,110689,2,0,P|134:170|67:180,1,64.0625,2|0,1:2|0:0,0:0:0:0:
314,329,110832,2,0,P|274:363|249:426,1,64.0625,10|0,0:2|0:0,0:0:0:0:
42,237,110975,6,0,B|30:178|6:141|6:141|69:87|68:62,1,192.1875,2|0,1:2|0:0,0:0:0:0:
122,169,111261,1,0,1:0:0:0:
100,303,111403,2,0,B|161:300|186:341|186:341|221:387|289:368,1,192.1875,10|0,0:2|0:0,0:0:0:0:
252,292,111689,1,2,0:2:0:0:
261,270,111761,1,0,0:0:0:0:
256,244,111832,1,2,1:2:0:0:
100,303,111975,1,10,0:2:0:0:
264,154,112118,6,0,B|336:140|377:138|377:138|352:104|370:52,1,192.1875,2|0,1:2|0:0,0:0:0:0:
443,93,112403,1,0,1:0:0:0:
256,244,112546,2,0,P|172:249|84:272,1,128.125,10|0,0:2|0:0,0:0:0:0:
196,60,112832,1,2,0:2:0:0:
228,73,112903,1,0,0:0:0:0:
265,66,112975,1,0,1:0:0:0:
256,244,113118,1,10,0:2:0:0:
366,63,113261,1,0,1:0:0:0:
141,157,113403,5,10,0:2:0:0:
376,290,113546,1,0,1:0:0:0:
265,66,113689,5,8,0:2:0:0:
213,368,113832,1,2,1:2:0:0:
392,154,113975,5,10,0:2:0:0:
432,142,114046,1,8,0:2:0:0:
475,126,114118,1,0,1:0:0:0:
376,290,114261,1,8,0:2:0:0:
231,268,114403,6,0,B|221:193|210:148|210:148|174:165|91:151,1,192.1875,2|0,1:2|0:0,0:0:0:0:
146,236,114689,1,0,1:0:0:0:
300,130,114832,1,10,0:2:0:0:
158,321,114975,1,0,1:0:0:0:
123,321,115046,1,0,0:0:0:0:
91,301,115118,1,2,0:2:0:0:
376,290,115261,6,0,P|391:353|405:401,1,64.0625,2|0,1:2|0:0,0:0:0:0:
292,286,115403,2,0,P|229:267|181:255,1,64.0625,0|0,1:0|0:0,0:0:0:0:
337,217,115546,2,0,P|384:172|418:136,1,64.0625,2|0,1:2|0:0,0:0:0:0:
512,105,115689,6,0,P|504:81|500:63,1,38.4375
458,3,115975,6,0,B|404:8|387:63|387:63|366:119|300:118,1,207.562500791788,14|0,0:2|0:0,0:0:0:0:
311,38,116261,1,2,1:2:0:0:
476,188,116403,1,2,0:2:0:0:
458,3,116546,1,8,0:2:0:0:
337,217,116689,2,0,P|265:232|222:241,1,69.1875002639294,2|0,0:2|0:0,0:0:0:0:
135,109,116832,5,0,1:0:0:0:
132,352,116975,1,0,0:0:0:0:
302,118,117118,5,8,0:2:0:0:
68,243,117261,1,0,0:0:0:0:
245,349,117403,5,0,1:0:0:0:
212,143,117546,1,2,0:2:0:0:
337,217,117689,1,10,0:2:0:0:
68,243,117832,6,0,B|41:193|13:162|13:162|65:102|76:52,1,207.562500791788,2|0,0:2|0:0,0:0:0:0:
151,44,118118,1,0,0:0:0:0:
175,287,118261,6,0,B|233:283|269:328|269:328|315:378|387:349,1,207.562500791788,10|0,0:2|0:0,0:0:0:0:
333,268,118546,1,2,1:2:0:0:
81,353,118689,1,2,0:2:0:0:
262,118,118832,1,10,0:2:0:0:
198,378,118975,1,2,0:2:0:0:
130,154,119118,5,0,1:0:0:0:
382,100,119261,1,0,0:0:0:0:
151,44,119403,1,8,0:2:0:0:
175,287,119546,1,0,0:0:0:0:
262,118,119689,2,0,P|254:60|251:37,1,69.1875002639294,0|8,1:0|0:2,0:0:0:0:
130,154,119832,1,0,0:0:0:0:
284,203,119975,6,0,B|338:213|364:222|364:222|358:138|395:71,1,207.562500791788,10|0,0:2|0:0,0:0:0:0:
262,118,120261,5,10,1:2:0:0:
473,207,120403,1,2,0:2:0:0:
336,23,120546,5,10,1:2:0:0:
294,306,120689,1,2,0:2:0:0:
482,67,120832,5,10,1:2:0:0:
219,15,120975,1,0,0:2:0:0:
434,322,121118,5,10,1:2:0:0:
336,23,121261,1,2,0:2:0:0:
172,349,121403,5,10,1:2:0:0:
473,207,121546,1,10,0:2:0:0:
101,248,121689,5,10,1:2:0:0:
336,23,121832,1,10,0:2:0:0:
330,333,121975,5,10,1:2:0:0:
293,293,122046,1,8,0:2:0:0:
284,243,122118,1,10,0:2:0:0:
300,193,122189,1,8,0:2:0:0:
346,159,122261,5,10,1:2:0:0:
382,114,122332,1,8,0:2:0:0:
374,56,122403,1,10,0:2:0:0:
336,23,122475,1,8,0:2:0:0:
284,16,122546,6,0,B|242:44|229:94|229:94|213:155|143:170,1,205,6|0,1:2|0:0,0:0:0:0:
0,305,122975,2,0,P|138:309|243:321,1,205,2|0,1:2|0:0,0:0:0:0:
504,203,123403,2,0,P|366:199|261:187,1,205,2|0,1:2|0:0,0:0:0:0:
100,58,123832,2,0,P|238:62|343:74,1,205,2|0,1:2|0:0,0:0:0:0:
204,315,124261,6,0,P|158:263|169:209,1,102.5,2|0,1:2|0:0,0:0:0:0:
404,85,124546,2,0,P|381:150|329:168,1,128.125,2|0,1:2|0:0,0:0:0:0:
49,333,124832,6,0,B|44:292|21:242|21:242|71:187|72:165,1,169.125005161286,10|0,1:2|0:0,0:0:0:0:
0,100,125118,2,0,B|88:109|101:188|101:188|119:238|185:232,1,225.500006881714,10|0,1:2|0:0,0:0:0:0:
273,363,125546,6,0,P|258:262|253:172,1,169.125005161286,10|0,1:2|0:0,0:0:0:0:
169,122,125832,2,0,B|222:137|243:160|243:160|284:101|330:86,1,169.125005161286,10|0,1:2|0:0,0:0:0:0:
301,99,126118,1,0,1:0:0:0:
379,265,126261,6,0,P|367:355|369:395,1,112.750003440857,10|0,1:2|0:0,0:0:0:0:
160,232,126546,2,0,P|172:322|170:362,1,112.750003440857,10|0,1:2|0:0,0:0:0:0:
366,153,126832,2,0,P|385:92|375:71,3,56.3750017204285,2|0|0|0,0:2|0:0|0:0|0:0,0:0:0:0:
305,103,127118,6,0,B|267:80|223:100|223:100|182:120|133:99,1,170.833333333333,6|0,1:2|0:0,0:0:0:0:
59,16,127403,1,10,0:2:0:0:
145,18,127499,1,10,0:2:0:0:
140,102,127594,1,10,0:2:0:0:
55,111,127689,6,0,B|38:176|31:209|31:209|83:231|150:270,1,170.833333333333,6|0,1:2|0:0,0:0:0:0:
167,299,127975,1,10,0:2:0:0:
229,235,128070,1,10,0:2:0:0:
156,185,128165,1,10,0:2:0:0:
167,299,128261,6,0,B|220:297|240:334|240:334|262:384|367:366,1,170.833333333333,14|0,1:2|0:0,0:0:0:0:
389,319,128546,1,10,0:2:0:0:
409,230,128641,1,10,0:2:0:0:
328,193,128737,1,10,0:2:0:0:
229,235,128832,6,0,B|204:184|183:159|183:159|218:102|217:46,1,170.833333333333,6|0,1:2|0:0,0:0:0:0:
296,0,129118,1,10,0:2:0:0:
346,68,129213,1,10,0:2:0:0:
282,123,129308,1,10,0:2:0:0:
206,0,129403,6,0,B|157:5|138:52|138:52|121:83|42:90,1,170.833333333333,14|0,1:2|0:0,0:0:0:0:
25,166,129689,1,10,0:2:0:0:
12,247,129784,1,10,0:2:0:0:
70,304,129880,1,10,0:2:0:0:
171,271,129975,6,0,B|220:253|245:321|245:321|260:365|313:373,1,170.833333333333,14|0,1:2|0:0,0:0:0:0:
383,332,130261,1,10,0:2:0:0:
421,258,130356,1,10,0:2:0:0:
361,197,130451,1,10,0:2:0:0:
277,201,130546,5,14,1:2:0:0:
279,231,130641,1,10,0:2:0:0:
299,252,130737,1,10,0:2:0:0:
202,165,130832,5,10,0:2:0:0:
188,191,130927,1,10,0:2:0:0:
195,220,131023,1,10,0:2:0:0:
111,230,131118,5,14,1:2:0:0:
113,260,131213,1,10,0:2:0:0:
133,281,131309,1,10,0:2:0:0:
36,194,131404,5,10,0:2:0:0:
22,220,131499,1,10,0:2:0:0:
29,249,131595,1,10,0:2:0:0:
61,113,131689,5,6,1:2:0:0:
105,124,131784,1,2,0:2:0:0:
144,93,131880,1,2,0:2:0:0:
175,47,131975,5,10,1:2:0:0:
230,33,132070,1,2,0:2:0:0:
270,70,132166,1,2,0:2:0:0:
283,129,132261,5,10,1:2:0:0:
334,184,132356,1,2,0:2:0:0:
411,182,132451,1,2,0:2:0:0:
472,122,132546,5,10,1:2:0:0:
415,194,132641,1,2,0:2:0:0:
461,273,132737,1,2,0:2:0:0:
388,348,132832,6,0,P|319:334|282:333,2,68.3333333333333,10|2|2,1:2|0:2|0:2,0:0:0:0:
244,283,133118,1,10,1:2:0:0:
192,216,133213,1,2,0:2:0:0:
242,153,133308,1,2,0:2:0:0:
334,184,133403,6,0,P|348:253|349:290,2,68.3333333333333,10|2|2,1:2|0:2|0:2,0:0:0:0:
309,94,133689,1,10,1:2:0:0:
263,107,133784,1,2,0:2:0:0:
242,153,133880,1,2,0:2:0:0:
334,184,133975,6,0,P|399:167|434:163,1,68.3333333333333,10|2,1:2|0:2,0:0:0:0:
136,145,134165,1,10,0:2:0:0:
44,175,134260,1,10,0:2:0:0:
22,93,134355,1,10,0:2:0:0:
110,67,134451,1,10,0:2:0:0:
176,9,134546,6,0,P|197:63|186:95,1,68.3333333333333,10|2,1:2|0:2,0:0:0:0:
279,121,134737,1,10,0:2:0:0:
355,70,134832,1,10,0:2:0:0:
437,111,134927,1,10,0:2:0:0:
432,200,135022,1,10,0:2:0:0:
316,232,135118,5,10,1:2:0:0:
286,251,135213,1,10,0:2:0:0:
256,246,135308,1,10,0:2:0:0:
203,340,135403,5,10,1:2:0:0:
150,304,135498,1,10,0:2:0:0:
89,313,135593,1,10,0:2:0:0:
101,145,135689,6,0,P|182:137|286:119,1,179.375,2|0,1:2|0:0,0:0:0:0:
346,73,136261,6,0,P|361:94|357:111,1,38.4375,2|0,1:2|0:0,0:0:0:0:
278,120,136546,6,0,P|257:69|242:41,1,56.3750017204285,14|0,0:2|0:0,0:0:0:0:
445,85,136689,2,0,P|422:167|360:188,1,112.750003440857,2|0,0:2|1:0,0:0:0:0:
191,235,136975,2,0,P|273:213|322:257,1,112.750003440857,2|8,0:2|0:2,0:0:0:0:
396,334,137261,1,0,0:0:0:0:
201,384,137403,6,0,B|188:339|157:307|157:307|182:277|202:196,1,169.125005161286,0|0,1:0|0:0,0:0:0:0:
259,303,137689,1,10,0:2:0:0:
106,227,137832,2,0,P|95:147|86:88,1,112.750003440857,2|0,0:2|1:0,0:0:0:0:
294,223,138118,2,0,P|305:143|314:84,1,112.750003440857,2|8,0:2|0:2,0:0:0:0:
26,273,138403,1,0,0:0:0:0:
259,303,138546,6,0,B|308:296|331:334|331:334|357:377|443:367,1,169.125005161286,0|0,1:0|0:0,0:0:0:0:
398,288,138832,1,10,0:2:0:0:
190,235,138975,2,0,P|162:286|186:352,1,112.750003440857,2|0,0:2|1:0,0:0:0:0:
478,270,139261,2,0,P|447:220|378:208,1,112.750003440857,2|8,0:2|0:2,0:0:0:0:
259,303,139546,1,0,0:0:0:0:
322,159,139689,6,0,B|333:80|337:34|337:34|313:35|272:14,1,169.125005161286,0|0,1:0|0:0,0:0:0:0:
238,85,139975,1,10,0:2:0:0:
190,235,140118,2,0,P|128:248|62:268,1,112.750003440857,2|0,0:2|1:0,0:0:0:0:
13,217,140332,1,8,0:2:0:0:
13,217,140403,1,2,0:2:0:0:
49,344,140546,1,8,0:2:0:0:
80,261,140689,1,0,0:0:0:0:
276,298,140832,6,0,B|336:300|348:350|347:350|388:389|443:367,1,169.125005161286,0|0,1:0|0:0,0:0:0:0:
410,291,141118,1,10,0:2:0:0:
203,346,141261,2,0,P|194:271|187:210,1,112.750003440857,2|0,0:2|1:0,0:0:0:0:
481,258,141546,2,0,P|490:183|497:122,1,112.750003440857,2|8,0:2|0:2,0:0:0:0:
334,75,141832,1,2,0:2:0:0:
311,102,141903,1,2,0:2:0:0:
275,101,141975,6,0,B|230:85|203:54|203:54|180:98|109:121,1,169.125005161286,0|0,1:2|0:0,0:0:0:0:
209,165,142261,1,8,0:2:0:0:
122,26,142403,1,0,0:0:0:0:
87,203,142546,1,2,1:2:0:0:
81,233,142618,1,8,0:2:0:0:
99,258,142689,1,8,0:0:0:0:
226,257,142832,1,8,0:2:0:0:
121,342,142975,1,0,0:0:0:0:
322,308,143118,6,0,B|358:291|394:287|394:287|383:224|402:170,1,169.125005161286,2|0,1:2|0:0,0:0:0:0:
321,160,143403,2,0,P|248:163|190:165,1,112.750003440857,8|0,0:2|0:0,0:0:0:0:
121,342,143689,1,0,1:0:0:0:
87,203,143832,1,0,0:0:0:0:
226,257,143975,1,8,0:2:0:0:
13,235,144118,1,2,0:2:0:0:
1,205,144189,1,2,0:2:0:0:
11,175,144261,5,6,1:2:0:0:
150,89,144403,1,0,0:0:0:0:
87,203,144546,5,12,1:2:0:0:
29,73,144689,1,0,0:0:0:0:
77,301,144832,5,12,1:2:0:0:
208,164,144975,1,0,0:0:0:0:
206,339,145118,2,0,P|260:355|328:371,1,112.750003440857,12|0,1:2|0:0,0:0:0:0:
382,338,145332,1,0,0:0:0:0:
382,338,145403,5,4,1:2:0:0:
351,193,145546,1,0,1:0:0:0:
464,353,145689,5,10,0:2:0:0:
476,173,145832,1,0,0:0:0:0:
282,262,145975,5,10,1:2:0:0:
502,262,146118,1,2,0:2:0:0:
341,103,146261,5,8,1:2:0:0:
320,373,146403,1,0,0:0:0:0:
320,373,146475,1,0,0:0:0:0:
320,373,146546,5,8,1:2:0:0:
502,262,146689,1,0,0:0:0:0:
282,262,146832,5,10,1:2:0:0:
441,103,146975,1,2,0:2:0:0:
382,338,147118,5,10,1:2:0:0:
341,103,147261,1,2,0:2:0:0:
181,218,147403,5,8,1:2:0:0:
282,262,147546,1,0,0:0:0:0:
282,262,147618,1,0,0:0:0:0:
282,262,147689,5,8,1:2:0:0:
220,64,147832,1,0,0:0:0:0:
162,304,147975,5,10,1:2:0:0:
76,142,148118,1,2,0:2:0:0:
36,328,148261,5,10,1:2:0:0:
181,218,148403,1,2,0:2:0:0:
1,232,148546,5,8,1:2:0:0:
145,90,148689,1,0,0:0:0:0:
145,90,148761,1,0,0:0:0:0:
145,90,148832,5,8,1:2:0:0:
162,304,148975,1,0,0:0:0:0:
274,106,149118,5,10,1:2:0:0:
76,142,149261,1,2,0:2:0:0:
282,247,149403,5,10,1:2:0:0:
231,24,149546,1,2,0:2:0:0:
181,218,149689,5,8,1:2:0:0:
274,106,149832,1,0,0:0:0:0:
274,106,149903,1,0,0:0:0:0:
274,106,149975,5,12,0:2:0:0:
282,247,150118,1,0,1:0:0:0:
399,111,150261,6,0,P|410:40|421:-12,1,112.750003440857,10|0,0:2|1:0,0:0:0:0:
414,281,150546,1,8,0:2:0:0:
282,247,150689,6,0,P|211:258|159:269,1,112.750003440857,2|8,1:2|0:2,0:0:0:0:
293,354,150975,1,0,1:0:0:0:
292,150,151118,6,0,P|246:94|211:54,1,112.750003440857,10|0,0:2|1:0,0:0:0:0:
170,266,151403,1,8,0:2:0:0:
397,194,151546,6,0,P|468:205|520:216,1,112.750003440857,2|8,1:2|0:2,0:0:0:0:
293,354,151832,5,0,1:0:0:0:
292,150,151975,1,10,0:2:0:0:
414,281,152118,1,2,1:2:0:0:
170,266,152261,5,8,0:2:0:0:
131,256,152332,1,0,0:0:0:0:
89,265,152403,1,0,1:0:0:0:
53,289,152475,1,0,0:0:0:0:
40,331,152546,5,10,0:2:0:0:
73,303,152618,1,0,0:0:0:0:
73,257,152689,1,2,1:2:0:0:
49,212,152761,1,0,0:0:0:0:
15,177,152832,1,8,0:2:0:0:
13,130,152903,1,0,0:0:0:0:
48,94,152975,1,2,1:2:0:0:
96,98,153046,1,0,0:0:0:0:
130,134,153118,5,8,0:2:0:0:
185,116,153189,1,0,0:0:0:0:
241,95,153261,6,0,P|279:86|334:72,1,92.25,2|2,1:2|0:2,0:0:0:0:
17,57,163689,6,0,B|55:74|63:116|63:116|71:170|148:184,1,153.75,6|0,0:2|0:0,0:0:0:0:
125,173,163975,2,0,P|209:152|271:150,1,102.5,10|0,0:2|0:0,0:0:0:0:
136,270,164261,2,0,P|220:249|282:247,1,102.5,10|2,0:2|0:2,0:0:0:0:
154,364,164546,2,0,P|238:343|300:341,1,102.5,8|2,0:2|0:2,0:0:0:0:
490,79,164832,6,0,P|497:129|512:178,1,102.5,8|0,0:2|0:0,0:0:0:0:
396,97,165118,2,0,P|403:147|418:196,1,102.5,8|0,0:2|0:0,0:0:0:0:
299,108,165403,2,0,P|306:158|321:207,1,102.5,8|2,0:2|0:2,0:0:0:0:
203,129,165689,2,0,P|210:179|225:228,1,102.5,10|2,0:2|0:2,0:0:0:0:
154,364,165975,6,0,P|104:349|40:348,1,102.5,12|2,0:2|0:2,0:0:0:0:
5,243,166261,1,10,0:2:0:0:
104,194,166403,1,2,0:2:0:0:
54,346,166546,1,10,0:2:0:0:
5,243,166689,1,2,0:2:0:0:
160,277,166832,1,10,0:2:0:0:
29,141,166975,1,2,0:2:0:0:
225,228,167118,6,0,P|326:217|359:216,1,102.5,8|0,0:2|0:0,0:0:0:0:
230,42,167403,2,0,P|129:53|96:54,1,102.5,8|0,0:2|0:0,0:0:0:0:
397,127,167689,2,0,P|498:116|531:115,1,102.5,10|0,0:2|0:0,0:0:0:0:
204,135,167975,2,0,P|103:146|70:147,1,102.5,10|0,0:2|0:0,0:0:0:0:
438,280,168261,6,0,P|415:370|407:407,1,68.3333333333333,6|0,1:2|0:0,0:0:0:0:
326,216,168451,2,0,P|349:306|357:343,1,68.3333333333333,2|0,0:2|0:0,0:0:0:0:
242,283,168641,1,10,0:2:0:0:
231,325,168737,1,8,0:2:0:0:
221,367,168832,6,0,P|155:356|130:353,1,68.3333333333333,6|0,1:2|0:0,0:0:0:0:
154,258,169022,2,0,P|88:269|63:272,1,68.3333333333333,2|0,0:2|0:0,0:0:0:0:
26,170,169213,1,10,0:2:0:0:
71,158,169308,1,8,0:2:0:0:
121,147,169403,6,0,P|132:92|141:60,1,68.3333333333333,6|0,1:2|0:0,0:0:0:0:
221,188,169594,2,0,P|232:133|241:101,1,68.3333333333333,2|0,0:2|0:0,0:0:0:0:
329,35,169784,1,8,0:2:0:0:
374,52,169880,1,8,0:2:0:0:
424,65,169975,6,0,P|500:62|517:61,1,68.3333333333333,6|0,1:2|0:0,0:0:0:0:
303,118,170165,6,0,P|227:121|210:122,1,68.3333333333333,2|0,0:2|0:0,0:0:0:0:
439,155,170356,1,10,0:2:0:0:
449,207,170451,1,8,0:2:0:0:
461,260,170546,5,6,1:2:0:0:
434,285,170641,1,0,0:0:0:0:
402,287,170737,1,6,1:2:0:0:
357,268,170832,5,0,0:0:0:0:
317,205,170927,1,6,1:2:0:0:
236,187,171022,1,0,0:0:0:0:
161,230,171118,1,6,1:2:0:0:
150,342,171213,1,0,0:0:0:0:
251,384,171308,1,6,1:2:0:0:
295,317,171403,1,0,0:0:0:0:
240,263,171499,1,6,1:2:0:0:
219,284,171594,1,0,0:0:0:0:
220,301,171689,5,6,1:2:0:0:
220,301,172689,6,0,P|215:238|205:154,1,143.5,0|0,1:0|0:0,0:0:0:0:
210,79,173832,6,0,B|267:83|282:131|282:131|301:187|370:187,1,192.1875,2|0,1:2|0:0,0:0:0:0:
205,158,174118,2,0,B|148:162|133:210|133:210|114:266|45:266,1,192.1875,2|0,1:2|0:0,0:0:0:0:
222,242,174403,2,0,B|279:246|294:294|294:294|313:350|382:350,1,192.1875,2|0,1:2|0:0,0:0:0:0:
447,322,174689,1,2,1:2:0:0:
466,294,174761,1,2,1:2:0:0:
455,259,174832,2,0,P|409:263|360:265,1,64.0625,10|0,0:2|0:0,0:0:0:0:
188,345,174975,6,0,P|161:324|149:318,1,38.4375,2|0,1:2|0:0,0:0:0:0:
49,341,175261,1,0,1:0:0:0:
70,307,175332,1,0,0:0:0:0:
60,265,175403,5,14,0:2:0:0:
210,79,175546,1,2,0:2:0:0:
3,184,175689,1,2,0:2:0:0:
157,322,175832,1,2,1:2:0:0:
96,62,175975,1,10,0:2:0:0:
342,180,176118,6,0,P|434:164|502:159,1,128.125,2|0,1:2|0:0,0:0:0:0:
129,164,176403,2,0,P|37:180|-31:185,1,128.125,0|8,1:0|0:2,0:0:0:0:
344,314,176689,2,0,P|436:298|504:293,1,128.125
132,257,176975,2,0,P|67:268|20:271,1,64.0625,2|0,1:2|0:0,0:0:0:0:
332,95,177118,2,0,P|396:83|444:80,1,64.0625,10|0,0:2|0:0,0:0:0:0:
255,375,177261,6,0,B|245:309|219:253|219:253|233:201|244:133,1,192.1875,2|0,1:2|0:0,0:0:0:0:
320,187,177546,1,0,1:0:0:0:
255,36,177689,2,0,B|210:43|193:105|193:105|185:156|114:166,1,192.1875,10|0,0:2|0:0,0:0:0:0:
110,81,177975,1,2,0:2:0:0:
332,95,178118,1,2,1:2:0:0:
132,257,178261,1,10,0:2:0:0:
320,187,178403,6,0,B|381:203|404:214|404:214|419:145|455:99,1,192.1875,2|0,1:2|0:0,0:0:0:0:
404,43,178689,1,2,1:2:0:0:
233,190,178832,2,0,P|256:268|268:326,1,128.125,10|0,0:2|0:0,0:0:0:0:
489,364,179118,1,2,0:2:0:0:
511,326,179189,1,0,0:0:0:0:
497,283,179261,1,0,1:2:0:0:
265,313,179403,1,10,0:2:0:0:
441,117,179546,1,0,1:2:0:0:
357,366,179689,5,10,0:2:0:0:
332,95,179832,1,0,1:0:0:0:
194,370,179975,5,8,0:2:0:0:
215,67,180118,1,2,1:2:0:0:
96,316,180261,5,10,0:2:0:0:
48,328,180332,1,8,0:2:0:0:
2,340,180403,1,0,1:0:0:0:
101,153,180546,1,8,0:2:0:0:
217,249,180689,2,0,B|273:263|285:312|285:312|305:363|366:367,1,192.1875,2|0,1:2|0:0,0:0:0:0:
360,281,180975,1,0,1:0:0:0:
194,370,181118,1,10,0:2:0:0:
220,143,181261,1,0,1:0:0:0:
223,252,181403,1,2,0:2:0:0:
223,252,181475,1,0,0:0:0:0:
223,252,181546,6,0,P|159:264|120:278,1,64.0625,2|0,1:2|0:0,0:0:0:0:
220,143,181689,2,0,P|177:93|145:66,1,64.0625,0|0,1:0|0:0,0:0:0:0:
319,144,181832,2,0,P|340:82|347:41,1,64.0625,2|0,1:2|0:0,0:0:0:0:
360,281,181975,6,0,P|388:286|406:292,1,38.4375
499,138,182261,6,0,B|461:166|416:190|416:190|375:149|302:141,1,207.562500791788,14|0,0:2|0:0,0:0:0:0:
220,143,182546,1,2,1:2:0:0:
428,56,182689,1,2,0:2:0:0:
264,246,182832,2,0,P|252:309|249:330,2,69.1875002639294,8|0|2,0:2|0:0|0:2,0:0:0:0:
271,41,183118,5,0,1:0:0:0:
499,138,183261,1,0,0:0:0:0:
220,143,183403,1,8,0:2:0:0:
428,56,183546,1,0,0:0:0:0:
377,303,183689,1,0,1:0:0:0:
271,41,183832,5,2,0:2:0:0:
428,56,183975,1,10,0:2:0:0:
264,246,184118,6,0,B|207:244|184:305|184:305|163:357|86:353,1,207.562500791788,2|0,0:2|0:0,0:0:0:0:
109,262,184403,1,0,0:0:0:0:
377,303,184546,2,0,B|427:309|459:330|459:330|475:255|494:197,1,207.562500791788,10|0,0:2|0:0,0:0:0:0:
403,214,184832,5,2,1:2:0:0:
292,369,184975,1,2,0:2:0:0:
220,143,185118,1,10,0:2:0:0:
103,353,185261,1,2,0:2:0:0:
264,246,185403,5,0,1:0:0:0:
49,146,185546,1,0,0:0:0:0:
103,353,185689,1,8,0:2:0:0:
220,143,185832,1,0,0:0:0:0:
231,360,185975,1,0,1:0:0:0:
258,378,186046,1,8,0:2:0:0:
292,369,186118,1,0,0:0:0:0:
403,214,186261,2,0,P|419:131|437:64,1,138.375000527859,10|0,0:2|0:0,0:0:0:0:
185,25,186546,5,6,1:2:0:0:
392,5,186689,1,2,0:2:0:0:
220,143,186832,1,10,1:2:0:0:
286,0,186975,1,2,0:2:0:0:
320,204,187118,1,10,1:2:0:0:
185,25,187261,1,2,0:2:0:0:
185,265,187403,1,10,1:2:0:0:
334,90,187546,1,2,0:2:0:0:
68,91,187689,5,10,1:2:0:0:
320,204,187832,1,10,0:2:0:0:
33,181,187975,5,10,1:2:0:0:
256,384,188118,1,10,0:2:0:0:
220,132,188261,5,10,1:2:0:0:
194,95,188332,1,8,0:2:0:0:
194,50,188403,1,10,0:2:0:0:
231,16,188475,1,8,0:2:0:0:
280,12,188546,1,10,1:2:0:0:
322,40,188618,1,8,0:2:0:0:
334,90,188689,1,10,0:2:0:0:
364,137,188761,1,8,0:2:0:0:
417,152,188832,5,6,1:2:0:0:
492,83,188975,1,2,0:2:0:0:
449,250,189118,2,0,P|460:313|468:363,1,102.5,2|0,0:2|0:0,0:0:0:0:
320,204,189403,6,0,B|275:217|258:274|258:274|242:331|179:341,1,205,2|2,0:2|0:2,0:0:0:0:
159,218,189832,1,2,0:2:0:0:
324,343,189975,5,2,1:2:0:0:
364,137,190118,1,2,1:2:0:0:
182,340,190261,5,2,1:2:0:0:
160,87,190403,1,2,1:2:0:0:
390,238,190546,5,2,1:2:0:0:
434,223,190618,1,0,0:0:0:0:
474,237,190689,1,2,1:2:0:0:
493,282,190761,1,0,0:0:0:0:
493,282,190832,6,0,P|388:293|224:323,1,238.31250181818,10|0,0:2|0:0,0:0:0:0:
161,342,191118,5,14,0:2:0:0:
261,172,191261,1,2,1:2:0:0:
66,235,191403,1,10,0:2:0:0:
257,315,191546,1,2,1:2:0:0:
145,123,191689,1,10,0:2:0:0:
30,355,191832,1,2,1:2:0:0:
261,172,191975,1,10,0:2:0:0:
11,121,192118,1,2,1:2:0:0:
257,315,192261,5,12,0:2:0:0:
293,48,192403,1,2,1:2:0:0:
66,235,192546,1,10,0:2:0:0:
407,173,192689,1,2,1:2:0:0:
145,123,192832,5,10,0:2:0:0:
257,315,192975,1,2,1:2:0:0:
293,48,193118,1,10,0:2:0:0:
161,342,193261,2,0,P|149:257|146:236,1,69.1875002639294,2|0,1:2|0:0,0:0:0:0:
224,34,193403,5,14,0:2:0:0:
261,26,193475,1,8,0:2:0:0:
293,48,193546,1,10,0:2:0:0:
303,89,193618,1,8,0:2:0:0:
295,120,193689,2,0,P|235:136|182:154,1,69.1875002639294,10|8,0:2|0:2,0:0:0:0:
79,60,193832,5,10,0:2:0:0:
108,87,193903,1,8,0:2:0:0:
113,130,193975,1,10,0:2:0:0:
95,168,194046,1,8,0:2:0:0:
61,194,194118,1,10,0:2:0:0:
31,230,194189,1,8,0:2:0:0:
32,275,194261,1,10,0:2:0:0:
56,317,194332,1,8,0:2:0:0:
103,328,194403,2,0,P|192:308|228:302,1,69.1875002639294,10|8,0:2|0:2,0:0:0:0:
228,138,194546,5,14,0:2:0:0:
372,271,194689,5,2,1:2:0:0:
387,322,194761,1,0,0:0:0:0:
402,374,194832,1,10,0:2:0:0:
228,138,194975,5,2,1:2:0:0:
213,189,195047,1,0,0:0:0:0:
198,241,195118,1,10,0:2:0:0:
462,69,195261,5,2,1:2:0:0:
477,120,195333,1,0,0:0:0:0:
492,172,195403,1,10,0:2:0:0:
230,364,195546,5,10,0:2:0:0:
105,266,196118,5,0,1:0:0:0:
105,266,196189,1,0,1:0:0:0:
105,266,196261,2,0,B|18:192|-24:121|15:58|90:44|125:118|125:118|153:48|266:37|289:139|229:211|140:247|121:317,1,717.5,6|2,0:2|0:0,0:0:0:0:
