osu file format v14

[General]
AudioFilename: riryka.ogg
AudioLeadIn: 0
PreviewTime: 68048
Countdown: 0
SampleSet: Normal
StackLeniency: 0.7
Mode: 0
LetterboxInBreaks: 0
WidescreenStoryboard: 1

[Editor]
DistanceSpacing: 1
BeatDivisor: 4
GridSize: 4
TimelineZoom: 0.9999998

[Metadata]
Title:Hashiru Sekai to Bokura no Mirai (Short Ver.)
TitleUnicode:疾るセカイと僕らのミライ (Short Ver.)
Artist:Riryka
ArtistUnicode:Riryka
Creator:Lafayla
Version:Normal
Source:ミライセカイのプラネッタ
Tags:kanui terakomari Meis Clauson op Mirai Sekai no Planeta visual novel vn galgame opening eroge video game japanese pop angel note libre The planeta in the future world
BeatmapID:4542166
BeatmapSetID:2153960

[Difficulty]
HPDrainRate:3
CircleSize:3
OverallDifficulty:4
ApproachRate:5
SliderMultiplier:1.05
SliderTickRate:1

[Events]
//Background and Video events
0,0,"planeta.jpg",0,0
//Break Periods
//Storyboard Layer 0 (Background)
//Storyboard Layer 1 (Fail)
//Storyboard Layer 2 (Pass)
//Storyboard Layer 3 (Foreground)
//Storyboard Layer 4 (Overlay)
//Storyboard Sound Samples

[TimingPoints]
4360,400,4,2,1,45,1,0
17160,-100,4,2,1,45,0,0
29760,-100,4,2,1,50,0,0
42760,-100,4,2,1,55,0,0
65160,-100,4,2,1,60,0,0
68360,-100,4,1,1,70,0,1
80760,-100,4,1,1,70,0,0
81160,-100,4,1,1,70,0,1
93960,-100,4,1,1,70,0,0
97160,-100,4,1,1,40,0,0

[Colours]
Combo1 : 225,58,58
Combo2 : 53,9,206
Combo3 : 150,15,217
Combo4 : 255,126,40

[HitObjects]
96,72,17160,5,4,3:2:0:0:
114,280,17960,1,2,0:0:0:0:
322,262,18760,1,2,0:0:0:0:
304,53,19560,1,2,0:0:0:0:
128,168,20360,5,2,0:0:0:0:
128,168,21960,2,0,L|73:175,2,52.5,2|2|2,0:0|0:0|0:0,0:0:0:0:
179,159,22560,1,2,0:0:0:0:
283,151,22960,2,0,L|289:98,2,52.5,2|0|0,0:0|0:0|0:0,0:0:0:0:
311,195,23560,5,2,0:0:0:0:
117,277,24360,1,2,0:0:0:0:
320,327,25160,1,2,0:0:0:0:
234,135,25960,2,0,P|228:82|229:30,2,105,2|2|2,0:0|0:0|0:0,0:0:0:0:
83,343,27760,2,0,L|31:349,2,52.5,2|2|2,0:0|0:0|0:0,0:0:0:0:
335,93,29960,6,0,L|345:198,1,105,4|8,3:1|0:1,0:0:0:0:
351,249,30560,1,2,0:0:0:0:
294,337,30960,1,2,0:0:0:0:
202,285,31360,2,0,P|151:273|95:286,1,105,2|0,0:0|0:0,0:0:0:0:
52,291,31960,1,8,0:1:0:0:
52,291,32160,2,0,P|21:241|20:185,1,105,2|0,0:0|0:0,0:0:0:0:
22,143,32760,1,8,0:1:0:0:
54,43,33160,6,0,P|106:43|158:45,1,105,2|8,3:2|0:1,0:0:0:0:
211,51,33760,1,0,0:0:0:0:
294,114,34160,1,0,0:0:0:0:
376,49,34560,2,0,P|428:47|475:68,2,105,2|2|2,0:0|0:0|0:0,0:0:0:0:
381,101,35560,2,0,B|393:152|393:152|377:214,1,105,2|8,3:2|0:1,0:0:0:0:
276,216,36360,5,2,3:2:0:0:
182,181,36760,1,8,0:1:0:0:
182,181,36960,2,0,P|123:182|79:200,1,105,2|2,0:0|0:0,0:0:0:0:
34,293,37760,2,0,P|82:311|135:311,1,105,2|2,0:0|0:0,0:0:0:0:
187,308,38360,2,0,L|194:369,2,52.5,8|0|2,0:1|0:0|3:2,0:0:0:0:
225,210,39160,1,8,0:1:0:0:
136,153,39560,6,0,L|142:48,1,105,2|8,3:2|0:1,0:0:0:0:
188,22,40160,1,2,0:0:0:0:
258,99,40560,1,2,0:0:0:0:
352,52,40960,2,0,B|406:44|406:44|464:57,1,105,4|0,3:2|3:2,0:0:0:0:
501,90,41560,1,8,1:2:0:0:
501,90,41760,2,0,P|510:141|492:190,1,105,4|0,3:2|3:2,0:0:0:0:
449,220,42360,1,0,1:2:0:0:
352,179,42760,6,0,L|247:189,1,105,4|8,3:1|0:1,0:0:0:0:
217,232,43360,2,0,L|212:284,1,52.5,2|0,0:0|3:0,0:0:0:0:
212,336,43760,1,2,0:0:0:0:
312,367,44160,2,0,P|361:375|416:360,1,105,2|0,0:0|0:0,0:0:0:0:
456,330,44760,1,8,0:1:0:0:
397,242,45160,2,0,P|392:188|394:137,1,105,2|8,3:2|0:1,0:0:0:0:
447,46,45960,6,0,L|510:44,2,52.5,2|0|8,3:2|0:0|0:1,0:0:0:0:
406,12,46560,2,0,P|353:10|306:31,1,105,2|2,0:0|0:0,0:0:0:0:
281,133,47360,2,0,P|228:134|181:113,1,105,2|0,0:0|0:0,0:0:0:0:
141,78,47960,1,8,0:1:0:0:
41,45,48360,1,2,3:2:0:0:
1,142,48760,1,8,0:1:0:0:
86,202,49160,6,0,L|82:264,1,52.5,2|0,3:2|0:0,0:0:0:0:
85,310,49560,1,8,0:1:0:0:
85,310,49760,2,0,L|193:326,1,105,2|2,0:0|0:0,0:0:0:0:
292,343,50560,2,0,L|276:239,1,105,2|0,0:0|0:0,0:0:0:0:
266,187,51160,1,8,0:1:0:0:
180,126,51560,1,2,3:2:0:0:
233,35,51960,1,8,0:1:0:0:
335,57,52360,6,0,P|390:62|441:52,1,105,0|8,3:0|0:1,0:0:0:0:
490,43,52960,1,2,0:0:0:0:
506,146,53360,1,2,0:0:0:0:
405,177,53760,2,0,B|389:226|389:226|400:278,1,105,4|0,3:2|3:2,0:0:0:0:
352,285,54360,1,8,1:0:0:0:
352,285,54560,2,0,L|238:274,1,105,4|0,3:2|3:2,0:0:0:0:
195,268,55160,1,0,1:0:0:0:
235,170,55560,6,0,P|239:118|225:65,1,105,4|8,3:1|0:1,0:0:0:0:
179,42,56160,1,2,0:0:0:0:
75,22,56560,1,2,0:0:0:0:
10,104,56960,2,0,L|3:208,1,105,2|0,0:0|0:0,0:0:0:0:
59,217,57560,1,8,0:1:0:0:
59,217,57760,2,0,L|66:321,1,105,2|2,0:0|0:0,0:0:0:0:
81,371,58360,1,8,0:1:0:0:
179,335,58760,6,0,P|230:324|280:336,1,105,2|8,3:2|0:1,0:0:0:0:
330,352,59360,2,0,P|364:312|379:262,1,105,2|0,0:0|0:0,0:0:0:0:
401,217,59960,1,8,0:1:0:0:
401,217,60160,1,2,0:0:0:0:
303,177,60560,2,0,L|240:175,1,52.5,2|8,0:0|0:1,0:0:0:0:
201,156,60960,2,0,B|187:105|187:105|199:54,1,105,2|0,0:0|0:0,0:0:0:0:
233,14,61560,1,8,0:1:0:0:
332,48,61960,5,4,3:2:0:0:
436,20,62360,1,8,0:1:0:0:
436,20,62560,2,0,P|462:64|470:116,1,105,2|0,0:0|0:0,0:0:0:0:
467,169,63160,1,8,0:1:0:0:
425,264,63560,2,0,L|430:316,2,52.5,4|0|8,3:2|0:0|0:1,0:0:0:0:
374,250,64160,2,0,P|318:234|264:249,1,105,2|0,0:0|0:0,0:0:0:0:
246,290,64760,1,8,0:1:0:0:
141,303,65160,6,0,L|18:291,1,105,4|8,3:2|0:1,0:0:0:0:
8,248,65760,2,0,P|4:195|21:146,1,105,2|0,0:0|0:0,0:0:0:0:
51,104,66360,1,8,0:1:0:0:
51,104,66560,1,4,3:1:0:0:
157,105,66960,2,0,L|161:157,1,52.5,0|8,3:2|1:0,0:0:0:0:
165,209,67360,1,4,3:1:0:0:
269,219,67760,1,0,3:2:0:0:
416,163,68360,6,0,B|428:110|428:110|415:61,1,105,6|8,3:1|0:1,0:0:0:0:
370,34,68960,2,0,L|265:24,1,105,2|0,0:1|0:0,0:0:0:0:
237,68,69560,2,0,L|184:70,1,52.5,10|0,0:1|0:0,0:0:0:0:
133,57,69960,1,2,3:1:0:0:
34,39,70360,1,10,0:1:0:0:
34,39,70560,2,0,P|34:94|40:145,1,105,2|0,0:0|0:0,0:0:0:0:
60,191,71160,1,8,0:1:0:0:
138,260,71560,6,0,L|134:322,2,52.5,2|2|8,3:1|0:0|0:1,0:0:0:0:
178,226,72160,2,0,P|220:197|272:190,1,105,2|0,0:0|0:0,0:0:0:0:
325,194,72760,1,10,0:1:0:0:
419,149,73160,2,0,P|446:192|452:244,1,105,2|8,3:1|0:1,0:0:0:0:
487,283,73760,2,0,P|449:319|400:335,1,105,2|0,0:0|0:1,0:0:0:0:
347,340,74360,1,8,0:1:0:0:
243,359,74760,6,0,L|239:254,1,105,6|10,3:1|0:1,0:0:0:0:
209,210,75360,2,0,P|156:210|106:194,2,105,2|2|2,0:0|0:0|0:0,0:0:0:0:
257,191,76360,1,2,3:1:0:0:
365,181,76760,1,10,0:1:0:0:
365,181,76960,2,0,L|361:76,1,105,2|0,0:0|0:0,0:0:0:0:
343,26,77560,1,8,0:1:0:0:
243,60,77960,6,0,B|190:69|190:69|137:55,1,105,2|10,3:1|0:1,0:0:0:0:
96,27,78560,1,2,0:0:0:0:
14,92,78960,2,0,L|12:155,1,52.5,0|10,0:0|0:1,0:0:0:0:
58,168,79360,2,0,P|97:207|102:257,1,105,6|0,3:2|3:1,0:0:0:0:
116,310,79960,1,10,0:1:0:0:
116,310,80160,2,0,L|231:308,1,105,4|2,0:0|3:1,0:0:0:0:
270,326,80760,1,8,0:2:0:0:
347,255,81160,6,0,P|351:202|337:152,1,105,6|8,3:1|0:1,0:0:0:0:
316,104,81760,1,2,0:0:0:0:
408,51,82160,1,0,0:0:0:0:
408,51,82360,2,0,L|410:-12,2,52.5,8|2|2,0:1|0:0|3:1,0:0:0:0:
493,121,83160,1,10,0:1:0:0:
493,121,83360,2,0,L|486:225,1,105,2|0,0:0|0:0,0:0:0:0:
476,277,83960,1,8,0:1:0:0:
380,319,84360,6,0,L|317:313,1,52.5,2|0,3:1|0:0,0:0:0:0:
290,286,84760,1,8,0:1:0:0:
290,286,84960,2,0,P|238:291|196:322,1,105,2|0,0:0|0:0,0:0:0:0:
160,360,85560,1,10,0:1:0:0:
57,339,85960,2,0,B|43:288|43:288|55:237,1,105,2|10,3:1|0:1,0:0:0:0:
98,208,86560,2,0,B|112:157|112:157|100:106,1,105,2|0,0:0|0:0,0:0:0:0:
81,57,87160,1,8,0:1:0:0:
177,15,87560,6,0,P|230:17|289:25,1,105,6|8,3:1|0:1,0:0:0:0:
331,41,88160,1,2,0:1:0:0:
318,145,88560,1,2,0:0:0:0:
217,159,88960,1,2,0:0:0:0:
217,159,89160,2,0,P|193:205|200:260,1,105,6|10,3:1|0:1,0:0:0:0:
238,291,89760,2,0,P|289:297|342:291,1,105,2|0,0:0|0:0,0:0:0:0:
384,260,90360,1,8,0:1:0:0:
487,275,90760,6,0,L|492:152,1,105,6|8,3:1|0:1,0:0:0:0:
507,120,91360,2,0,L|384:125,1,105,2|2,0:0|0:0,0:0:0:0:
349,119,91960,2,0,L|344:171,1,52.5,8|2,0:1|0:0,0:0:0:0:
334,222,92360,1,6,3:1:0:0:
247,282,92760,1,8,0:1:0:0:
150,241,93160,2,0,L|98:246,2,52.5,10|8|10,0:2|0:2|3:1,0:0:0:0:
221,164,93960,1,6,3:1:0:0:
256,192,94160,12,2,97160,1:2:0:0:
