osu file format v14

[General]
AudioFilename: riryka.ogg
AudioLeadIn: 0
PreviewTime: 68048
Countdown: 0
SampleSet: Normal
StackLeniency: 0.7
Mode: 0
LetterboxInBreaks: 0
WidescreenStoryboard: 1

[Editor]
DistanceSpacing: 1.2
BeatDivisor: 4
GridSize: 8
TimelineZoom: 1

[Metadata]
Title:Hashiru Sekai to Bokura no Mirai (Short Ver.)
TitleUnicode:疾るセカイと僕らのミライ (Short Ver.)
Artist:Riryka
ArtistUnicode:Riryka
Creator:Lafayla
Version:Kanui's Insane
Source:ミライセカイのプラネッタ
Tags:kanui terakomari Meis Clauson op Mirai Sekai no Planeta visual novel vn galgame opening eroge video game japanese pop angel note libre The planeta in the future world
BeatmapID:4538703
BeatmapSetID:2153960

[Difficulty]
HPDrainRate:6
CircleSize:4
OverallDifficulty:7
ApproachRate:8
SliderMultiplier:1.8
SliderTickRate:1

[Events]
//Background and Video events
0,0,"planeta.jpg",0,0
//Break Periods
//Storyboard Layer 0 (Background)
//Storyboard Layer 1 (Fail)
//Storyboard Layer 2 (Pass)
//Storyboard Layer 3 (Foreground)
//Storyboard Layer 4 (Overlay)
//Storyboard Sound Samples

[TimingPoints]
4360,400,4,2,1,25,1,0
17160,-133.333333333333,4,2,1,45,0,0
23560,-133.333333333333,4,2,1,45,0,0
29960,-117.647058823529,4,2,1,50,0,0
42760,-117.647058823529,4,2,1,55,0,0
65160,-117.647058823529,4,2,1,60,0,0
68360,-100,4,1,1,70,0,1
80760,-100,4,1,1,70,0,0
81160,-100,4,1,1,70,0,1
93960,-100,4,1,1,70,0,0
97160,-100,4,1,1,40,0,0

[Colours]
Combo1 : 225,58,58
Combo2 : 53,9,206
Combo3 : 150,15,217
Combo4 : 255,126,40

[HitObjects]
256,192,15560,12,2,16760,0:0:0:0:
274,363,17160,5,4,3:2:0:0:
424,227,17960,1,0,0:0:0:0:
342,42,18760,1,2,0:0:0:0:
140,63,19560,1,0,0:0:0:0:
98,262,20360,1,2,0:0:0:0:
98,262,21960,5,2,0:0:0:0:
75,179,22160,1,2,0:0:0:0:
180,239,22360,1,2,0:0:0:0:
158,157,22560,1,2,0:0:0:0:
414,262,22960,5,2,0:0:0:0:
437,179,23160,1,0,0:0:0:0:
332,239,23360,1,0,0:0:0:0:
354,157,23560,6,0,P|360:84|341:14,1,135.000005149842,2|0,0:0|0:0,0:0:0:0:
256,4,24160,1,0,0:0:0:0:
166,24,24360,2,0,P|151:90|158:157,1,135.000005149842,2|0,0:0|0:0,0:0:0:0:
66,299,25160,6,0,B|108:305|138:281|138:281|151:306|184:320,1,135.000005149842,2|0,0:0|0:0,0:0:0:0:
256,272,25760,1,0,0:0:0:0:
330,319,25960,2,0,B|360:306|373:281|373:281|403:305|446:299,2,135.000005149842,2|2|2,0:0|0:0|0:0,0:0:0:0:
221,229,27760,5,2,0:0:0:0:
306,202,27960,1,2,0:0:0:0:
239,142,28160,1,2,0:0:0:0:
256,192,28360,12,0,29560,0:0:0:0:
204,61,29960,6,0,P|165:60|127:65,1,76.5000014591217,4|0,3:1|3:0,0:0:0:0:
78,136,30360,1,8,0:1:0:0:
134,203,30560,2,0,P|180:229|269:192,1,153.000002918243,2|0,0:0|0:0,0:0:0:0:
345,154,31160,2,0,P|352:189|346:234,1,76.5000014591217,8|0,0:1|0:0,0:0:0:0:
346,262,31460,1,2,0:0:0:0:
346,262,31560,6,0,L|442:247,1,76.5000014591217,2|0,3:2|0:0,0:0:0:0:
317,346,31960,2,0,L|221:331,1,76.5000014591217,8|0,0:1|0:0,0:0:0:0:
157,257,32360,2,0,L|253:242,1,76.5000014591217,0|0,3:0|0:0,0:0:0:0:
133,342,32760,2,0,L|37:327,1,76.5000014591217,8|0,0:1|0:0,0:0:0:0:
5,232,33160,6,0,P|-1:193|0:155,1,76.5000014591217,2|0,3:2|0:0,0:0:0:0:
57,87,33560,1,8,0:1:0:0:
134,131,33760,2,0,B|207:141|207:141|228:109|276:103,1,153.000002918243,2|0,0:0|0:0,0:0:0:0:
281,196,34360,2,0,B|326:190|347:158|347:158|420:168,1,153.000002918243,8|0,0:1|3:0,0:0:0:0:
481,115,34960,1,2,0:0:0:0:
449,37,35160,6,0,P|406:42|362:64,1,76.5000014591217,8|0,0:1|0:0,0:0:0:0:
300,97,35560,1,0,3:0:0:0:
212,97,35760,1,0,0:0:0:0:
135,54,35960,2,0,P|99:40|62:37,1,76.5000014591217,8|0,0:1|0:0,0:0:0:0:
15,116,36360,6,0,B|17:157|37:178|37:178|10:217|20:277,1,153.000002918243,2|8,3:2|0:1,0:0:0:0:
92,308,36960,2,0,P|136:302|172:275,1,76.5000014591217,2|0,0:0|3:0,0:0:0:0:
184,199,37360,2,0,P|156:162|115:145,1,76.5000014591217,2|8,0:0|0:1,0:0:0:0:
243,261,37760,6,0,P|323:262|411:260,1,153.000002918243,2|0,0:0|0:0,0:0:0:0:
488,296,38360,2,0,P|486:253|489:212,1,76.5000014591217,8|0,0:1|0:0,0:0:0:0:
493,126,38760,1,2,3:2:0:0:
413,158,38960,1,0,0:0:0:0:
425,72,39160,1,8,0:1:0:0:
493,126,39360,1,0,0:0:0:0:
397,176,39560,6,0,P|359:181|309:176,1,76.5000014591217,2|0,3:2|0:0,0:0:0:0:
240,134,39960,1,8,0:1:0:0:
167,186,40160,2,0,P|172:237|172:271,1,76.5000014591217,2|0,0:0|3:0,0:0:0:0:
272,332,40560,2,0,P|267:281|267:247,1,76.5000014591217,2|8,0:0|0:1,0:0:0:0:
80,152,40960,6,0,P|73:238|88:313,1,153.000002918243,4|0,3:2|3:2,0:0:0:0:
172,262,41560,1,8,1:2:0:0:
354,351,41760,2,0,P|361:275|349:199,1,153.000002918243,4|0,3:2|3:2,0:0:0:0:
309,117,42360,1,0,1:0:0:0:
303,98,42460,1,0,1:0:0:0:
301,79,42560,1,0,1:0:0:0:
303,60,42660,1,0,1:0:0:0:
308,42,42760,6,0,P|349:38|392:36,1,76.5000014591217,4|0,3:1|0:0,0:0:0:0:
462,76,43160,1,8,0:1:0:0:
409,153,43360,2,0,B|387:237,1,76.5000014591217,2|0,0:0|3:0,0:0:0:0:
305,237,43760,2,0,L|326:329,1,76.5000014591217,2|8,0:0|0:1,0:0:0:0:
245,357,44160,5,2,0:0:0:0:
245,357,44260,1,2,0:0:0:0:
245,357,44360,2,0,P|190:351|149:350,1,76.5000014591217,2|0,3:2|0:0,0:0:0:0:
75,272,44760,2,0,P|113:267|152:265,1,76.5000014591217,8|0,0:1|0:0,0:0:0:0:
213,196,45160,1,2,3:2:0:0:
213,196,45360,1,0,0:0:0:0:
152,118,45560,2,0,P|113:116|75:111,1,76.5000014591217,8|0,0:1|0:0,0:0:0:0:
168,33,45960,6,0,P|207:31|245:27,1,76.5000014591217,2|0,3:2|0:0,0:0:0:0:
333,19,46360,1,8,0:1:0:0:
333,19,46560,2,0,P|337:77|329:98,1,76.5000014591217,2|0,0:0|3:0,0:0:0:0:
301,171,46960,2,0,P|342:179|386:184,1,76.5000014591217,2|8,0:0|0:1,0:0:0:0:
455,148,47360,5,2,0:0:0:0:
455,148,47460,1,2,0:0:0:0:
455,148,47560,2,0,P|458:192|468:240,1,76.5000014591217,2|0,3:2|0:0,0:0:0:0:
452,314,47960,1,8,0:1:0:0:
371,353,48160,1,0,0:0:0:0:
290,336,48360,2,0,P|247:335|203:346,1,76.5000014591217,2|0,3:2|0:0,0:0:0:0:
214,341,48660,1,2,0:0:0:0:
214,341,48760,2,0,P|210:302|204:265,1,76.5000014591217,8|2,0:1|0:0,0:0:0:0:
269,192,49160,5,0,3:0:0:0:
353,179,49360,1,0,0:0:0:0:
375,97,49560,1,8,0:1:0:0:
300,42,49760,2,0,P|284:90|285:128,1,76.5000014591217,2|0,0:0|3:0,0:0:0:0:
198,151,50160,2,0,P|195:112|181:77,1,76.5000014591217,2|8,0:0|0:1,0:0:0:0:
110,20,50560,5,2,0:0:0:0:
110,20,50660,1,2,0:0:0:0:
110,20,50760,2,0,B|75:65|101:113|101:113|82:144|92:183,1,153.000002918243,2|8,3:2|0:1,0:0:0:0:
151,231,51360,1,0,0:0:0:0:
244,234,51560,1,0,3:0:0:0:
308,166,51760,2,0,P|351:162|402:164,1,76.5000014591217,2|8,0:0|0:1,0:0:0:0:
474,190,52160,1,0,0:0:0:0:
445,279,52360,6,0,L|454:365,2,76.5000014591217,0|0|8,3:0|0:0|0:1,0:0:0:0:
358,254,52960,2,0,L|384:174,1,76.5000014591217,2|0,0:0|3:0,0:0:0:0:
339,100,53360,2,0,L|425:68,1,76.5000014591217,2|8,0:0|0:1,0:0:0:0:
256,23,53760,6,0,B|251:58|217:89|217:89|249:121|245:178,1,153.000002918243,4|0,3:2|3:2,0:0:0:0:
248,233,54360,1,8,1:0:0:0:
84,199,54560,2,0,B|89:164|123:133|123:133|91:101|95:44,1,153.000002918243,4|0,3:2|3:2,0:0:0:0:
116,43,55060,1,0,1:0:0:0:
139,23,55160,1,0,1:0:0:0:
167,10,55260,1,0,1:0:0:0:
197,6,55360,1,0,1:0:0:0:
228,10,55460,1,0,1:0:0:0:
256,23,55560,1,4,3:1:0:0:
330,87,55760,6,0,P|374:88|414:73,1,76.5000014591217,2|8,0:0|0:1,0:0:0:0:
271,171,56160,2,0,P|308:177|341:196,1,76.5000014591217,2|0,0:0|3:0,0:0:0:0:
420,253,56560,1,2,0:0:0:0:
420,253,56660,1,2,0:0:0:0:
420,253,56760,1,8,0:1:0:0:
330,317,56960,6,0,B|266:317|266:317|241:309|241:309|166:309,1,153.000002918243,2|0,0:0|0:0,0:0:0:0:
103,246,57560,1,8,0:1:0:0:
45,316,57760,1,2,0:0:0:0:
118,378,57960,1,0,3:0:0:0:
178,309,58160,1,2,0:0:0:0:
178,309,58260,1,2,0:0:0:0:
178,309,58360,2,0,P|180:270|180:232,1,76.5000014591217,8|0,0:1|0:0,0:0:0:0:
180,133,58760,6,0,P|121:120|20:127,1,153.000002918243,2|8,3:2|0:1,0:0:0:0:
22,233,59360,2,0,P|96:247|172:241,1,153.000002918243,2|0,0:0|0:0,0:0:0:0:
260,189,59960,1,8,0:1:0:0:
356,158,60160,1,0,0:0:0:0:
451,190,60360,6,0,L|465:276,1,76.5000014591217,2|0,3:2|0:0,0:0:0:0:
361,250,60760,2,0,L|347:336,1,76.5000014591217,8|0,0:1|0:0,0:0:0:0:
356,158,61160,1,2,3:2:0:0:
279,110,61360,1,2,0:0:0:0:
279,110,61460,1,2,0:0:0:0:
279,110,61560,2,0,L|268:30,1,76.5000014591217,8|0,0:1|0:0,0:0:0:0:
142,124,61960,6,0,P|111:172|165:264,1,153.000002918243,4|8,3:2|0:1,0:0:0:0:
227,289,62560,2,0,P|180:343|99:332,1,153.000002918243,2|0,0:0|0:0,0:0:0:0:
47,275,63160,1,8,0:1:0:0:
47,275,63360,1,0,0:0:0:0:
89,133,63560,5,4,3:2:0:0:
13,186,63760,1,0,0:0:0:0:
120,223,63960,2,0,P|163:221|202:215,1,76.5000014591217,8|0,0:1|0:0,0:0:0:0:
281,167,64360,1,2,3:2:0:0:
376,202,64560,1,2,0:0:0:0:
376,202,64660,1,2,0:0:0:0:
376,202,64760,2,0,P|421:214|457:231,1,76.5000014591217,8|0,0:1|0:0,0:0:0:0:
497,82,65160,6,0,B|444:78|444:78|420:126|357:111,1,153.000002918243,4|8,3:2|0:1,0:0:0:0:
238,56,65760,2,0,B|291:60|291:60|315:12|375:25,1,153.000002918243,2|0,0:0|0:0,0:0:0:0:
358,111,66360,1,8,0:1:0:0:
251,224,66560,6,0,P|251:297|257:388,1,153.000002918243,4|0,3:1|3:2,0:0:0:0:
251,224,67160,1,8,1:0:0:0:
150,348,67360,2,0,P|152:304|149:258,1,76.5000014591217,4|0,3:1|0:0,0:0:0:0:
150,348,67760,1,0,3:2:0:0:
243,147,68160,5,0,0:0:0:0:
243,147,68360,2,2,P|291:142|340:127,1,90,6|0,3:1|0:0,0:1:0:0:
408,67,68760,1,8,0:1:0:0:
480,144,68960,1,2,0:1:0:0:
401,205,69160,1,0,3:0:0:0:
480,144,69360,1,0,0:0:0:0:
331,130,69560,2,2,P|319:175|320:224,1,90,10|0,0:1|0:0,0:1:0:0:
241,300,69960,6,2,L|150:288,1,90,2|0,3:1|0:0,0:1:0:0:
52,213,70360,2,0,L|140:194,1,90,10|2,0:1|0:0,0:0:0:0:
232,157,70760,1,0,3:0:0:0:
226,58,70960,1,0,0:0:0:0:
131,31,71160,1,8,0:1:0:0:
82,120,71360,5,2,0:0:0:0:
82,120,71460,1,0,0:0:0:0:
82,120,71560,1,2,3:1:0:0:
139,194,71760,2,2,P|152:241|150:294,1,90,2|8,0:0|0:1,0:0:0:0:
244,340,72160,2,2,P|244:295|256:252,1,90,2|0,0:0|3:0,0:0:0:0:
298,174,72560,1,0,0:0:0:0:
380,127,72760,1,10,0:1:0:0:
473,151,72960,1,0,0:0:0:0:
512,242,73160,5,2,3:1:0:0:
512,242,73360,2,2,L|494:352,1,90,2|8,0:0|0:1,0:0:0:0:
400,318,73760,1,2,0:0:0:0:
400,318,73960,2,0,L|415:223,1,90,0|0,3:0|0:0,0:0:0:0:
473,151,74360,1,8,0:1:0:0:
368,64,74560,5,2,0:0:0:0:
368,64,74660,1,0,0:0:0:0:
368,64,74760,2,2,B|323:79|278:54|278:54|243:147,1,180,6|10,3:1|0:1,0:0:0:0:
165,226,75360,2,2,B|120:211|75:236|75:236|40:143,1,180,2|0,0:0|0:0,0:0:0:0:
66,78,75960,1,8,0:1:0:0:
187,135,76160,5,2,0:0:0:0:
187,135,76260,1,0,0:0:0:0:
187,135,76360,2,2,P|188:208|184:330,1,180,2|10,3:1|0:1,0:0:0:0:
376,266,76960,2,2,P|375:199|382:73,1,180,2|0,0:0|0:0,0:0:0:0:
275,145,77560,2,0,L|286:237,1,90,8|0,0:1|0:0,0:0:0:0:
285,234,77860,1,0,0:0:0:0:
285,234,77960,1,2,3:1:0:0:
91,348,78360,5,10,0:1:0:0:
22,291,78560,2,2,P|11:241|22:193,1,90,2|0,0:0|3:0,0:0:0:0:
59,124,78960,1,0,0:0:0:0:
135,164,79160,1,10,0:1:0:0:
241,84,79360,6,2,B|319:70|340:108|426:95,1,180,6|0,3:2|3:1,0:0:0:0:
376,17,79960,1,10,0:1:0:0:
278,176,80160,2,0,B|200:162|179:200|93:187,1,180,4|0,3:2|3:0,0:0:0:0:
42,267,80760,1,8,0:2:0:0:
37,288,80860,1,8,1:2:0:0:
38,311,80960,1,8,1:2:0:0:
44,332,81060,1,8,1:2:0:0:
56,352,81160,1,6,3:1:0:0:
149,380,81360,5,0,0:0:0:0:
244,344,81560,1,8,0:1:0:0:
288,260,81760,2,2,P|332:257|374:272,1,90,2|0,0:0|3:0,0:0:0:0:
228,175,82160,2,0,P|186:190|141:187,2,90,2|8|2,0:0|0:1|0:0,0:0:0:0:
259,82,82760,1,2,3:1:0:0:
337,20,82960,1,0,0:0:0:0:
432,40,83160,2,2,P|433:91|431:134,1,90,10|0,0:1|0:0,0:0:0:0:
488,196,83560,2,0,P|464:249|441:289,1,90,0|0,3:0|0:0,0:0:0:0:
386,339,83960,1,8,0:1:0:0:
259,311,84160,5,2,0:0:0:0:
259,311,84260,1,0,0:0:0:0:
259,311,84360,2,2,P|242:269|244:224,1,90,2|0,3:1|0:0,0:0:0:0:
285,147,84760,1,8,0:1:0:0:
285,147,84960,2,2,P|241:138|197:150,1,90,2|0,0:0|3:0,0:0:0:0:
110,192,85360,1,0,0:0:0:0:
38,132,85560,1,10,0:1:0:0:
121,88,85760,1,0,0:0:0:0:
110,192,85960,5,2,3:1:0:0:
110,192,86160,1,0,0:0:0:0:
198,149,86360,2,2,P|242:137|286:146,1,90,10|0,0:1|0:0,0:0:0:0:
375,193,86760,2,0,P|418:201|462:190,1,90,0|0,3:0|0:0,0:0:0:0:
352,301,87160,1,8,0:1:0:0:
245,225,87360,5,2,0:0:0:0:
245,225,87460,1,0,0:0:0:0:
245,225,87560,2,2,P|224:166|254:38,1,180,6|10,3:1|0:1,0:1:0:0:
351,128,88160,2,2,P|371:186|342:314,1,180,2|0,0:1|0:0,0:0:0:0:
283,375,88760,1,8,0:1:0:0:
185,362,88960,1,2,0:0:0:0:
155,226,89160,6,2,B|80:222|80:222|81:296|12:315,1,180,6|10,3:1|0:1,0:0:0:0:
84,133,89760,2,2,B|156:136|156:136|155:62|204:51,1,180,2|0,0:0|0:0,0:0:0:0:
294,20,90360,1,8,0:1:0:0:
409,90,90560,5,2,0:0:0:0:
409,90,90660,1,0,0:0:0:0:
409,90,90760,2,2,P|456:82|499:69,1,90,6|0,3:1|0:0,0:0:0:0:
359,198,91160,1,8,0:1:0:0:
359,198,91360,2,2,P|312:190|269:177,1,90,2|4,0:0|3:2,0:0:0:0:
189,93,91760,1,2,0:0:0:0:
101,172,91960,1,8,0:1:0:0:
183,257,92160,1,2,0:0:0:0:
271,177,92360,6,2,B|257:253|291:290|279:358,1,180,6|8,3:1|0:1,0:0:0:0:
171,384,92960,1,2,1:0:0:0:
69,330,93160,1,2,3:1:0:0:
49,302,93260,1,8,0:2:0:0:
37,271,93360,1,8,0:2:0:0:
33,237,93460,1,8,0:2:0:0:
37,204,93560,6,0,L|86:192,1,45,10|0,0:1|1:0,0:0:0:0:
156,211,93760,2,0,L|196:181,1,45,2|0,3:1|1:0,0:0:0:0:
292,103,93960,1,6,3:1:0:0:
256,192,94060,12,2,97160,1:2:0:0:
