osu file format v14

[General]
AudioFilename: audio.mp3
AudioLeadIn: 0
PreviewTime: 55625
Countdown: 0
SampleSet: Normal
StackLeniency: 0.7
Mode: 1
LetterboxInBreaks: 0
WidescreenStoryboard: 1

[Editor]
Bookmarks: 1325,14125,26925,55725,81325,100525,103725,129325,154925,167725,180525,206125,225325,231725,254125,264125,266925,282925,289125
DistanceSpacing: 1.6
BeatDivisor: 8
GridSize: 32
TimelineZoom: 0.899999

[Metadata]
Title:Shitsuren Song Takusan Kiite Naite bakari no Watashi wa Mou.
TitleUnicode:失恋ソング沢山聴いて 泣いてばかりの私はもう。
Artist:riria.
ArtistUnicode:りりあ。
Creator:Zhuosh
Version:Futsuu.
Source:サマータイムレンダ
Tags:japanese pop jpop j-pop anime ending theme 2nd ed summertime summer time rendering female vocalist shitsurensongtakusankiitenaitebakarinowatashihamou shitsurensongtakusankiitenaitebakarinowatashiwamou
BeatmapID:4549462
BeatmapSetID:2157739

[Difficulty]
HPDrainRate:6
CircleSize:2
OverallDifficulty:4
ApproachRate:10
SliderMultiplier:1.4
SliderTickRate:1

[Events]
//Background and Video events
0,0,"bg.jpg",0,100
//Break Periods
2,11125,13675
//Storyboard Layer 0 (Background)
//Storyboard Layer 1 (Fail)
//Storyboard Layer 2 (Pass)
//Storyboard Layer 3 (Foreground)
//Storyboard Layer 4 (Overlay)
//Storyboard Sound Samples

[TimingPoints]
1325,800,4,1,0,40,1,0
1325,-66.6666666666667,4,1,0,40,0,0
55725,-66.6666666666667,4,1,0,60,0,1
80525,-66.6666666666667,4,1,0,60,0,0
81325,-66.6666666666667,4,1,0,60,0,1
100525,-66.6666666666667,4,1,0,40,0,0
103725,-66.6666666666667,4,1,0,50,0,0
122925,-66.6666666666667,4,1,0,45,0,0
129325,-66.6666666666667,4,1,0,40,0,0
177325,-66.6666666666667,4,1,0,40,0,0
177725,-66.6666666666667,4,1,0,41,0,0
178125,-66.6666666666667,4,1,0,43,0,0
178525,-66.6666666666667,4,1,0,44,0,0
178725,-66.6666666666667,4,1,0,45,0,0
178925,-66.6666666666667,4,1,0,46,0,0
179325,-66.6666666666667,4,1,0,47,0,0
179725,-66.6666666666667,4,1,0,49,0,0
179858,-66.6666666666667,4,1,0,49,0,0
179991,-66.6666666666667,4,1,0,50,0,0
180125,-66.6666666666667,4,1,0,50,0,0
180525,-66.6666666666667,4,1,0,60,0,1
205325,-66.6666666666667,4,1,0,60,0,0
206125,-66.6666666666667,4,1,0,60,0,1
225325,-66.6666666666667,4,1,0,50,0,0
228525,-66.6666666666667,4,1,0,50,0,0
228925,-66.6666666666667,4,1,0,51,0,0
229325,-66.6666666666667,4,1,0,53,0,0
229725,-66.6666666666667,4,1,0,54,0,0
230125,-66.6666666666667,4,1,0,55,0,0
230525,-66.6666666666667,4,1,0,56,0,0
230925,-66.6666666666667,4,1,0,58,0,0
231125,-66.6666666666667,4,1,0,58,0,0
231325,-66.6666666666667,4,1,0,59,0,0
231525,-66.6666666666667,4,1,0,59,0,0
231725,-66.6666666666667,4,1,0,60,0,1
242525,-66.6666666666667,4,1,0,60,0,0
244525,-66.6666666666667,4,1,0,60,0,1
254125,-66.6666666666667,4,1,0,40,0,0
264125,-66.6666666666667,4,1,0,50,0,1
266525,-66.6666666666667,4,1,0,50,0,0
266925,-66.6666666666667,4,1,0,60,0,1
272525,-66.6666666666667,4,1,0,60,0,0
273325,-66.6666666666667,4,1,0,60,0,1
282925,-66.6666666666667,4,1,0,60,0,0
283025,-66.6666666666667,4,1,0,40,0,0
286125,-66.6666666666667,4,1,0,40,0,0
286325,-66.6666666666667,4,1,0,42,0,0
286525,-66.6666666666667,4,1,0,44,0,0
286725,-66.6666666666667,4,1,0,46,0,0
286925,-66.6666666666667,4,1,0,48,0,0
287125,-66.6666666666667,4,1,0,50,0,0
287325,-66.6666666666667,4,1,0,52,0,0
287525,-66.6666666666667,4,1,0,54,0,0
287725,-66.6666666666667,4,1,0,56,0,0
287925,-66.6666666666667,4,1,0,58,0,0
288125,-66.6666666666667,4,1,0,60,0,0
288325,-66.6666666666667,4,1,0,62,0,0
288525,-66.6666666666667,4,1,0,64,0,0
288725,-66.6666666666667,4,1,0,66,0,0
288925,-66.6666666666667,4,1,0,68,0,0
289125,-66.6666666666667,4,1,0,70,0,0

[HitObjects]
256,191,1325,5,8,0:0:0:0:
256,191,1725,1,0,0:0:0:0:
256,191,1925,1,8,0:0:0:0:
256,191,2525,1,8,0:0:0:0:
256,191,2725,1,0,0:0:0:0:
256,191,3325,1,0,0:0:0:0:
256,191,3525,1,8,0:0:0:0:
256,191,4125,1,8,0:0:0:0:
256,191,4325,1,0,0:0:0:0:
256,191,4925,1,0,0:0:0:0:
256,191,5125,1,8,0:0:0:0:
256,191,5725,1,8,0:0:0:0:
256,191,5991,1,8,0:0:0:0:
256,191,6925,1,0,0:0:0:0:
256,191,7225,1,8,0:0:0:0:
256,191,7525,1,8,0:0:0:0:
256,191,7725,1,0,0:0:0:0:
256,191,8125,1,8,0:0:0:0:
256,191,8391,1,0,0:0:0:0:
256,191,8925,1,0,0:0:0:0:
256,191,9325,1,8,0:0:0:0:
256,191,9725,1,0,0:0:0:0:
256,191,10125,1,8,0:0:0:0:
256,191,10525,1,8,0:0:0:0:
256,191,10925,1,0,0:0:0:0:
256,191,14125,5,8,0:0:0:0:
255,191,14525,1,0,0:0:0:0:
255,191,14725,1,8,0:0:0:0:
256,191,15325,1,8,0:0:0:0:
256,191,15525,1,0,0:0:0:0:
255,191,16125,1,0,0:0:0:0:
255,191,16325,1,8,0:0:0:0:
256,191,16925,1,8,0:0:0:0:
255,191,17125,1,8,0:0:0:0:
255,191,17325,1,0,0:0:0:0:
256,191,17725,1,0,0:0:0:0:
256,191,17925,1,8,0:0:0:0:
256,191,18525,1,8,0:0:0:0:
256,191,18791,1,0,0:0:0:0:
256,191,19725,1,8,0:0:0:0:
256,191,20025,1,8,0:0:0:0:
256,191,20325,1,8,0:0:0:0:
256,191,20525,1,0,0:0:0:0:
256,191,21325,1,8,0:0:0:0:
256,191,21625,1,0,0:0:0:0:
256,191,21925,1,0,0:0:0:0:
256,191,22125,1,8,0:0:0:0:
256,191,22525,1,8,0:0:0:0:
256,191,22725,1,0,0:0:0:0:
256,191,23125,1,0,0:0:0:0:
256,191,23325,1,8,0:0:0:0:
256,191,23525,1,8,0:0:0:0:
256,191,23725,1,0,0:0:0:0:
256,191,25325,1,0,0:0:0:0:
256,191,25725,1,0,0:0:0:0:
256,191,26125,1,8,0:0:0:0:
256,191,26525,1,8,0:0:0:0:
256,191,26925,1,0,0:0:0:0:
255,191,27325,1,8,0:0:0:0:
256,191,27525,1,8,0:0:0:0:
256,191,27925,1,0,0:0:0:0:
256,191,28125,1,8,0:0:0:0:
256,191,28325,1,0,0:0:0:0:
256,191,28925,1,0,0:0:0:0:
256,191,29125,1,8,0:0:0:0:
256,191,29725,1,0,0:0:0:0:
256,191,30125,1,8,0:0:0:0:
256,191,30325,1,0,0:0:0:0:
256,191,30525,1,0,0:0:0:0:
256,191,30925,1,8,0:0:0:0:
256,191,31325,1,0,0:0:0:0:
256,191,31591,1,8,0:0:0:0:
256,191,32125,1,8,0:0:0:0:
256,191,32391,1,0,0:0:0:0:
256,191,32925,1,8,0:0:0:0:
256,191,33325,1,0,0:0:0:0:
256,191,34125,1,0,0:0:0:0:
256,191,34525,1,8,0:0:0:0:
256,191,34925,1,8,0:0:0:0:
256,191,35325,1,0,0:0:0:0:
256,191,35525,1,8,0:0:0:0:
256,191,36125,1,0,0:0:0:0:
256,191,36525,1,8,0:0:0:0:
256,191,36725,1,0,0:0:0:0:
256,191,36925,1,0,0:0:0:0:
256,191,37325,1,8,0:0:0:0:
256,191,38125,1,0,0:0:0:0:
256,191,38925,1,8,0:0:0:0:
256,191,39725,1,0,0:0:0:0:
256,191,40125,1,0,0:0:0:0:
256,191,40525,1,8,0:0:0:0:
256,191,40925,1,0,0:0:0:0:
256,191,41325,1,8,0:0:0:0:
256,191,41725,1,0,0:0:0:0:
256,191,41925,1,8,0:0:0:0:
256,191,42525,1,0,0:0:0:0:
256,191,42925,1,8,0:0:0:0:
256,191,43125,1,0,0:0:0:0:
256,191,43325,1,0,0:0:0:0:
256,191,43925,1,8,0:0:0:0:
256,191,44125,1,0,0:0:0:0:
256,191,44325,1,0,0:0:0:0:
256,191,44525,1,8,0:0:0:0:
255,191,44925,1,0,0:0:0:0:
256,191,45191,1,8,0:0:0:0:
255,191,45725,1,8,0:0:0:0:
255,191,46125,1,0,0:0:0:0:
256,191,46925,1,0,0:0:0:0:
256,191,47325,1,0,0:0:0:0:
256,191,47725,1,8,0:0:0:0:
256,191,48125,1,0,0:0:0:0:
256,191,48525,1,8,0:0:0:0:
256,191,48925,1,8,0:0:0:0:
256,191,49325,1,0,0:0:0:0:
256,191,49525,1,0,0:0:0:0:
256,191,49725,1,0,0:0:0:0:
256,191,50125,1,8,0:0:0:0:
256,191,50525,1,0,0:0:0:0:
256,191,50725,1,0,0:0:0:0:
256,191,50925,1,8,0:0:0:0:
256,191,51325,1,0,0:0:0:0:
256,191,51725,1,8,0:0:0:0:
256,191,51925,1,0,0:0:0:0:
256,191,52125,1,0,0:0:0:0:
256,191,52325,1,8,0:0:0:0:
256,191,52925,1,4,0:0:0:0:
256,191,53325,1,4,0:0:0:0:
256,191,53725,1,12,0:0:0:0:
256,191,54125,1,12,0:0:0:0:
256,191,54925,1,8,0:0:0:0:
256,191,55191,1,0,0:0:0:0:
256,191,55325,1,0,0:0:0:0:
255,191,55725,1,12,0:0:0:0:
256,191,56525,1,8,0:0:0:0:
256,191,56925,1,0,0:0:0:0:
256,191,57325,1,8,0:0:0:0:
256,191,57525,1,8,0:0:0:0:
256,191,57725,1,0,0:0:0:0:
256,191,57925,1,0,0:0:0:0:
256,191,58125,1,8,0:0:0:0:
256,191,58525,1,8,0:0:0:0:
256,191,58925,1,0,0:0:0:0:
256,191,59325,1,0,0:0:0:0:
256,191,59525,1,0,0:0:0:0:
256,191,59725,1,8,0:0:0:0:
256,191,60125,1,0,0:0:0:0:
256,191,60925,1,8,0:0:0:0:
256,191,61325,1,0,0:0:0:0:
256,191,61725,1,8,0:0:0:0:
256,191,62125,1,0,0:0:0:0:
255,191,62325,1,0,0:0:0:0:
255,191,62525,1,8,0:0:0:0:
255,191,62925,1,8,0:0:0:0:
255,191,63125,1,8,0:0:0:0:
255,191,63325,1,0,0:0:0:0:
255,191,63725,1,8,0:0:0:0:
255,191,64125,1,0,0:0:0:0:
255,191,64525,1,8,0:0:0:0:
255,191,64725,1,0,0:0:0:0:
255,191,64925,1,8,0:0:0:0:
255,191,65125,1,8,0:0:0:0:
255,191,65325,1,0,0:0:0:0:
256,191,65725,1,0,0:0:0:0:
256,191,66125,1,8,0:0:0:0:
256,191,66325,1,0,0:0:0:0:
256,191,66525,1,12,0:0:0:0:
256,191,66925,1,0,0:0:0:0:
256,191,67125,1,8,0:0:0:0:
256,191,67325,1,0,0:0:0:0:
256,191,68125,1,0,0:0:0:0:
256,191,68325,1,0,0:0:0:0:
256,191,68525,1,8,0:0:0:0:
256,191,68925,1,0,0:0:0:0:
256,191,69325,1,8,0:0:0:0:
256,191,69525,1,8,0:0:0:0:
256,191,69725,1,0,0:0:0:0:
256,191,70525,1,0,0:0:0:0:
256,191,70925,1,8,0:0:0:0:
256,191,71325,1,0,0:0:0:0:
255,191,71525,1,8,0:0:0:0:
256,191,71725,1,0,0:0:0:0:
255,191,72125,1,8,0:0:0:0:
255,191,72525,1,0,0:0:0:0:
255,191,72725,1,0,0:0:0:0:
255,191,72925,1,8,0:0:0:0:
255,191,73725,1,0,0:0:0:0:
255,191,74125,1,8,0:0:0:0:
256,191,74525,1,8,0:0:0:0:
256,191,74725,1,8,0:0:0:0:
256,191,74925,1,0,0:0:0:0:
255,191,75325,1,0,0:0:0:0:
255,191,75725,1,8,0:0:0:0:
255,191,76125,1,0,0:0:0:0:
255,191,76725,1,8,0:0:0:0:
255,191,76925,1,0,0:0:0:0:
255,191,77325,1,8,0:0:0:0:
255,191,77725,1,0,0:0:0:0:
255,191,77925,1,8,0:0:0:0:
255,191,78125,1,0,0:0:0:0:
255,191,78525,1,0,0:0:0:0:
255,191,78725,1,0,0:0:0:0:
255,191,78925,1,8,0:0:0:0:
255,191,79325,1,8,0:0:0:0:
255,191,79925,1,0,0:0:0:0:
255,191,80125,1,8,0:0:0:0:
255,191,80525,1,8,0:0:0:0:
255,191,80791,1,0,0:0:0:0:
255,191,80924,1,0,0:0:0:0:
255,191,81325,1,12,0:0:0:0:
256,191,82125,1,8,0:0:0:0:
256,191,82525,1,0,0:0:0:0:
256,191,82925,1,8,0:0:0:0:
256,191,83125,1,8,0:0:0:0:
256,191,83325,1,0,0:0:0:0:
256,191,83525,1,0,0:0:0:0:
256,191,83725,1,8,0:0:0:0:
256,191,84125,1,8,0:0:0:0:
256,191,84525,1,0,0:0:0:0:
256,191,84925,1,0,0:0:0:0:
256,191,85125,1,0,0:0:0:0:
256,191,85325,1,8,0:0:0:0:
256,191,85725,1,0,0:0:0:0:
256,191,86525,1,8,0:0:0:0:
256,191,86925,1,0,0:0:0:0:
256,191,87325,1,0,0:0:0:0:
256,191,87725,1,8,0:0:0:0:
256,191,87925,1,8,0:0:0:0:
256,191,88125,1,0,0:0:0:0:
256,191,88525,1,8,0:0:0:0:
256,191,88925,1,0,0:0:0:0:
256,191,89125,1,0,0:0:0:0:
256,191,89325,1,8,0:0:0:0:
256,191,89725,1,0,0:0:0:0:
256,191,90125,1,8,0:0:0:0:
256,191,90325,1,0,0:0:0:0:
256,191,90525,1,8,0:0:0:0:
256,191,90725,1,8,0:0:0:0:
256,191,90925,1,0,0:0:0:0:
256,191,91325,1,0,0:0:0:0:
256,191,91725,1,8,0:0:0:0:
256,191,91925,1,0,0:0:0:0:
255,191,92125,1,12,0:0:0:0:
255,191,92525,1,0,0:0:0:0:
255,191,92725,1,8,0:0:0:0:
255,191,92925,1,0,0:0:0:0:
256,191,93725,1,8,0:0:0:0:
256,191,93925,1,8,0:0:0:0:
255,191,94125,1,0,0:0:0:0:
256,191,94525,1,8,0:0:0:0:
256,191,94925,1,0,0:0:0:0:
256,191,95125,1,0,0:0:0:0:
256,191,95325,1,8,0:0:0:0:
255,191,96125,1,0,0:0:0:0:
255,191,96525,1,8,0:0:0:0:
255,191,96725,1,0,0:0:0:0:
255,191,97125,1,8,0:0:0:0:
256,191,97325,1,8,0:0:0:0:
256,191,97725,1,0,0:0:0:0:
256,191,97925,1,8,0:0:0:0:
255,191,98125,1,0,0:0:0:0:
256,191,98325,1,0,0:0:0:0:
256,191,98525,1,12,0:0:0:0:
256,191,99125,1,8,0:0:0:0:
256,191,99325,1,0,0:0:0:0:
256,191,99725,1,8,0:0:0:0:
256,191,100125,1,8,0:0:0:0:
256,191,100325,1,8,0:0:0:0:
256,191,100525,1,0,0:0:0:0:
256,191,102125,1,0,0:0:0:0:
256,191,103325,1,0,0:0:0:0:
256,191,103725,1,12,0:0:0:0:
256,191,104125,1,0,0:0:0:0:
255,191,104525,1,8,0:0:0:0:
255,191,104725,1,8,0:0:0:0:
255,191,104925,1,0,0:0:0:0:
255,191,105725,1,8,0:0:0:0:
255,191,106325,1,8,0:0:0:0:
255,191,106525,1,0,0:0:0:0:
255,191,106925,1,8,0:0:0:0:
255,191,107325,1,0,0:0:0:0:
255,191,107725,1,8,0:0:0:0:
255,191,107925,1,8,0:0:0:0:
255,191,108125,1,0,0:0:0:0:
256,191,108725,1,8,0:0:0:0:
256,191,108925,1,0,0:0:0:0:
256,191,109325,1,8,0:0:0:0:
256,191,109725,1,0,0:0:0:0:
256,191,109925,1,0,0:0:0:0:
256,191,110125,1,8,0:0:0:0:
256,191,110525,1,0,0:0:0:0:
256,191,110925,1,8,0:0:0:0:
256,191,111125,1,0,0:0:0:0:
256,191,111325,1,8,0:0:0:0:
256,191,112125,1,0,0:0:0:0:
256,191,112525,1,8,0:0:0:0:
256,191,112725,1,8,0:0:0:0:
256,191,112925,1,0,0:0:0:0:
256,191,113125,1,8,0:0:0:0:
256,191,113325,1,0,0:0:0:0:
256,191,113725,1,8,0:0:0:0:
256,191,113925,1,0,0:0:0:0:
256,191,114125,1,8,0:0:0:0:
256,191,114525,1,4,0:0:0:0:
256,191,115125,1,8,0:0:0:0:
256,191,115325,1,0,0:0:0:0:
256,191,115725,1,8,0:0:0:0:
256,191,115925,1,8,0:0:0:0:
256,191,116125,1,0,0:0:0:0:
256,191,116525,1,12,0:0:0:0:
256,191,116925,1,0,0:0:0:0:
256,191,117325,1,0,0:0:0:0:
256,191,117525,1,0,0:0:0:0:
256,191,117725,1,8,0:0:0:0:
256,191,118125,1,8,0:0:0:0:
256,191,118325,1,0,0:0:0:0:
256,191,118725,1,8,0:0:0:0:
256,191,118925,1,0,0:0:0:0:
256,191,119325,1,8,0:0:0:0:
256,191,119725,1,0,0:0:0:0:
256,191,120125,1,0,0:0:0:0:
256,191,120325,1,0,0:0:0:0:
256,191,120525,1,8,0:0:0:0:
256,191,120725,1,0,0:0:0:0:
256,191,120925,1,12,0:0:0:0:
256,191,121725,1,0,0:0:0:0:
256,191,122125,1,8,0:0:0:0:
256,191,122325,1,8,0:0:0:0:
256,191,122525,1,0,0:0:0:0:
256,191,122925,1,12,0:0:0:0:
255,191,123725,1,0,0:0:0:0:
255,191,124125,1,8,0:0:0:0:
255,191,124925,1,8,0:0:0:0:
255,191,125325,1,0,0:0:0:0:
255,191,125725,1,0,0:0:0:0:
255,191,126125,1,12,0:0:0:0:
255,191,128525,1,8,0:0:0:0:
255,191,129325,1,4,0:0:0:0:
256,191,129725,1,8,0:0:0:0:
256,191,129925,1,0,0:0:0:0:
256,191,130525,1,0,0:0:0:0:
256,191,130725,1,8,0:0:0:0:
256,191,131325,1,8,0:0:0:0:
256,191,131525,1,0,0:0:0:0:
256,191,132125,1,8,0:0:0:0:
256,191,132325,1,8,0:0:0:0:
255,191,132525,1,0,0:0:0:0:
256,191,132925,1,8,0:0:0:0:
256,191,133125,1,0,0:0:0:0:
256,191,133525,1,8,0:0:0:0:
256,191,133725,1,0,0:0:0:0:
256,191,133925,1,8,0:0:0:0:
256,191,134925,1,8,0:0:0:0:
256,191,135225,1,8,0:0:0:0:
256,191,135525,1,8,0:0:0:0:
256,191,135725,1,0,0:0:0:0:
256,191,136125,1,8,0:0:0:0:
256,191,136391,1,0,0:0:0:0:
256,191,136925,1,8,0:0:0:0:
256,191,137725,1,0,0:0:0:0:
256,191,138125,1,8,0:0:0:0:
256,191,138525,1,8,0:0:0:0:
256,191,138925,1,0,0:0:0:0:
256,191,139725,1,8,0:0:0:0:
256,191,140125,1,0,0:0:0:0:
256,191,140525,1,8,0:0:0:0:
256,191,141325,1,8,0:0:0:0:
256,191,141725,1,8,0:0:0:0:
256,191,142125,1,0,0:0:0:0:
256,191,142525,1,8,0:0:0:0:
256,191,142725,1,0,0:0:0:0:
256,191,143325,1,0,0:0:0:0:
256,191,143525,1,8,0:0:0:0:
256,191,144125,1,8,0:0:0:0:
256,191,144325,1,0,0:0:0:0:
256,191,144925,1,8,0:0:0:0:
256,191,145125,1,8,0:0:0:0:
256,191,145325,1,0,0:0:0:0:
256,191,145725,1,8,0:0:0:0:
256,191,145925,1,0,0:0:0:0:
256,191,146525,1,8,0:0:0:0:
256,191,146791,1,8,0:0:0:0:
256,191,147725,1,8,0:0:0:0:
256,191,148025,1,8,0:0:0:0:
256,191,148325,1,8,0:0:0:0:
256,191,148525,1,0,0:0:0:0:
256,191,149325,1,8,0:0:0:0:
256,191,149625,1,0,0:0:0:0:
256,191,149925,1,0,0:0:0:0:
256,191,150125,1,8,0:0:0:0:
256,191,150525,1,8,0:0:0:0:
256,191,150725,1,0,0:0:0:0:
256,191,151125,1,0,0:0:0:0:
256,191,151325,1,8,0:0:0:0:
256,191,151525,1,8,0:0:0:0:
256,191,151725,1,0,0:0:0:0:
256,191,152525,1,8,0:0:0:0:
256,191,152925,1,0,0:0:0:0:
256,191,153325,1,8,0:0:0:0:
256,191,154125,1,0,0:0:0:0:
256,191,154525,1,0,0:0:0:0:
256,191,154925,1,8,0:0:0:0:
256,191,157725,1,8,0:0:0:0:
256,191,158125,1,0,0:0:0:0:
256,191,159725,1,8,0:0:0:0:
256,191,161325,1,0,0:0:0:0:
255,191,162925,1,8,0:0:0:0:
255,191,164525,1,8,0:0:0:0:
255,191,165325,1,0,0:0:0:0:
255,191,166125,1,8,0:0:0:0:
255,191,166925,1,8,0:0:0:0:
255,191,167725,1,4,0:0:0:0:
255,191,168125,1,8,0:0:0:0:
255,191,168325,1,8,0:0:0:0:
255,191,168925,1,0,0:0:0:0:
255,191,169325,1,8,0:0:0:0:
255,191,169725,1,8,0:0:0:0:
255,191,169991,1,0,0:0:0:0:
256,191,170525,1,0,0:0:0:0:
255,191,170925,1,8,0:0:0:0:
255,191,171325,1,8,0:0:0:0:
255,191,171525,1,0,0:0:0:0:
255,191,171925,1,0,0:0:0:0:
255,191,172125,1,8,0:0:0:0:
255,191,172325,1,8,0:0:0:0:
255,191,172525,1,0,0:0:0:0:
255,191,172925,1,8,0:0:0:0:
255,191,173125,1,8,0:0:0:0:
255,191,173525,1,0,0:0:0:0:
255,191,173725,1,8,0:0:0:0:
255,191,174125,1,0,0:0:0:0:
256,191,174925,1,0,0:0:0:0:
256,191,175325,1,0,0:0:0:0:
255,191,175525,1,8,0:0:0:0:
255,191,175725,1,0,0:0:0:0:
255,191,176125,1,0,0:0:0:0:
255,191,176525,1,8,0:0:0:0:
255,191,176925,1,0,0:0:0:0:
255,191,177325,1,8,0:0:0:0:
255,191,177725,1,8,0:0:0:0:
255,191,178125,1,8,0:0:0:0:
255,191,178525,1,8,0:0:0:0:
255,191,178925,1,8,0:0:0:0:
255,191,179325,1,8,0:0:0:0:
256,191,179725,1,8,0:0:0:0:
255,191,179991,1,0,0:0:0:0:
255,191,180125,1,0,0:0:0:0:
256,191,180525,1,12,0:0:0:0:
256,191,181325,1,8,0:0:0:0:
256,191,181725,1,0,0:0:0:0:
256,191,182125,1,8,0:0:0:0:
255,191,182325,1,0,0:0:0:0:
256,191,182525,1,8,0:0:0:0:
256,191,182725,1,8,0:0:0:0:
256,191,182925,1,0,0:0:0:0:
256,191,183325,1,8,0:0:0:0:
256,191,183725,1,0,0:0:0:0:
256,191,184125,1,0,0:0:0:0:
256,191,184325,1,0,0:0:0:0:
256,191,184525,1,8,0:0:0:0:
256,191,184925,1,0,0:0:0:0:
256,191,185725,1,8,0:0:0:0:
256,191,186125,1,0,0:0:0:0:
256,191,186525,1,8,0:0:0:0:
256,191,186925,1,0,0:0:0:0:
256,191,187125,1,8,0:0:0:0:
256,191,187325,1,0,0:0:0:0:
255,191,187725,1,8,0:0:0:0:
255,191,187925,1,0,0:0:0:0:
255,191,188125,1,8,0:0:0:0:
255,191,188525,1,0,0:0:0:0:
255,191,188925,1,8,0:0:0:0:
255,191,189325,1,0,0:0:0:0:
255,191,189525,1,0,0:0:0:0:
255,191,189725,1,8,0:0:0:0:
255,191,189925,1,8,0:0:0:0:
255,191,190125,1,0,0:0:0:0:
256,191,190525,1,8,0:0:0:0:
256,191,190925,1,0,0:0:0:0:
256,191,191125,1,0,0:0:0:0:
256,191,191325,1,12,0:0:0:0:
256,191,191725,1,0,0:0:0:0:
256,191,191925,1,8,0:0:0:0:
256,191,192125,1,0,0:0:0:0:
256,191,192525,1,8,0:0:0:0:
256,191,192725,1,8,0:0:0:0:
256,191,193125,1,0,0:0:0:0:
256,191,193325,1,8,0:0:0:0:
256,191,193725,1,0,0:0:0:0:
256,191,194125,1,8,0:0:0:0:
256,191,194325,1,0,0:0:0:0:
256,191,194525,1,8,0:0:0:0:
256,191,195325,1,8,0:0:0:0:
256,191,195725,1,0,0:0:0:0:
256,191,196125,1,0,0:0:0:0:
255,191,196325,1,8,0:0:0:0:
256,191,196525,1,8,0:0:0:0:
255,191,196925,1,0,0:0:0:0:
255,191,197325,1,8,0:0:0:0:
255,191,197525,1,0,0:0:0:0:
255,191,197725,1,0,0:0:0:0:
255,191,198325,1,8,0:0:0:0:
255,191,198525,1,0,0:0:0:0:
256,191,198925,1,0,0:0:0:0:
256,191,199325,1,8,0:0:0:0:
256,191,199525,1,8,0:0:0:0:
256,191,199725,1,8,0:0:0:0:
255,191,200125,1,0,0:0:0:0:
255,191,200525,1,8,0:0:0:0:
255,191,200925,1,0,0:0:0:0:
256,191,201325,1,0,0:0:0:0:
255,191,201525,1,0,0:0:0:0:
255,191,201725,1,8,0:0:0:0:
255,191,202125,1,8,0:0:0:0:
255,191,202325,1,8,0:0:0:0:
255,191,202525,1,0,0:0:0:0:
255,191,202925,1,8,0:0:0:0:
255,191,203525,1,0,0:0:0:0:
255,191,203725,1,8,0:0:0:0:
256,191,204125,1,0,0:0:0:0:
255,191,204725,1,0,0:0:0:0:
256,191,204925,1,8,0:0:0:0:
256,191,205125,1,8,0:0:0:0:
255,191,205325,1,0,0:0:0:0:
255,191,205591,1,8,0:0:0:0:
255,191,205725,1,8,0:0:0:0:
255,191,206125,1,12,0:0:0:0:
256,191,206925,1,8,0:0:0:0:
256,191,207325,1,0,0:0:0:0:
256,191,207725,1,8,0:0:0:0:
256,191,207925,1,0,0:0:0:0:
256,191,208125,1,8,0:0:0:0:
256,191,208325,1,8,0:0:0:0:
256,191,208525,1,0,0:0:0:0:
256,191,208925,1,8,0:0:0:0:
256,191,209325,1,0,0:0:0:0:
256,191,209725,1,0,0:0:0:0:
256,191,209925,1,0,0:0:0:0:
256,191,210125,1,8,0:0:0:0:
256,191,210525,1,0,0:0:0:0:
256,191,211325,1,8,0:0:0:0:
256,191,211725,1,0,0:0:0:0:
256,191,212125,1,0,0:0:0:0:
256,191,212525,1,8,0:0:0:0:
256,191,212725,1,0,0:0:0:0:
256,191,212925,1,8,0:0:0:0:
256,191,213325,1,0,0:0:0:0:
256,191,213725,1,8,0:0:0:0:
256,191,213925,1,8,0:0:0:0:
256,191,214125,1,0,0:0:0:0:
256,191,214525,1,8,0:0:0:0:
256,191,214925,1,0,0:0:0:0:
256,191,215125,1,0,0:0:0:0:
256,191,215325,1,8,0:0:0:0:
256,191,215525,1,8,0:0:0:0:
256,191,215725,1,0,0:0:0:0:
256,191,216125,1,8,0:0:0:0:
256,191,216525,1,0,0:0:0:0:
256,191,216725,1,0,0:0:0:0:
255,191,216925,1,12,0:0:0:0:
255,191,217325,1,0,0:0:0:0:
255,191,217525,1,8,0:0:0:0:
255,191,217725,1,0,0:0:0:0:
255,191,218125,1,8,0:0:0:0:
255,191,218325,1,8,0:0:0:0:
256,191,218725,1,0,0:0:0:0:
255,191,218925,1,8,0:0:0:0:
256,191,219325,1,0,0:0:0:0:
256,191,219725,1,8,0:0:0:0:
256,191,219925,1,0,0:0:0:0:
256,191,220125,1,8,0:0:0:0:
255,191,220925,1,0,0:0:0:0:
255,191,221325,1,8,0:0:0:0:
256,191,221525,1,0,0:0:0:0:
256,191,221925,1,8,0:0:0:0:
256,191,222125,1,8,0:0:0:0:
256,191,222525,1,0,0:0:0:0:
256,191,222725,1,8,0:0:0:0:
256,191,222925,1,0,0:0:0:0:
256,191,223125,1,0,0:0:0:0:
256,191,223325,1,12,0:0:0:0:
256,191,223925,1,8,0:0:0:0:
256,191,224125,1,0,0:0:0:0:
256,191,224525,1,8,0:0:0:0:
256,191,224925,1,8,0:0:0:0:
256,191,225125,1,8,0:0:0:0:
256,191,225325,1,4,0:0:0:0:
256,191,226125,1,8,0:0:0:0:
256,191,226525,1,8,0:0:0:0:
256,191,226925,1,4,0:0:0:0:
256,191,227725,1,0,0:0:0:0:
256,191,228525,1,12,0:0:0:0:
256,191,228925,1,0,0:0:0:0:
256,191,229325,1,0,0:0:0:0:
256,191,229725,1,0,0:0:0:0:
256,191,230125,1,8,0:0:0:0:
256,191,230525,1,0,0:0:0:0:
256,191,230925,1,8,0:0:0:0:
256,191,231125,1,8,0:0:0:0:
256,191,231325,1,0,0:0:0:0:
256,191,231525,1,0,0:0:0:0:
256,191,231725,1,12,0:0:0:0:
256,191,232125,1,0,0:0:0:0:
256,191,232525,1,8,0:0:0:0:
256,191,232925,1,8,0:0:0:0:
256,191,233125,1,8,0:0:0:0:
256,191,233325,1,0,0:0:0:0:
256,191,233525,1,8,0:0:0:0:
256,191,233725,1,0,0:0:0:0:
255,191,234125,1,8,0:0:0:0:
255,191,234525,1,8,0:0:0:0:
255,191,234725,1,8,0:0:0:0:
255,191,234925,1,0,0:0:0:0:
255,191,235325,1,0,0:0:0:0:
255,191,235725,1,8,0:0:0:0:
256,191,236125,1,0,0:0:0:0:
255,191,236725,1,8,0:0:0:0:
255,191,236925,1,0,0:0:0:0:
256,191,237125,1,0,0:0:0:0:
255,191,237325,1,8,0:0:0:0:
256,191,237725,1,8,0:0:0:0:
256,191,237925,1,8,0:0:0:0:
256,191,238125,1,0,0:0:0:0:
256,191,238525,1,8,0:0:0:0:
256,191,238725,1,0,0:0:0:0:
256,191,239125,1,0,0:0:0:0:
256,191,239325,1,8,0:0:0:0:
256,191,239725,1,0,0:0:0:0:
256,191,240525,1,8,0:0:0:0:
255,191,240925,1,8,0:0:0:0:
256,191,241125,1,0,0:0:0:0:
256,191,241325,1,12,0:0:0:0:
256,191,241725,1,0,0:0:0:0:
256,191,242125,1,8,0:0:0:0:
256,191,242325,1,8,0:0:0:0:
256,191,242525,1,4,0:0:0:0:
256,191,243125,1,8,0:0:0:0:
256,191,243325,1,0,0:0:0:0:
256,191,243725,1,8,0:0:0:0:
256,191,244125,1,0,0:0:0:0:
256,191,244525,1,12,0:0:0:0:
255,191,244925,1,0,0:0:0:0:
255,191,245325,1,8,0:0:0:0:
255,191,245525,1,0,0:0:0:0:
255,191,245725,1,8,0:0:0:0:
255,191,246125,1,0,0:0:0:0:
255,191,246325,1,0,0:0:0:0:
255,191,246525,1,8,0:0:0:0:
255,191,246725,1,8,0:0:0:0:
255,191,246925,1,0,0:0:0:0:
256,191,247525,1,0,0:0:0:0:
256,191,247725,1,8,0:0:0:0:
256,191,248125,1,8,0:0:0:0:
256,191,248325,1,0,0:0:0:0:
256,191,248725,1,0,0:0:0:0:
256,191,248925,1,12,0:0:0:0:
256,191,249525,1,8,0:0:0:0:
256,191,249725,1,0,0:0:0:0:
256,191,250125,1,8,0:0:0:0:
256,191,250525,1,8,0:0:0:0:
256,191,250725,1,8,0:0:0:0:
256,191,250925,1,0,0:0:0:0:
256,191,251325,1,0,0:0:0:0:
256,191,251725,1,8,0:0:0:0:
256,191,252125,1,0,0:0:0:0:
256,191,252325,1,0,0:0:0:0:
256,191,252525,1,8,0:0:0:0:
256,191,252925,1,0,0:0:0:0:
256,191,253125,1,8,0:0:0:0:
256,191,253525,1,0,0:0:0:0:
256,191,253925,1,8,0:0:0:0:
256,191,254125,1,4,0:0:0:0:
255,191,256125,1,8,0:0:0:0:
255,191,256525,1,0,0:0:0:0:
255,191,257325,1,8,0:0:0:0:
255,191,258925,1,0,0:0:0:0:
255,191,260525,1,8,0:0:0:0:
255,191,260725,1,0,0:0:0:0:
256,191,260925,1,8,0:0:0:0:
256,191,261325,1,0,0:0:0:0:
256,191,261725,1,8,0:0:0:0:
256,191,262125,1,0,0:0:0:0:
256,191,262525,1,0,0:0:0:0:
256,191,262925,1,8,0:0:0:0:
255,191,263325,1,8,0:0:0:0:
255,191,263525,1,8,0:0:0:0:
256,191,264125,1,12,0:0:0:0:
256,191,264525,1,0,0:0:0:0:
256,191,264725,1,12,0:0:0:0:
256,191,265125,1,0,0:0:0:0:
256,191,265325,1,12,0:0:0:0:
256,191,265725,1,8,0:0:0:0:
256,191,265925,1,8,0:0:0:0:
256,191,266125,1,4,0:0:0:0:
256,191,266525,1,0,0:0:0:0:
256,191,266925,1,12,0:0:0:0:
255,191,267325,1,0,0:0:0:0:
256,191,267525,1,0,0:0:0:0:
255,191,267725,1,8,0:0:0:0:
255,191,267925,1,8,0:0:0:0:
255,191,268125,1,0,0:0:0:0:
255,191,268525,1,8,0:0:0:0:
255,191,268925,1,0,0:0:0:0:
255,191,269325,1,8,0:0:0:0:
255,191,269525,1,0,0:0:0:0:
255,191,269725,1,8,0:0:0:0:
255,191,269925,1,8,0:0:0:0:
255,191,270125,1,0,0:0:0:0:
256,191,270525,1,0,0:0:0:0:
256,191,270725,1,8,0:0:0:0:
256,191,270925,1,0,0:0:0:0:
256,191,271125,1,0,0:0:0:0:
256,191,271325,1,12,0:0:0:0:
256,191,271725,1,8,0:0:0:0:
256,191,271925,1,0,0:0:0:0:
256,191,272125,1,8,0:0:0:0:
256,191,272525,1,8,0:0:0:0:
256,191,272791,1,0,0:0:0:0:
256,191,272925,1,0,0:0:0:0:
256,191,273325,1,12,0:0:0:0:
256,191,274125,1,8,0:0:0:0:
256,191,274525,1,0,0:0:0:0:
256,191,274925,1,0,0:0:0:0:
256,191,275125,1,8,0:0:0:0:
256,191,275325,1,0,0:0:0:0:
256,191,275725,1,8,0:0:0:0:
256,191,276125,1,8,0:0:0:0:
256,191,276325,1,8,0:0:0:0:
256,191,276525,1,0,0:0:0:0:
256,191,276925,1,8,0:0:0:0:
256,191,277125,1,8,0:0:0:0:
256,191,277325,1,0,0:0:0:0:
256,191,277525,1,0,0:0:0:0:
256,191,277725,1,12,0:0:0:0:
256,191,278525,1,8,0:0:0:0:
256,191,278925,1,0,0:0:0:0:
256,191,279325,1,8,0:0:0:0:
256,191,279525,1,8,0:0:0:0:
256,191,279725,1,4,0:0:0:0:
256,191,280125,1,0,0:0:0:0:
256,191,280525,1,0,0:0:0:0:
256,191,280725,1,8,0:0:0:0:
256,191,280925,1,0,0:0:0:0:
256,191,281125,1,0,0:0:0:0:
256,191,281325,1,8,0:0:0:0:
256,191,281725,1,8,0:0:0:0:
256,191,281925,1,8,0:0:0:0:
256,191,282125,1,0,0:0:0:0:
256,191,282325,1,0,0:0:0:0:
256,191,282525,1,8,0:0:0:0:
256,191,282925,1,8,0:0:0:0:
256,191,286125,1,0,0:0:0:0:
256,191,286525,1,8,0:0:0:0:
256,191,286725,1,8,0:0:0:0:
256,191,286925,1,0,0:0:0:0:
256,191,287325,1,8,0:0:0:0:
256,191,287525,1,8,0:0:0:0:
256,191,287725,1,0,0:0:0:0:
256,191,288125,1,8,0:0:0:0:
256,191,288325,1,0,0:0:0:0:
256,191,288525,1,8,0:0:0:0:
256,191,288725,1,0,0:0:0:0:
256,191,288925,1,0,0:0:0:0:
256,191,289125,1,8,0:0:0:0:
