osu file format v14

[General]
AudioFilename: audio.mp3
AudioLeadIn: 0
PreviewTime: 55300
Countdown: 0
SampleSet: Soft
StackLeniency: 0.7
Mode: 3
LetterboxInBreaks: 0
SpecialStyle: 0
WidescreenStoryboard: 0

[Editor]
DistanceSpacing: 1.5
BeatDivisor: 4
GridSize: 4
TimelineZoom: 1.3

[Metadata]
Title:Shitsuren Song Takusan Kiite Naite bakari no Watashi wa Mou. (TV Size)
TitleUnicode:失恋ソング沢山聴いて 泣いてばかりの私はもう。 (TV Size)
Artist:Riria.
ArtistUnicode:りりあ。
Creator:Kibitz
Version:Stay With Me, Don't Let Go
Source:サマータイムレンダ
Tags:summer summertime time render rendering tv theme song ending ed 2nd 2 2ndED テーマ TVアニメ アニメ japanese anime pop j-pop toy's factory toys Shitsurensongtakusankiitenaitebakarinowatashihamou jpop female vocal vocalist shinpei ajiro ushio mio kofune hizuru minakata froskya revialink muse dash
BeatmapID:4017175
BeatmapSetID:1942086

[Difficulty]
HPDrainRate:8
CircleSize:4
OverallDifficulty:8
ApproachRate:5
SliderMultiplier:1.4
SliderTickRate:1

[Events]
//Background and Video events
Video,-167,"Summertime.m4v"
0,0,"Summertime.jpeg",0,0
//Break Periods
//Storyboard Layer 0 (Background)
//Storyboard Layer 1 (Fail)
//Storyboard Layer 2 (Pass)
//Storyboard Layer 3 (Foreground)
//Storyboard Layer 4 (Overlay)
//Storyboard Sound Samples

[TimingPoints]
1000,800,4,2,1,40,1,0
55400,-100,4,2,1,40,0,1
81000,-100,4,2,1,40,0,0

[HitObjects]
320,192,800,5,0,0:0:0:0:
192,192,900,1,0,0:0:0:0:
448,192,1000,1,0,0:0:0:0:
64,192,1000,128,0,1400:0:0:0:0:
320,192,1200,1,0,0:0:0:0:
192,192,1400,128,0,1600:0:0:0:0:
448,192,1600,128,0,2200:0:0:0:0:
192,192,1800,1,0,0:0:0:0:
64,192,2000,1,0,0:0:0:0:
320,192,2200,128,0,2400:0:0:0:0:
64,192,2400,128,0,2600:0:0:0:0:
192,192,2600,1,0,0:0:0:0:
320,192,2800,1,0,0:0:0:0:
192,192,3000,128,0,3200:0:0:0:0:
448,192,3200,128,0,3800:0:0:0:0:
320,192,3400,1,0,0:0:0:0:
192,192,3600,1,0,0:0:0:0:
64,192,3800,128,0,4200:0:0:0:0:
320,192,4000,128,0,4200:0:0:0:0:
192,192,4200,128,0,4600:0:0:0:0:
448,192,4200,1,0,0:0:0:0:
64,192,4400,1,0,0:0:0:0:
320,192,4600,128,0,4800:0:0:0:0:
448,192,4800,128,0,5400:0:0:0:0:
64,192,5000,1,0,0:0:0:0:
320,192,5200,1,0,0:0:0:0:
192,192,5400,128,0,5600:0:0:0:0:
64,192,5600,128,0,6000:0:0:0:0:
320,192,5800,1,0,0:0:0:0:
448,192,6000,1,0,0:0:0:0:
192,192,6200,1,0,0:0:0:0:
320,192,6400,1,0,0:0:0:0:
448,192,6600,128,0,7000:0:0:0:0:
64,192,6900,128,0,7300:0:0:0:0:
192,192,7100,128,0,7300:0:0:0:0:
320,192,7200,1,0,0:0:0:0:
448,192,7300,1,0,0:0:0:0:
64,192,7400,128,0,8000:0:0:0:0:
192,192,7400,1,0,0:0:0:0:
320,192,7600,1,0,0:0:0:0:
192,192,7800,128,0,8000:0:0:0:0:
448,192,8000,128,0,8400:0:0:0:0:
320,192,8200,1,0,0:0:0:0:
192,192,8400,1,0,0:0:0:0:
448,192,8600,128,0,9000:0:0:0:0:
320,192,8800,1,0,0:0:0:0:
192,192,9000,128,0,9400:0:0:0:0:
64,192,9000,1,0,0:0:0:0:
448,192,9200,1,0,0:0:0:0:
320,192,9400,128,0,9800:0:0:0:0:
192,192,9600,1,0,0:0:0:0:
448,192,9800,128,0,10600:0:0:0:0:
64,192,10000,1,0,0:0:0:0:
320,192,10200,128,0,10600:0:0:0:0:
192,192,10400,1,0,0:0:0:0:
192,192,10600,1,0,0:0:0:0:
64,192,10600,128,0,11000:0:0:0:0:
320,192,10800,1,0,0:0:0:0:
448,192,11000,1,0,0:0:0:0:
192,192,11200,1,0,0:0:0:0:
320,192,11400,1,0,0:0:0:0:
64,192,11600,1,0,0:0:0:0:
448,192,11800,1,0,0:0:0:0:
192,192,12000,1,0,0:0:0:0:
320,192,12200,128,0,13400:0:0:0:0:
64,192,12400,1,0,0:0:0:0:
448,192,12600,1,0,0:0:0:0:
192,192,12800,1,0,0:0:0:0:
448,192,13000,1,0,0:0:0:0:
64,192,13200,1,0,0:0:0:0:
192,192,13400,128,0,13800:0:0:0:0:
64,192,13600,128,0,13800:0:0:0:0:
448,192,13800,128,0,14200:0:0:0:0:
320,192,13800,128,0,14000:0:0:0:0:
192,192,14200,128,0,14400:0:0:0:0:
320,192,14400,128,0,15000:0:0:0:0:
64,192,14600,1,0,0:0:0:0:
448,192,14800,1,0,0:0:0:0:
64,192,15000,128,0,15200:0:0:0:0:
448,192,15200,128,0,15800:0:0:0:0:
192,192,15400,1,0,0:0:0:0:
64,192,15400,1,0,0:0:0:0:
320,192,15600,1,0,0:0:0:0:
192,192,15800,128,0,16000:0:0:0:0:
320,192,16000,128,0,16600:0:0:0:0:
448,192,16200,1,0,0:0:0:0:
64,192,16400,1,0,0:0:0:0:
192,192,16600,128,0,16800:0:0:0:0:
448,192,16800,128,0,17400:0:0:0:0:
320,192,16800,1,0,0:0:0:0:
64,192,17000,1,0,0:0:0:0:
192,192,17000,1,0,0:0:0:0:
320,192,17200,1,0,0:0:0:0:
192,192,17400,128,0,17600:0:0:0:0:
64,192,17600,128,0,18200:0:0:0:0:
448,192,17800,1,0,0:0:0:0:
192,192,18000,1,0,0:0:0:0:
320,192,18200,128,0,18466:0:0:0:0:
448,192,18466,128,0,19000:0:0:0:0:
64,192,18600,1,0,0:0:0:0:
192,192,18600,1,0,0:0:0:0:
320,192,18800,1,0,0:0:0:0:
64,192,19000,1,0,0:0:0:0:
192,192,19200,1,0,0:0:0:0:
320,192,19400,128,0,19933:0:0:0:0:
64,192,19600,1,0,0:0:0:0:
448,192,19666,128,0,19933:0:0:0:0:
192,192,19800,1,0,0:0:0:0:
64,192,20000,128,0,20200:0:0:0:0:
320,192,20200,1,0,0:0:0:0:
448,192,20200,128,0,20600:0:0:0:0:
192,192,20400,1,0,0:0:0:0:
64,192,20600,1,0,0:0:0:0:
320,192,20800,1,0,0:0:0:0:
192,192,21000,128,0,21533:0:0:0:0:
448,192,21200,1,0,0:0:0:0:
64,192,21266,128,0,21533:0:0:0:0:
320,192,21400,1,0,0:0:0:0:
448,192,21600,128,0,21800:0:0:0:0:
192,192,21800,1,0,0:0:0:0:
64,192,21800,128,0,22200:0:0:0:0:
320,192,22000,1,0,0:0:0:0:
320,192,22200,128,0,22400:0:0:0:0:
448,192,22400,128,0,22800:0:0:0:0:
192,192,22600,1,0,0:0:0:0:
320,192,22800,128,0,23000:0:0:0:0:
192,192,23000,128,0,23200:0:0:0:0:
64,192,23200,128,0,24200:0:0:0:0:
448,192,23200,1,0,0:0:0:0:
192,192,23400,128,0,24200:0:0:0:0:
320,192,23400,1,0,0:0:0:0:
448,192,23600,1,0,0:0:0:0:
320,192,23800,1,0,0:0:0:0:
448,192,24000,1,0,0:0:0:0:
320,192,24200,1,0,0:0:0:0:
192,192,24400,1,0,0:0:0:0:
320,192,24533,1,0,0:0:0:0:
448,192,24600,1,0,0:0:0:0:
192,192,24800,1,0,0:0:0:0:
64,192,25000,1,0,0:0:0:0:
448,192,25000,128,0,26600:0:0:0:0:
320,192,25200,1,0,0:0:0:0:
64,192,25400,128,0,25500:0:0:0:0:
320,192,25600,1,0,0:0:0:0:
192,192,25800,128,0,25900:0:0:0:0:
320,192,26000,1,0,0:0:0:0:
64,192,26200,1,0,0:0:0:0:
192,192,26400,1,0,0:0:0:0:
64,192,26600,128,0,27000:0:0:0:0:
320,192,26600,128,0,26700:0:0:0:0:
320,192,27000,128,0,27200:0:0:0:0:
192,192,27200,128,0,27800:0:0:0:0:
320,192,27400,128,0,27800:0:0:0:0:
448,192,27400,1,0,0:0:0:0:
64,192,27800,128,0,28000:0:0:0:0:
448,192,28000,128,0,28600:0:0:0:0:
320,192,28200,128,0,28600:0:0:0:0:
192,192,28600,128,0,28800:0:0:0:0:
320,192,28800,128,0,29400:0:0:0:0:
192,192,29000,128,0,29400:0:0:0:0:
64,192,29000,1,0,0:0:0:0:
448,192,29400,128,0,29500:0:0:0:0:
448,192,29800,128,0,30200:0:0:0:0:
192,192,30000,1,0,0:0:0:0:
64,192,30000,1,0,0:0:0:0:
192,192,30200,128,0,30400:0:0:0:0:
64,192,30200,1,0,0:0:0:0:
320,192,30400,128,0,31000:0:0:0:0:
192,192,30600,128,0,31000:0:0:0:0:
448,192,30600,1,0,0:0:0:0:
448,192,31000,128,0,31200:0:0:0:0:
64,192,31200,128,0,31800:0:0:0:0:
192,192,31400,128,0,31800:0:0:0:0:
320,192,31800,128,0,32000:0:0:0:0:
192,192,32000,128,0,32600:0:0:0:0:
448,192,32200,128,0,32600:0:0:0:0:
64,192,32200,1,0,0:0:0:0:
320,192,32600,128,0,33000:0:0:0:0:
448,192,33000,1,0,0:0:0:0:
64,192,33000,128,0,33100:0:0:0:0:
192,192,33200,1,0,0:0:0:0:
320,192,33400,1,0,0:0:0:0:
64,192,33600,1,0,0:0:0:0:
192,192,33800,128,0,34200:0:0:0:0:
448,192,33800,1,0,0:0:0:0:
320,192,34000,1,0,0:0:0:0:
448,192,34200,128,0,34600:0:0:0:0:
64,192,34400,1,0,0:0:0:0:
192,192,34600,128,0,35200:0:0:0:0:
320,192,34800,1,0,0:0:0:0:
448,192,35000,1,0,0:0:0:0:
320,192,35200,128,0,35800:0:0:0:0:
64,192,35400,1,0,0:0:0:0:
192,192,35400,1,0,0:0:0:0:
448,192,35800,128,0,36200:0:0:0:0:
64,192,36200,128,0,36600:0:0:0:0:
320,192,36200,128,0,36300:0:0:0:0:
192,192,36400,1,0,0:0:0:0:
448,192,36400,1,0,0:0:0:0:
448,192,36600,1,0,0:0:0:0:
320,192,36600,1,0,0:0:0:0:
192,192,37000,128,0,37400:0:0:0:0:
64,192,37000,1,0,0:0:0:0:
320,192,37400,1,0,0:0:0:0:
448,192,37800,128,0,38200:0:0:0:0:
192,192,37800,1,0,0:0:0:0:
64,192,38000,1,0,0:0:0:0:
320,192,38200,1,0,0:0:0:0:
192,192,38400,1,0,0:0:0:0:
448,192,38600,128,0,39000:0:0:0:0:
320,192,38600,1,0,0:0:0:0:
192,192,38800,128,0,39000:0:0:0:0:
64,192,39000,1,0,0:0:0:0:
192,192,39200,1,0,0:0:0:0:
320,192,39400,1,0,0:0:0:0:
448,192,39400,128,0,39800:0:0:0:0:
192,192,39800,128,0,40000:0:0:0:0:
64,192,40000,1,0,0:0:0:0:
320,192,40200,128,0,40600:0:0:0:0:
448,192,40200,1,0,0:0:0:0:
192,192,40600,128,0,41000:0:0:0:0:
448,192,40800,1,0,0:0:0:0:
64,192,41000,128,0,41600:0:0:0:0:
192,192,41200,1,0,0:0:0:0:
320,192,41400,1,0,0:0:0:0:
448,192,41600,128,0,42200:0:0:0:0:
320,192,41800,1,0,0:0:0:0:
192,192,41800,1,0,0:0:0:0:
64,192,42000,1,0,0:0:0:0:
320,192,42200,1,0,0:0:0:0:
192,192,42500,1,0,0:0:0:0:
320,192,42550,1,0,0:0:0:0:
448,192,42600,128,0,43000:0:0:0:0:
64,192,42800,1,0,0:0:0:0:
192,192,42800,1,0,0:0:0:0:
320,192,43000,1,0,0:0:0:0:
64,192,43000,128,0,43400:0:0:0:0:
448,192,43400,1,0,0:0:0:0:
192,192,43400,1,0,0:0:0:0:
320,192,43600,128,0,43800:0:0:0:0:
192,192,43800,128,0,44000:0:0:0:0:
448,192,43800,1,0,0:0:0:0:
64,192,44000,128,0,44200:0:0:0:0:
448,192,44200,128,0,44600:0:0:0:0:
192,192,44600,128,0,44866:0:0:0:0:
320,192,44866,128,0,45400:0:0:0:0:
64,192,45000,1,0,0:0:0:0:
448,192,45000,1,0,0:0:0:0:
448,192,45400,128,0,45800:0:0:0:0:
192,192,45600,1,0,0:0:0:0:
64,192,45800,1,0,0:0:0:0:
320,192,45800,1,0,0:0:0:0:
192,192,46200,1,0,0:0:0:0:
320,192,46400,1,0,0:0:0:0:
64,192,46600,1,0,0:0:0:0:
192,192,46600,1,0,0:0:0:0:
448,192,46800,1,0,0:0:0:0:
192,192,47000,128,0,47400:0:0:0:0:
64,192,47200,1,0,0:0:0:0:
320,192,47400,128,0,47800:0:0:0:0:
192,192,47600,1,0,0:0:0:0:
64,192,47800,128,0,48200:0:0:0:0:
448,192,48000,1,0,0:0:0:0:
192,192,48200,128,0,48600:0:0:0:0:
320,192,48200,1,0,0:0:0:0:
320,192,48600,128,0,49000:0:0:0:0:
64,192,48800,128,0,49000:0:0:0:0:
448,192,49000,128,0,50600:0:0:0:0:
192,192,49000,128,0,49100:0:0:0:0:
64,192,49200,1,0,0:0:0:0:
320,192,49200,1,0,0:0:0:0:
320,192,49400,1,0,0:0:0:0:
64,192,49400,1,0,0:0:0:0:
320,192,49600,128,0,50600:0:0:0:0:
192,192,49800,1,0,0:0:0:0:
64,192,49800,128,0,49900:0:0:0:0:
192,192,50200,1,0,0:0:0:0:
64,192,50200,128,0,50400:0:0:0:0:
192,192,50600,1,0,0:0:0:0:
64,192,50600,128,0,50900:0:0:0:0:
192,192,51000,1,0,0:0:0:0:
64,192,51000,128,0,51400:0:0:0:0:
320,192,51400,1,0,0:0:0:0:
448,192,51400,128,0,51500:0:0:0:0:
192,192,51600,1,0,0:0:0:0:
320,192,51600,128,0,51700:0:0:0:0:
64,192,51800,1,0,0:0:0:0:
192,192,51800,128,0,51900:0:0:0:0:
320,192,52000,1,0,0:0:0:0:
448,192,52000,1,0,0:0:0:0:
64,192,52000,128,0,52100:0:0:0:0:
192,192,52550,1,0,0:0:0:0:
320,192,52600,1,0,0:0:0:0:
64,192,52600,1,0,0:0:0:0:
448,192,52600,128,0,52900:0:0:0:0:
64,192,52950,1,0,0:0:0:0:
192,192,53000,1,0,0:0:0:0:
448,192,53000,1,0,0:0:0:0:
320,192,53000,128,0,53300:0:0:0:0:
64,192,53350,1,0,0:0:0:0:
320,192,53400,1,0,0:0:0:0:
448,192,53400,1,0,0:0:0:0:
192,192,53400,128,0,53700:0:0:0:0:
320,192,53750,1,0,0:0:0:0:
192,192,53800,1,0,0:0:0:0:
448,192,53800,128,0,54600:0:0:0:0:
64,192,53800,128,0,54200:0:0:0:0:
64,192,54600,1,0,0:0:0:0:
192,192,54600,1,0,0:0:0:0:
448,192,54733,1,0,0:0:0:0:
320,192,54733,1,0,0:0:0:0:
192,192,54866,1,0,0:0:0:0:
64,192,54866,1,0,0:0:0:0:
320,192,55000,1,0,0:0:0:0:
448,192,55000,1,0,0:0:0:0:
320,192,55133,1,0,0:0:0:0:
448,192,55133,1,0,0:0:0:0:
64,192,55266,1,0,0:0:0:0:
192,192,55266,1,0,0:0:0:0:
64,192,55400,1,0,0:0:0:0:
192,192,55400,1,0,0:0:0:0:
448,192,55400,128,0,55600:0:0:0:0:
320,192,55600,128,0,55800:0:0:0:0:
192,192,55800,128,0,56200:0:0:0:0:
64,192,56200,128,0,56600:0:0:0:0:
448,192,56200,1,0,0:0:0:0:
320,192,56400,1,0,0:0:0:0:
448,192,56600,128,0,57000:0:0:0:0:
192,192,56600,1,0,0:0:0:0:
64,192,57000,128,0,57400:0:0:0:0:
320,192,57000,1,0,0:0:0:0:
192,192,57200,128,0,57400:0:0:0:0:
320,192,57400,128,0,57800:0:0:0:0:
448,192,57400,1,0,0:0:0:0:
64,192,57600,1,0,0:0:0:0:
448,192,57800,128,0,58600:0:0:0:0:
192,192,57800,1,0,0:0:0:0:
64,192,58200,128,0,59400:0:0:0:0:
192,192,58600,128,0,58800:0:0:0:0:
320,192,58600,1,0,0:0:0:0:
320,192,59000,1,0,0:0:0:0:
448,192,59000,128,0,59200:0:0:0:0:
192,192,59400,128,0,59600:0:0:0:0:
448,192,59400,1,0,0:0:0:0:
320,192,59600,1,0,0:0:0:0:
448,192,59800,128,0,60200:0:0:0:0:
64,192,59800,1,0,0:0:0:0:
64,192,60200,1,0,0:0:0:0:
320,192,60400,1,0,0:0:0:0:
192,192,60600,128,0,60800:0:0:0:0:
448,192,60600,1,0,0:0:0:0:
192,192,61000,128,0,61400:0:0:0:0:
320,192,61000,1,0,0:0:0:0:
64,192,61400,128,0,61800:0:0:0:0:
320,192,61600,1,0,0:0:0:0:
448,192,61800,128,0,62200:0:0:0:0:
192,192,61800,1,0,0:0:0:0:
320,192,62200,128,0,62600:0:0:0:0:
64,192,62400,1,0,0:0:0:0:
192,192,62600,128,0,63000:0:0:0:0:
448,192,62600,1,0,0:0:0:0:
320,192,62800,1,0,0:0:0:0:
64,192,63000,128,0,63400:0:0:0:0:
448,192,63000,1,0,0:0:0:0:
320,192,63400,128,0,63800:0:0:0:0:
448,192,63600,1,0,0:0:0:0:
192,192,63800,128,0,64200:0:0:0:0:
64,192,63800,1,0,0:0:0:0:
448,192,64200,128,0,64600:0:0:0:0:
320,192,64200,1,0,0:0:0:0:
320,192,64600,128,0,65000:0:0:0:0:
64,192,64600,1,0,0:0:0:0:
192,192,64800,128,0,65000:0:0:0:0:
64,192,65000,128,0,65800:0:0:0:0:
448,192,65000,1,0,0:0:0:0:
320,192,65400,1,0,0:0:0:0:
192,192,65600,1,0,0:0:0:0:
320,192,65800,1,0,0:0:0:0:
448,192,65800,128,0,66000:0:0:0:0:
192,192,66000,128,0,66200:0:0:0:0:
320,192,66200,128,0,66800:0:0:0:0:
64,192,66200,1,0,0:0:0:0:
448,192,66600,128,0,66800:0:0:0:0:
192,192,66800,128,0,67000:0:0:0:0:
64,192,67000,128,0,67400:0:0:0:0:
448,192,67000,1,0,0:0:0:0:
192,192,67400,1,0,0:0:0:0:
320,192,67400,1,0,0:0:0:0:
320,192,67800,128,0,68000:0:0:0:0:
192,192,68000,128,0,68200:0:0:0:0:
64,192,68200,128,0,69000:0:0:0:0:
320,192,68200,1,0,0:0:0:0:
448,192,68200,128,0,68400:0:0:0:0:
192,192,68600,128,0,69400:0:0:0:0:
320,192,68800,1,0,0:0:0:0:
320,192,69000,128,0,69800:0:0:0:0:
448,192,69000,1,0,0:0:0:0:
448,192,69400,128,0,69800:0:0:0:0:
64,192,69400,1,0,0:0:0:0:
192,192,69800,1,0,0:0:0:0:
320,192,70200,1,0,0:0:0:0:
448,192,70200,1,0,0:0:0:0:
192,192,70400,1,0,0:0:0:0:
64,192,70600,1,0,0:0:0:0:
448,192,70600,1,0,0:0:0:0:
192,192,71000,128,0,71200:0:0:0:0:
320,192,71200,128,0,71400:0:0:0:0:
448,192,71400,128,0,72200:0:0:0:0:
192,192,71400,1,0,0:0:0:0:
64,192,71400,128,0,71600:0:0:0:0:
320,192,71800,128,0,72600:0:0:0:0:
192,192,72000,1,0,0:0:0:0:
192,192,72200,128,0,73000:0:0:0:0:
64,192,72200,1,0,0:0:0:0:
64,192,72600,128,0,73400:0:0:0:0:
448,192,72600,1,0,0:0:0:0:
320,192,73000,1,0,0:0:0:0:
192,192,73200,1,0,0:0:0:0:
320,192,73400,1,0,0:0:0:0:
448,192,73400,128,0,73800:0:0:0:0:
320,192,73800,128,0,74400:0:0:0:0:
64,192,73800,1,0,0:0:0:0:
192,192,74200,128,0,74600:0:0:0:0:
64,192,74400,128,0,74600:0:0:0:0:
320,192,74600,1,0,0:0:0:0:
448,192,74600,128,0,75000:0:0:0:0:
192,192,75000,128,0,75200:0:0:0:0:
64,192,75200,1,0,0:0:0:0:
320,192,75400,128,0,75600:0:0:0:0:
448,192,75400,1,0,0:0:0:0:
192,192,75600,1,0,0:0:0:0:
320,192,75800,128,0,76200:0:0:0:0:
64,192,75800,1,0,0:0:0:0:
64,192,76200,128,0,76400:0:0:0:0:
192,192,76600,128,0,77000:0:0:0:0:
448,192,76600,1,0,0:0:0:0:
320,192,77000,128,0,77400:0:0:0:0:
64,192,77000,1,0,0:0:0:0:
64,192,77400,128,0,77600:0:0:0:0:
448,192,77600,128,0,78200:0:0:0:0:
192,192,77800,1,0,0:0:0:0:
320,192,77800,1,0,0:0:0:0:
64,192,78200,128,0,78400:0:0:0:0:
320,192,78400,128,0,78600:0:0:0:0:
192,192,78550,1,0,0:0:0:0:
448,192,78600,1,0,0:0:0:0:
64,192,78600,1,0,0:0:0:0:
320,192,78800,1,0,0:0:0:0:
192,192,79000,1,0,0:0:0:0:
64,192,79000,128,0,79200:0:0:0:0:
320,192,79200,1,0,0:0:0:0:
448,192,79200,128,0,79400:0:0:0:0:
192,192,79400,128,0,79600:0:0:0:0:
320,192,79600,128,0,80000:0:0:0:0:
448,192,79800,128,0,80400:0:0:0:0:
192,192,80000,128,0,80400:0:0:0:0:
320,192,80200,128,0,80600:0:0:0:0:
64,192,80400,128,0,80800:0:0:0:0:
192,192,80600,128,0,81000:0:0:0:0:
448,192,80600,1,0,0:0:0:0:
448,192,80800,1,0,0:0:0:0:
320,192,80800,1,0,0:0:0:0:
64,192,81000,128,0,81600:0:0:0:0:
320,192,81000,1,0,0:0:0:0:
320,192,81800,128,0,82200:0:0:0:0:
192,192,82200,128,0,82600:0:0:0:0:
64,192,82600,128,0,83400:0:0:0:0:
448,192,82600,1,0,0:0:0:0:
320,192,83400,128,0,83800:0:0:0:0:
192,192,83800,128,0,84200:0:0:0:0:
448,192,84200,128,0,84400:0:0:0:0:
320,192,84200,1,0,0:0:0:0:
192,192,84400,128,0,84600:0:0:0:0:
320,192,84600,128,0,84800:0:0:0:0:
64,192,84800,128,0,85000:0:0:0:0:
192,192,85000,128,0,85200:0:0:0:0:
448,192,85200,128,0,85400:0:0:0:0:
320,192,85400,128,0,85600:0:0:0:0:
64,192,85600,128,0,85800:0:0:0:0:
448,192,85800,128,0,86000:0:0:0:0:
192,192,86000,128,0,86200:0:0:0:0:
320,192,86200,128,0,86400:0:0:0:0:
64,192,86400,128,0,86600:0:0:0:0:
192,192,86600,128,0,86800:0:0:0:0:
320,192,86800,128,0,87000:0:0:0:0:
448,192,87000,128,0,87200:0:0:0:0:
64,192,87200,1,0,0:0:0:0:
192,192,87200,1,0,0:0:0:0:
320,192,87200,1,0,0:0:0:0:
