osu file format v14

[General]
AudioFilename: audio.mp3
AudioLeadIn: 0
PreviewTime: 40376
Countdown: 0
SampleSet: Soft
StackLeniency: 0.3
Mode: 0
LetterboxInBreaks: 0
WidescreenStoryboard: 1

[Editor]
Bookmarks: 14776,27576,40376,53176,65976,78776,91576,104376,117176,129976
DistanceSpacing: 1.7
BeatDivisor: 4
GridSize: 4
TimelineZoom: 2

[Metadata]
Title:Take The Long Way Home
TitleUnicode:Take The Long Way Home
Artist:RiraN feat. core mc
ArtistUnicode:RiraN feat. core mc
Creator:Cherry Blossom
Version:Hyper
Source:osu!
Tags:featured artist fa mappers guild bms bofu2017 electronic hardstyle english
BeatmapID:2116077
BeatmapSetID:1007743

[Difficulty]
HPDrainRate:4.5
CircleSize:4
OverallDifficulty:7
ApproachRate:8
SliderMultiplier:1.4
SliderTickRate:1

[Events]
//Background and Video events
0,0,"bg.png",0,0
//Break Periods
2,78976,89226
//Storyboard Layer 0 (Background)
//Storyboard Layer 1 (Fail)
//Storyboard Layer 2 (Pass)
//Storyboard Layer 3 (Foreground)
//Storyboard Layer 4 (Overlay)
//Storyboard Sound Samples

[TimingPoints]
1976,400,4,2,1,60,1,0
1976,-125,4,2,1,60,0,0
8376,-100,4,2,1,60,0,0
14776,-100,4,2,1,60,0,0
26776,-76.9230769230769,4,2,1,60,0,0
27576,-142.857142857143,4,2,1,70,0,0
27976,-76.9230769230769,4,2,1,70,0,0
30776,-142.857142857143,4,2,1,70,0,0
31176,-76.9230769230769,4,2,1,70,0,0
33976,-142.857142857143,4,2,1,70,0,0
34376,-76.9230769230769,4,2,1,70,0,0
40376,-142.857142857143,4,2,1,70,0,0
40776,-76.9230769230769,4,2,1,70,0,0
43576,-142.857142857143,4,2,1,70,0,0
43976,-76.9230769230769,4,2,1,70,0,0
46776,-142.857142857143,4,2,1,70,0,0
47176,-76.9230769230769,4,2,1,70,0,0
51576,-142.857142857143,4,2,1,60,0,0
53176,-125,4,2,1,60,0,0
59576,-100,4,2,1,60,0,0
77976,-76.9230769230769,4,2,1,60,0,0
90376,-76.9230769230769,4,2,1,45,0,0
90776,-76.9230769230769,4,2,1,30,0,0
91176,-76.9230769230769,4,2,1,15,0,0
91576,-100,4,2,1,60,0,0
103576,-76.9230769230769,4,2,1,60,0,0
104376,-76.9230769230769,4,2,1,80,0,1
116776,-66.6666666666667,4,2,1,80,0,1
116976,-76.9230769230769,4,2,1,80,0,1
129976,-76.9230769230769,4,2,1,80,0,0

[Colours]
Combo1 : 236,235,217
Combo2 : 9,48,236
Combo3 : 14,198,231

[HitObjects]
112,96,1976,6,0,P|168:104|224:88,1,112,4|0,1:0|0:0,0:0:0:0:
288,52,2576,2,0,P|343:43|396:58,1,112,2|0,0:0|0:0,0:0:0:0:
460,104,3176,1,0,0:0:0:0:
400,184,3376,6,0,L|272:176,2,112,2|0|0,0:0|0:0|0:0,0:0:0:0:
476,208,4376,2,0,L|472:276,1,56,0|0,0:0|0:0,0:0:0:0:
400,296,4776,2,0,L|396:356,1,56,0|0,0:0|0:0,0:0:0:0:
320,368,5176,22,0,L|312:240,1,112,2|0,0:0|0:0,0:0:0:0:
256,200,5776,2,0,P|200:192|144:200,1,112,2|0,0:0|0:0,0:0:0:0:
76,236,6376,1,0,0:0:0:0:
12,156,6576,6,0,L|16:44,1,112,2|2,0:0|0:0,0:0:0:0:
84,4,7176,2,0,L|132:12,6,28,0|0|0|0|0|0|0,0:0|0:0|0:0|0:0|0:0|0:0|0:0,0:0:0:0:
15,44,7976,1,0,0:0:0:0:
15,44,8176,1,0,0:0:0:0:
56,132,8376,22,0,P|120:148|192:132,1,140,2|0,3:0|0:0,0:0:0:0:
256,80,8976,1,2,3:0:0:0:
320,132,9176,2,0,L|316:280,1,140,8|2,0:1|3:0,0:0:0:0:
320,356,9776,6,0,P|356:360|392:356,2,70,0|0|2,0:0|0:0|3:0,0:0:0:0:
196,271,10376,1,2,3:0:0:0:
196,271,10776,2,0,P|160:264|124:271,2,70,8|0|0,0:1|0:0|3:0,0:0:0:0:
256,332,11376,1,2,3:0:0:0:
312,240,11576,22,0,L|304:92,1,140,2|0,3:0|0:0,0:0:0:0:
300,16,12176,1,2,3:0:0:0:
372,60,12376,2,0,P|424:64|456:60,2,70,8|0|2,0:1|0:0|3:0,0:0:0:0:
300,16,12976,1,0,0:0:0:0:
204,100,13176,6,0,L|128:96,1,70,2|2,0:0|3:0,0:0:0:0:
112,176,13576,2,0,L|204:180,1,70,2|0,0:3|0:0,0:0:0:0:
308,160,13976,2,0,L|384:156,1,70,8|0,0:1|0:0,0:0:0:0:
400,236,14376,2,0,L|308:240,1,70,2|2,0:0|3:0,0:0:0:0:
188,308,14776,22,0,P|114:303|40:256,2,140,4|0|0,1:0|0:0|1:0,0:0:0:0:
256,156,15976,1,0,0:0:0:0:
324,308,16376,6,0,P|397:303|472:256,2,140,0|0|0,1:0|0:0|1:0,0:0:0:0:
256,260,17376,1,0,0:0:0:0:
188,308,17576,2,0,P|152:308|112:296,1,70,0|0,0:0|0:0,0:0:0:0:
92,268,17876,1,0,0:0:0:0:
92,268,17976,22,0,L|84:100,2,140,0|0|0,1:0|0:0|1:0,0:0:0:0:
256,308,19176,1,0,0:0:0:0:
420,268,19576,6,0,L|428:100,2,140,0|0|0,1:0|0:0|1:0,0:0:0:0:
412,352,20576,1,0,0:0:0:0:
328,340,20776,2,0,L|236:328,1,70,0|0,0:0|0:0,0:0:0:0:
144,304,21176,22,0,L|140:260,7,35,0|0|0|0|0|0|0|0,1:0|0:0|0:0|0:0|1:0|0:0|0:0|0:0,0:0:0:0:
80,252,21976,2,0,L|76:208,7,35,0|0|0|0|0|0|0|0,1:0|0:0|0:0|0:0|1:0|0:0|0:0|0:0,0:0:0:0:
24,184,22776,6,0,L|20:140,7,35,0|0|0|0|0|0|0|0,1:0|0:0|0:0|0:0|1:0|0:0|0:0|0:0,0:0:0:0:
12,88,23576,1,0,1:0:0:0:
28,80,23676,1,0,0:0:0:0:
44,72,23776,1,0,0:0:0:0:
60,64,23876,1,0,0:0:0:0:
76,56,23976,1,0,1:0:0:0:
92,48,24076,1,0,0:0:0:0:
108,40,24176,1,0,0:0:0:0:
124,32,24276,1,0,0:0:0:0:
140,24,24376,22,0,L|172:28,14,17.5,0|0|0|0|0|0|0|0|0|0|0|0|0|0|0,1:0|0:0|0:0|0:0|1:0|0:0|0:0|0:0|1:0|0:0|0:0|0:0|1:0|0:0|0:0,0:0:0:0:
192,60,25176,2,0,L|224:56,14,17.5,0|0|0|0|0|0|0|0|0|0|0|0|0|0|0,1:0|0:0|0:0|0:0|1:0|0:0|0:0|0:0|1:0|0:0|0:0|0:0|1:0|0:0|0:0,0:0:0:0:
256,52,25976,5,0,0:0:0:0:
256,52,26776,22,0,B|308:104|288:180,1,136.499993751526,4|0,0:3|0:0,0:0:0:0:
216,208,27176,2,0,B|196:280|256:332,1,136.499993751526,4|0,0:3|0:0,0:0:0:0:
328,348,27576,22,0,L|404:340,1,73.4999977569581,4|0,1:0|0:0,0:0:0:0:
464,296,27976,22,0,P|476:228|464:160,1,136.499993751526,2|0,0:0|0:0,0:0:0:0:
400,112,28376,2,0,P|396:84|400:56,4,45.4999979171754,8|0|2|0|2,0:0|0:0|0:0|0:0|0:0,0:0:0:0:
280,160,28976,2,0,L|216:164,1,45.4999979171754,4|0,1:0|0:0,0:0:0:0:
180,216,29176,22,0,L|184:316,1,90.9999958343508,2|0,0:0|0:0,0:0:0:0:
332,352,29576,2,0,L|336:248,1,90.9999958343508,0|0,0:0|0:0,0:0:0:0:
340,108,29976,1,8,0:0:0:0:
464,200,30176,1,2,0:0:0:0:
464,200,30276,1,0,0:0:0:0:
464,200,30376,2,0,L|516:196,2,45.4999979171754,2|0|2,0:0|0:0|0:0,0:0:0:0:
328,128,30776,22,0,P|292:132|252:128,1,73.4999977569581,4|0,0:0|0:0,0:0:0:0:
192,80,31176,22,0,L|196:28,2,45.4999979171754,2|0|2,0:0|0:0|0:0,0:0:0:0:
52,144,31576,2,0,L|60:336,1,181.999991668702,8|0,0:0|0:0,0:0:0:0:
208,376,32176,2,0,L|212:292,1,45.4999979171754,4|0,1:0|0:0,0:0:0:0:
216,252,32376,22,0,P|168:244|124:252,2,90.9999958343508,2|2|2,0:0|0:0|0:0,0:0:0:0:
332,352,32976,1,2,0:0:0:0:
432,232,33176,2,0,L|428:120,1,90.9999958343508,8|2,0:0|0:0,0:0:0:0:
312,40,33576,2,0,L|308:168,1,90.9999958343508,4|0,1:0|0:0,0:0:0:0:
292,264,33976,22,0,P|256:268|220:264,1,73.4999977569581,4|0,1:0|0:0,0:0:0:0:
152,224,34376,22,0,L|156:80,1,136.499993751526,2|0,0:0|0:0,0:0:0:0:
212,32,34776,2,0,P|256:24|304:32,1,90.9999958343508,8|2,0:0|0:0,0:0:0:0:
432,116,35176,1,2,0:0:0:0:
300,196,35376,1,4,1:0:0:0:
300,196,35476,1,0,0:0:0:0:
300,196,35576,22,0,L|200:188,1,90.9999958343508,2|2,0:0|0:0,0:0:0:0:
432,116,35976,2,0,L|428:220,1,90.9999958343508,2|2,0:0|0:0,0:0:0:0:
312,364,36376,2,0,L|308:273,1,90.9999958343508,8|0,0:0|0:0,0:0:0:0:
296,116,36776,1,2,0:0:0:0:
296,116,36976,1,2,0:0:0:0:
168,200,37176,21,4,1:0:0:0:
156,196,37276,1,2,0:0:0:0:
144,192,37376,1,2,0:0:0:0:
132,188,37476,1,2,0:0:0:0:
120,184,37576,2,0,L|60:188,3,45.4999979171754,2|2|2|2,0:0|0:0|0:0|0:0,0:0:0:0:
16,236,37976,22,0,P|16:316|104:360,1,181.999991668702,8|0,0:0|0:0,0:0:0:0:
232,284,38576,2,0,P|256:280|292:288,1,45.4999979171754,4|0,1:0|0:0,0:0:0:0:
348,312,38776,22,0,P|436:304|484:220,1,181.999991668702,2|0,0:0|0:0,0:0:0:0:
472,76,39376,1,0,0:0:0:0:
344,164,39576,2,0,P|296:168|236:152,1,90.9999958343508,8|8,0:0|0:3,0:0:0:0:
208,96,39876,1,8,0:3:0:0:
208,96,39976,2,0,P|160:88|104:100,1,90.9999958343508,8|8,0:3|0:3,0:0:0:0:
8,196,40376,22,0,L|16:272,1,73.4999977569581,4|0,1:0|0:0,0:0:0:0:
36,344,40776,22,0,P|120:352|172:320,1,136.499993751526,2|0,0:0|0:0,0:0:0:0:
192,256,41176,2,0,L|188:200,4,45.4999979171754,8|0|2|0|2,0:0|0:0|0:0|0:0|0:0,0:0:0:0:
324,336,41776,2,0,L|384:328,1,45.4999979171754,4|0,1:0|0:0,0:0:0:0:
448,320,41976,22,0,L|448:200,1,90.9999958343508,2|0,0:0|0:0,0:0:0:0:
332,128,42376,2,0,L|336:232,1,90.9999958343508,0|0,1:0|0:0,0:0:0:0:
500,140,42776,1,8,0:0:0:0:
380,44,42976,1,2,0:0:0:0:
380,44,43076,1,0,0:0:0:0:
380,44,43176,2,0,L|316:48,2,45.4999979171754,2|0|2,0:0|0:0|0:0,0:0:0:0:
500,140,43576,22,0,L|496:216,1,73.4999977569581,4|0,1:0|0:0,0:0:0:0:
476,288,43976,22,0,L|480:340,2,45.4999979171754,2|0|2,0:0|0:0|0:0,0:0:0:0:
330,228,44376,2,0,L|334:32,1,181.999991668702,8|0,0:0|0:0,0:0:0:0:
184,8,44976,2,0,L|180:68,1,45.4999979171754,4|0,1:0|0:0,0:0:0:0:
176,132,45176,22,0,P|124:136|64:116,2,90.9999958343508,2|2|2,0:0|0:0|0:0,0:0:0:0:
312,56,45776,1,2,0:0:0:0:
332,208,45976,2,0,L|328:320,1,90.9999958343508,8|2,0:0|0:0,0:0:0:0:
180,348,46376,2,0,L|176:257,1,90.9999958343508,4|0,1:0|0:0,0:0:0:0:
168,92,46776,22,0,L|244:88,1,73.4999977569581,4|0,1:0|0:0,0:0:0:0:
272,160,47176,22,0,L|408:152,1,136.499993751526,2|0,0:0|0:0,0:0:0:0:
480,176,47576,2,0,P|488:220|480:268,1,90.9999958343508,8|2,0:0|0:0,0:0:0:0:
364,364,47976,1,2,0:0:0:0:
288,228,48176,1,4,1:0:0:0:
288,228,48276,1,0,0:0:0:0:
288,228,48376,22,0,L|392:224,1,90.9999958343508,2|2,0:0|0:0,0:0:0:0:
224,328,48776,2,0,L|120:324,1,90.9999958343508,2|2,0:0|0:0,0:0:0:0:
24,216,49176,2,0,L|28:96,1,90.9999958343508,8|0,0:0|0:0,0:0:0:0:
136,12,49576,1,2,0:0:0:0:
136,12,49776,1,2,0:0:0:0:
200,152,49976,21,4,1:0:0:0:
196,164,50076,1,2,0:0:0:0:
192,176,50176,1,2,0:0:0:0:
188,188,50276,1,2,0:0:0:0:
184,200,50376,2,0,L|168:260,3,45.4999979171754,2|2|2|2,0:0|0:0|0:0|0:0,0:0:0:0:
168,324,50776,22,0,P|256:356|340:328,1,181.999991668702,8|0,0:0|0:0,0:0:0:0:
456,232,51376,2,0,L|452:156,1,45.4999979171754,4|0,1:0|0:0,0:0:0:0:
444,112,51576,22,0,B|348:128|348:128|256:92,1,195.999994018555,2|8,0:0|0:0,0:0:0:0:
256,92,53176,6,0,L|256:216,1,112,4|0,1:0|0:0,0:0:0:0:
296,272,53776,2,0,P|348:280|412:272,1,112,2|0,0:0|0:0,0:0:0:0:
476,232,54376,1,0,0:0:0:0:
412,140,54576,22,0,L|288:132,2,112,2|0|0,0:0|0:0|0:0,0:0:0:0:
416,60,55576,2,0,L|340:56,1,56,0|0,0:0|0:0,0:0:0:0:
280,52,55976,2,0,L|208:48,1,56,0|0,0:0|0:0,0:0:0:0:
140,124,56376,6,0,L|144:240,1,112,2|0,0:0|0:0,0:0:0:0:
148,316,56976,2,0,P|204:328|256:316,1,112,2|0,0:0|0:0,0:0:0:0:
308,256,57576,1,0,0:0:0:0:
396,326,57776,22,0,L|400:202,1,112,2|2,0:0|0:0,0:0:0:0:
460,162,58376,2,0,L|456:114,6,28,0|0|0|0|0|0|0,0:0|0:0|0:0|0:0|0:0|0:0|0:0,0:0:0:0:
492,234,59176,1,0,0:0:0:0:
492,234,59376,1,0,0:0:0:0:
456,344,59576,6,0,P|384:352|304:332,1,140,2|0,3:0|0:0,0:0:0:0:
256,264,60176,1,2,3:0:0:0:
188,336,60376,2,0,P|160:264|176:200,1,140,8|2,0:1|3:0,0:0:0:0:
220,120,60976,22,0,L|300:116,2,70,0|0|2,0:0|0:0|3:0,0:0:0:0:
104,36,61576,1,2,3:0:0:0:
104,36,61976,2,0,L|16:32,2,70,8|0|2,0:1|0:0|3:0,0:0:0:0:
200,40,62576,1,2,3:0:0:0:
256,120,62776,6,0,L|256:260,1,140,2|0,3:0|0:0,0:0:0:0:
256,356,63376,1,2,3:0:0:0:
172,308,63576,2,0,L|80:300,2,70,8|0|2,0:1|0:0|3:0,0:0:0:0:
256,260,64176,1,0,0:0:0:0:
184,168,64376,22,0,L|96:160,1,70,2|2,0:0|3:0,0:0:0:0:
84,68,64776,2,0,L|153:74,1,70,2|0,0:0|0:0,0:0:0:0:
328,168,65176,2,0,L|397:161,1,70,8|0,0:1|0:0,0:0:0:0:
428,68,65576,2,0,L|358:74,1,70,2|2,0:0|3:0,0:0:0:0:
256,96,65976,6,0,L|256:176,1,70,4|0,0:1|0:0,0:0:0:0:
256,264,66376,1,0,0:0:0:0:
256,264,66576,1,0,0:0:0:0:
152,324,66776,2,0,L|148:232,1,70,0|0,1:0|0:0,0:0:0:0:
140,156,67176,1,0,0:0:0:0:
140,156,67376,1,0,0:0:0:0:
40,216,67576,22,0,L|36:304,1,70,0|0,1:0|0:0,0:0:0:0:
152,324,67976,2,0,L|148:232,1,70,0|0,0:0|0:0,0:0:0:0:
260,212,68376,2,0,L|256:300,1,70,0|0,1:0|0:0,0:0:0:0:
372,320,68776,2,0,L|368:228,1,70,0|0,0:0|0:0,0:0:0:0:
364,132,69176,6,0,L|444:136,1,70,0|0,1:0|0:0,0:0:0:0:
508,200,69576,1,0,0:0:0:0:
508,200,69776,1,0,0:0:0:0:
444,300,69976,2,0,L|364:296,1,70,0|0,1:0|0:0,0:0:0:0:
296,232,70376,1,0,0:0:0:0:
296,232,70576,1,0,0:0:0:0:
364,132,70776,22,0,L|444:136,1,70,0|0,1:0|0:0,0:0:0:0:
296,232,71176,2,0,L|226:228,1,70,0|0,0:0|0:0,0:0:0:0:
216,64,71576,2,0,L|296:68,1,70,0|0,1:0|0:0,0:0:0:0:
148,164,71976,2,0,L|78:160,1,70,0|0,0:0|0:0,0:0:0:0:
24,32,72376,6,0,L|68:28,7,35,0|0|0|0|0|0|0|0,1:0|0:0|0:0|0:0|1:0|0:0|0:0|0:0,0:0:0:0:
108,64,73176,2,0,L|152:60,7,35,0|0|0|0|0|0|0|0,1:0|0:0|0:0|0:0|1:0|0:0|0:0|0:0,0:0:0:0:
196,84,73976,22,0,L|240:80,7,35,0|0|0|0|0|0|0|0,1:0|0:0|0:0|0:0|1:0|0:0|0:0|0:0,0:0:0:0:
284,108,74776,1,0,1:0:0:0:
301,107,74876,1,0,0:0:0:0:
318,105,74976,1,0,0:0:0:0:
335,103,75076,1,0,0:0:0:0:
352,102,75176,1,0,1:0:0:0:
369,101,75276,1,0,0:0:0:0:
386,99,75376,1,0,0:0:0:0:
403,98,75476,1,0,0:0:0:0:
420,97,75576,6,0,L|450:95,14,17.5,0|0|0|0|0|0|0|0|0|0|0|0|0|0|0,1:0|0:0|0:0|0:0|1:0|0:0|0:0|0:0|1:0|0:0|0:0|0:0|1:0|0:0|0:0,0:0:0:0:
468,132,76376,2,0,L|498:130,14,17.5,0|0|0|0|0|0|0|0|0|0|0|0|0|0|0,1:0|0:0|0:0|0:0|1:0|0:0|0:0|0:0|1:0|0:0|0:0|0:0|1:0|0:0|0:0,0:0:0:0:
436,184,77176,21,0,0:0:0:0:
436,184,77976,6,0,P|368:200|304:184,1,136.499993751526,4|0,0:3|0:0,0:0:0:0:
256,124,78376,2,0,P|190:108|124:124,1,136.499993751526,4|0,0:3|0:0,0:0:0:0:
68,180,78776,21,4,0:3:0:0:
256,192,89976,12,0,91376,0:0:0:0:
136,80,91576,6,0,L|212:76,1,70,4|0,1:0|0:0,0:0:0:0:
304,72,91976,1,0,0:0:0:0:
304,72,92176,1,0,0:0:0:0:
256,180,92376,2,0,L|160:176,1,70,0|0,1:0|0:0,0:0:0:0:
88,176,92776,1,0,0:0:0:0:
88,176,92976,1,0,0:0:0:0:
32,280,93176,22,0,L|36:364,1,70,0|0,1:0|0:0,0:0:0:0:
152,320,93576,2,0,L|148:250,1,70,0|0,0:0|0:0,0:0:0:0:
84,106,93976,2,0,L|88:190,1,70,0|0,1:0|0:0,0:0:0:0:
204,146,94376,2,0,L|200:76,1,70,0|0,0:0|0:0,0:0:0:0:
308,16,94776,6,0,L|304:104,1,70,0|0,1:0|0:0,0:0:0:0:
300,184,95176,1,0,0:0:0:0:
300,184,95376,1,0,0:0:0:0:
420,176,95576,2,0,L|416:96,1,70,0|0,1:0|0:0,0:0:0:0:
408,8,95976,1,0,0:0:0:0:
408,8,96176,1,0,0:0:0:0:
304,85,96376,22,0,L|216:81,1,70,0|0,1:0|0:0,0:0:0:0:
188,168,96776,2,0,L|257:171,1,70,0|0,0:0|0:0,0:0:0:0:
324,268,97176,2,0,L|236:264,1,70,0|0,1:0|0:0,0:0:0:0:
208,351,97576,2,0,L|277:354,1,70,0|0,0:0|0:0,0:0:0:0:
416,328,97976,6,0,L|420:276,7,35,0|0|0|0|0|0|0|0,1:0|0:0|0:0|0:0|1:0|0:0|0:0|0:0,0:0:0:0:
456,248,98776,2,0,L|452:196,7,35,0|0|0|0|0|0|0|0,1:0|0:0|0:0|0:0|1:0|0:0|0:0|0:0,0:0:0:0:
428,160,99576,22,0,L|432:108,7,35,0|0|0|0|0|0|0|0,1:0|0:0|0:0|0:0|1:0|0:0|0:0|0:0,0:0:0:0:
440,68,100376,1,0,1:0:0:0:
422,64,100476,1,0,0:0:0:0:
404,60,100576,1,0,0:0:0:0:
386,57,100676,1,0,0:0:0:0:
368,53,100776,1,0,1:0:0:0:
350,50,100876,1,0,0:0:0:0:
332,47,100976,1,0,0:0:0:0:
314,44,101076,1,0,0:0:0:0:
296,41,101176,6,0,L|264:44,14,17.5,0|0|0|0|0|0|0|0|0|0|0|0|0|0|0,1:0|0:0|0:0|0:0|1:0|0:0|0:0|0:0|1:0|0:0|0:0|0:0|1:0|0:0|0:0,0:0:0:0:
240,60,101976,2,0,L|208:56,14,17.5,0|0|0|0|0|0|0|0|0|0|0|0|0|0|0,1:0|0:0|0:0|0:0|1:0|0:0|0:0|0:0|1:0|0:0|0:0|0:0|1:0|0:0|0:0,0:0:0:0:
180,56,102776,21,0,0:0:0:0:
180,56,103576,6,0,L|184:200,1,136.499993751526,4|0,0:3|0:0,0:0:0:0:
192,268,103976,2,0,P|256:284|328:268,1,136.499993751526,4|0,0:3|0:0,0:0:0:0:
380,216,104376,22,0,L|384:112,1,90.9999958343508,12|0,1:3|0:0,0:0:0:0:
260,28,104776,1,8,1:3:0:0:
228,180,104976,1,0,0:0:0:0:
100,92,105176,2,0,L|200:88,1,90.9999958343508,8|0,1:3|0:0,0:0:0:0:
304,260,105576,2,0,L|213:263,1,90.9999958343508,8|0,1:3|0:0,0:0:0:0:
408,132,105976,6,0,L|404:236,1,90.9999958343508,8|0,1:3|0:0,0:0:0:0:
304,340,106376,1,8,1:3:0:0:
256,192,106576,1,0,0:0:0:0:
144,300,106776,2,0,L|24:288,1,90.9999958343508,8|0,1:3|0:0,0:0:0:0:
212,108,107176,2,0,L|302:117,1,90.9999958343508,8|0,1:3|0:0,0:0:0:0:
100,192,107576,22,0,P|92:144|100:96,1,90.9999958343508,8|0,1:3|0:0,0:0:0:0:
236,28,107976,1,8,1:3:0:0:
248,184,108176,1,0,0:0:0:0:
384,108,108376,2,0,L|280:100,1,90.9999958343508,8|0,1:3|0:0,0:0:0:0:
196,260,108776,2,0,L|286:266,1,90.9999958343508,8|0,1:3|0:0,0:0:0:0:
148,88,109176,6,0,L|156:200,1,90.9999958343508,8|0,1:3|0:0,0:0:0:0:
368,312,109576,2,0,L|361:221,1,90.9999958343508,8|0,1:3|0:0,0:0:0:0:
340,36,109976,1,8,1:3:0:0:
336,52,110376,1,8,1:3:0:0:
276,196,110576,1,8,1:3:0:0:
404,112,110776,22,0,P|448:104|500:108,2,90.9999958343508,12|0|8,1:3|0:0|1:3,0:0:0:0:
340,252,111376,1,0,0:0:0:0:
208,168,111576,2,0,L|104:160,1,90.9999958343508,8|0,1:3|0:0,0:0:0:0:
296,36,111976,2,0,L|300:136,1,90.9999958343508,8|0,1:3|0:0,0:0:0:0:
212,256,112376,6,0,L|100:248,1,90.9999958343508,8|0,1:3|0:0,0:0:0:0:
380,164,112776,1,8,1:3:0:0:
392,176,113176,1,8,1:3:0:0:
240,160,113376,1,0,0:0:0:0:
316,296,113576,2,0,L|312:188,1,90.9999958343508,8|0,1:3|0:0,0:0:0:0:
200,52,113976,22,0,L|203:142,1,90.9999958343508,8|0,1:3|0:0,0:0:0:0:
140,284,114376,1,8,1:3:0:0:
292,264,114576,1,0,0:0:0:0:
203,142,114776,2,0,L|207:246,1,90.9999958343508,8|0,1:3|0:0,0:0:0:0:
384,316,115176,2,0,L|380:225,1,90.9999958343508,8|0,1:3|0:0,0:0:0:0:
304,56,115576,6,0,L|192:48,1,90.9999958343508,8|0,1:3|0:0,0:0:0:0:
60,40,115976,1,8,1:3:0:0:
180,136,116176,1,0,0:0:0:0:
88,260,116376,2,0,L|80:140,1,90.9999958343508,8|0,1:3|0:0,0:0:0:0:
256,208,116776,22,0,L|252:328,1,105.000004005432,4|0,0:0|0:0,0:0:0:0:
12,312,117176,6,0,L|0:104,1,181.999991668702,12|8,1:3|1:3,0:0:0:0:
112,24,117776,1,0,0:0:0:0:
204,148,117976,2,0,P|156:152|96:132,1,90.9999958343508,8|0,1:3|0:0,0:0:0:0:
300,40,118376,2,0,P|348:36|408:56,1,90.9999958343508,8|0,1:3|0:0,0:0:0:0:
484,168,118776,22,0,L|480:288,1,90.9999958343508,8|0,1:3|0:0,0:0:0:0:
344,336,119176,1,8,1:3:0:0:
332,324,119576,2,0,L|336:232,1,90.9999958343508,8|0,1:3|0:0,0:0:0:0:
340,76,119976,2,0,P|384:76|436:92,1,90.9999958343508,8|0,1:3|0:0,0:0:0:0:
256,176,120376,6,0,P|160:184|88:136,1,181.999991668702,8|8,1:3|1:3,0:0:0:0:
196,24,120976,1,0,0:0:0:0:
340,76,121176,2,0,L|336:192,1,90.9999958343508,8|0,1:3|0:0,0:0:0:0:
332,320,121576,1,8,1:3:0:0:
180,304,121776,1,12,1:3:0:0:
180,304,121876,1,12,1:3:0:0:
180,304,121976,22,0,L|64:292,2,90.9999958343508,12|0|12,1:3|0:0|1:3,0:0:0:0:
256,168,122576,1,0,0:0:0:0:
324,308,122776,1,12,1:3:0:0:
324,308,122876,1,12,1:3:0:0:
324,308,122976,1,12,1:3:0:0:
464,244,123176,2,0,L|460:136,1,90.9999958343508,12|0,1:3|0:0,0:0:0:0:
348,48,123576,6,0,B|256:64|256:64|168:48,1,181.999991668702,12|8,1:3|1:3,0:0:0:0:
28,116,124176,1,0,0:0:0:0:
96,256,124376,2,0,L|200:252,1,90.9999958343508,8|0,1:3|0:0,0:0:0:0:
300,148,124776,2,0,L|209:151,1,90.9999958343508,8|0,1:3|0:0,0:0:0:0:
392,264,125176,22,0,L|395:173,1,90.9999958343508,8|0,1:3|0:0,0:0:0:0:
315,41,125576,1,8,1:3:0:0:
303,57,125976,2,0,L|299:147,1,90.9999958343508,8|0,1:3|0:0,0:0:0:0:
196,264,126376,2,0,P|144:260|104:240,1,90.9999958343508,8|0,1:3|0:0,0:0:0:0:
300,148,126776,6,0,P|372:144|432:172,1,136.499993751526,12|0,1:3|0:0,0:0:0:0:
472,236,127176,1,12,1:3:0:0:
356,336,127376,2,0,L|348:236,1,90.9999958343508,12|0,1:3|0:0,0:0:0:0:
256,88,127776,2,0,L|248:178,1,90.9999958343508,12|0,1:3|0:0,0:0:0:0:
144,328,128176,22,0,L|132:132,1,181.999991668702,12|12,1:3|1:3,0:0:0:0:
212,12,128776,2,0,P|256:4|304:12,1,90.9999958343508,12|12,1:3|1:3,0:0:0:0:
380,146,129176,1,12,1:3:0:0:
380,146,129276,1,12,1:3:0:0:
380,146,129376,1,12,1:3:0:0:
248,224,129576,2,0,L|240:128,1,90.9999958343508,8|8,1:3|1:3,0:0:0:0:
404,48,129976,5,4,1:0:0:0:
