osu file format v14

[General]
AudioFilename: audio.mp3
AudioLeadIn: 0
PreviewTime: 53152
Countdown: 0
SampleSet: Soft
StackLeniency: 0.7
Mode: 0
LetterboxInBreaks: 0
EpilepsyWarning: 1
WidescreenStoryboard: 1

[Editor]
DistanceSpacing: 1.1
BeatDivisor: 4
GridSize: 32
TimelineZoom: 1.7

[Metadata]
Title:Unshakable
TitleUnicode:Unshakable
Artist:RiraN
ArtistUnicode:RiraN
Creator:Affirmation
Version:Hard
Source:osu!
Tags:featured artist fa mappers guild electronic english cherry blossom
BeatmapID:2068130
BeatmapSetID:988136

[Difficulty]
HPDrainRate:5
CircleSize:3.8
OverallDifficulty:5.8
ApproachRate:7.6
SliderMultiplier:1
SliderTickRate:1

[Events]
//Background and Video events
0,0,"BG.jpg",0,0
//Break Periods
//Storyboard Layer 0 (Background)
//Storyboard Layer 1 (Fail)
//Storyboard Layer 2 (Pass)
//Storyboard Layer 3 (Foreground)
//Storyboard Sound Samples

[TimingPoints]
3552,400,4,2,0,30,1,0
3552,-83.3333333333333,4,2,0,30,0,0
29152,-71.4285714285714,4,2,0,50,0,0
53152,-71.4285714285714,4,2,0,60,0,0
54752,-62.5,4,2,0,80,0,0
65952,-62.5,4,2,0,60,0,0
67552,-62.5,4,2,0,80,0,0
78752,-62.5,4,2,0,60,0,0
80352,-62.5,4,2,0,80,0,0
93152,-62.5,4,2,0,50,0,0
93552,-62.5,4,2,0,80,0,0

[Colours]
Combo1 : 112,248,183
Combo2 : 102,204,0

[HitObjects]
54,116,3552,6,0,B|121:108|99:145|168:136,1,119.999996337891,4|2,0:3|0:0,0:0:0:0:
237,87,4152,1,0,0:0:0:0:
308,130,4352,2,0,L|301:249,1,119.999996337891,2|2,0:0|0:0,0:0:0:0:
240,307,4952,1,0,0:0:0:0:
304,360,5152,2,0,B|362:377|362:377|416:354,1,119.999996337891,2|2,0:0|0:0,0:0:0:0:
476,294,5752,2,0,L|466:114,1,179.999994506836,2|2,0:0|0:0,0:0:0:0:
307,59,6752,6,0,P|294:116|312:173,1,119.999996337891,2|2,0:0|0:0,0:0:0:0:
368,235,7352,1,0,0:0:0:0:
310,295,7552,2,0,L|190:293,1,119.999996337891,2|2,0:0|0:0,0:0:0:0:
116,251,8152,1,0,0:0:0:0:
50,303,8352,2,0,P|31:248|52:193,1,119.999996337891,2|2,0:0|0:0,0:0:0:0:
129,158,8952,1,0,0:0:0:0:
204,120,9152,2,0,P|224:64|205:9,1,119.999996337891,2|2,0:0|0:0,0:0:0:0:
426,129,9952,6,0,P|406:185|425:240,1,119.999996337891,2|2,0:0|0:0,0:0:0:0:
469,311,10552,1,0,0:0:0:0:
398,357,10752,2,0,B|356:362|356:362|325:345|325:345|282:349,1,119.999996337891,2|2,0:0|0:0,0:0:0:0:
117,377,11552,2,0,B|159:342|159:342|146:277,1,119.999996337891,2|2,0:0|0:0,0:0:0:0:
78,228,12152,2,0,B|65:163|65:163|107:128,1,119.999996337891,2|0,0:0|0:0,0:0:0:0:
166,68,12752,2,0,P|185:90|193:119,1,59.9999981689454,2|0,0:0|0:0,0:0:0:0:
242,187,13152,6,0,L|361:179,1,119.999996337891,2|2,0:0|0:0,0:0:0:0:
427,126,13752,1,0,0:0:0:0:
491,179,13952,2,0,P|499:238|492:297,1,119.999996337891,2|2,0:0|0:0,0:0:0:0:
436,360,14552,1,0,0:0:0:0:
361,322,14752,2,0,B|320:326|295:351|295:351|275:334|253:329,1,119.999996337891,2|2,0:0|0:0,0:0:0:0:
177,365,15352,2,0,P|131:294|190:235,1,179.999994506836,2|2,0:0|0:0,0:0:0:0:
269,206,16152,1,0,0:0:0:0:
234,129,16352,6,0,L|221:9,3,119.999996337891,8|8|8|8,0:0|0:0|0:0|0:0,0:0:0:0:
375,78,17952,2,0,L|362:197,3,119.999996337891,8|8|8|8,0:0|0:0|0:0|0:0,0:0:0:0:
262,332,19552,6,0,P|206:313|148:323,3,119.999996337891,8|8|8|8,0:0|0:0|0:0|0:0,0:0:0:0:
29,204,21152,2,0,P|87:214|143:194,3,119.999996337891,8|8|8|8,0:0|0:0|0:0|0:0,0:0:0:0:
246,61,22752,6,0,L|239:180,1,119.999996337891,8|8,0:0|0:0,0:0:0:0:
337,44,23552,2,0,L|330:163,1,119.999996337891,8|8,0:0|0:0,0:0:0:0:
417,307,24352,2,0,L|410:187,1,119.999996337891,8|8,0:0|0:0,0:0:0:0:
508,324,25152,2,0,L|501:204,1,119.999996337891,8|8,0:0|0:0,0:0:0:0:
407,64,25952,6,0,P|353:87|296:72,1,119.999996337891,8|8,0:0|0:0,0:0:0:0:
136,22,26752,2,0,P|78:7|24:30,1,119.999996337891,8|8,0:0|0:0,0:0:0:0:
61,194,27552,2,0,P|118:208|172:185,1,119.999996337891,8|8,0:0|0:0,0:0:0:0:
296,72,28352,2,0,P|350:48|407:63,1,119.999996337891,8|8,0:0|0:0,0:0:0:0:
490,208,29152,6,0,L|385:215,1,104.999996795654,4|2,1:3|0:0,0:0:0:0:
329,328,29752,2,0,L|224:320,1,104.999996795654,2|2,0:0|0:0,0:0:0:0:
102,289,30352,2,0,P|91:256|96:221,1,69.9999978637696,2|2,0:0|0:0,0:0:0:0:
136,147,30752,6,0,P|90:171|38:168,1,104.999996795654,2|2,0:0|0:0,0:0:0:0:
15,44,31352,2,0,P|60:19|112:22,1,104.999996795654,2|2,0:0|0:0,0:0:0:0:
230,65,31952,1,2,0:0:0:0:
392,22,32352,6,0,L|383:126,1,104.999996795654,2|2,0:0|0:0,0:0:0:0:
275,190,32952,2,0,L|283:294,1,104.999996795654,2|2,0:0|0:0,0:0:0:0:
392,357,33552,2,0,P|404:324|402:289,1,69.9999978637696,2|2,0:0|0:0,0:0:0:0:
378,209,33952,6,0,L|482:201,1,104.999996795654,2|2,0:0|0:0,0:0:0:0:
385,121,34552,2,0,L|280:128,1,104.999996795654,2|2,0:0|0:0,0:0:0:0:
178,201,35152,2,0,P|171:236|175:270,1,69.9999978637696,2|2,0:0|0:0,0:0:0:0:
92,287,35552,6,0,P|85:235|96:183,1,104.999996795654,2|2,0:0|0:0,0:0:0:0:
172,83,36152,2,0,L|276:90,1,104.999996795654,2|2,0:0|0:0,0:0:0:0:
353,190,36752,2,0,L|283:194,1,69.9999978637696,2|2,0:0|0:0,0:0:0:0:
217,247,37152,6,0,B|248:268|258:287|258:287|282:276|303:274,1,104.999996795654,2|2,0:0|0:0,0:0:0:0:
420,320,37752,2,0,B|389:341|379:360|379:360|355:349|333:347,1,104.999996795654,2|2,0:0|0:0,0:0:0:0:
212,380,38352,1,2,0:0:0:0:
64,296,38752,6,0,P|56:245|60:193,1,104.999996795654,2|2,0:0|0:0,0:0:0:0:
158,114,39352,2,0,P|161:61|153:10,1,104.999996795654,2|2,0:0|0:0,0:0:0:0:
277,32,39952,2,0,P|311:36|345:44,1,69.9999978637696,2|2,0:0|0:0,0:0:0:0:
410,96,40352,6,0,P|375:133|374:184,1,104.999996795654,2|2,0:0|0:0,0:0:0:0:
415,304,40952,2,0,L|310:299,1,104.999996795654,2|2,0:0|0:0,0:0:0:0:
188,334,41552,1,2,0:0:0:0:
31,56,41952,5,0,1:0:0:0:
30,67,42352,1,0,1:0:0:0:
29,79,42752,1,0,1:0:0:0:
28,90,43152,1,0,1:0:0:0:
193,116,43552,5,0,1:0:0:0:
192,127,43952,1,0,1:0:0:0:
191,139,44352,1,0,1:0:0:0:
190,150,44752,1,0,1:0:0:0:
331,59,45152,5,0,1:0:0:0:
330,70,45552,1,0,1:0:0:0:
329,82,45952,1,0,1:0:0:0:
328,93,46352,1,0,1:0:0:0:
493,119,46752,5,0,1:0:0:0:
492,130,47152,1,0,1:0:0:0:
491,142,47552,1,0,1:0:0:0:
490,153,47952,1,0,1:0:0:0:
334,217,48352,6,0,P|300:207|266:198,1,69.9999978637696,0|0,1:0|1:0,0:0:0:0:
225,125,48752,2,0,P|199:149|175:174,1,69.9999978637696,0|0,1:0|1:0,0:0:0:0:
90,173,49152,2,0,P|98:207|108:240,1,69.9999978637696,0|0,1:0|1:0,0:0:0:0:
64,313,49552,2,0,P|97:322|131:331,1,69.9999978637696,0|0,1:0|1:0,0:0:0:0:
211,306,49952,6,0,L|207:375,1,69.9999978637696,0|0,1:0|1:0,0:0:0:0:
290,361,50352,2,0,L|293:291,1,69.9999978637696,0|0,1:0|1:0,0:0:0:0:
214,236,50752,2,0,L|210:305,1,69.9999978637696,0|0,1:0|1:0,0:0:0:0:
293,291,51152,2,0,L|296:221,1,69.9999978637696,0|0,1:0|1:0,0:0:0:0:
337,147,51552,6,0,P|354:147|371:148,3,34.9999989318848,0|0|0|0,1:0|1:0|1:0|1:0,0:0:0:0:
410,131,51952,2,0,P|418:146|425:162,3,34.9999989318848,0|0|0|0,1:0|1:0|1:0|1:0,0:0:0:0:
460,186,52352,2,0,P|450:200|441:215,3,34.9999989318848,0|0|0|0,1:0|1:0|1:0|1:0,0:0:0:0:
437,257,52752,2,0,P|419:256|402:255,3,34.9999989318848,0|0|0|0,1:0|1:0|1:0|1:0,0:0:0:0:
364,273,53152,6,0,P|385:319|373:369,1,104.999996795654,8|0,1:3|1:0,0:0:0:0:
366,377,53552,2,0,L|296:371,1,69.9999978637696,0|0,1:0|1:0,0:0:0:0:
226,324,53952,2,0,L|191:328,2,34.9999989318848,0|0|0,1:0|1:0|1:0,0:0:0:0:
275,256,54352,1,2,1:3:0:0:
86,212,54752,6,0,P|79:173|86:134,1,80,4|0,1:2|0:0,0:0:0:0:
114,101,55052,1,0,0:0:0:0:
114,101,55152,2,0,L|193:109,1,80,8|0,1:3|0:0,0:0:0:0:
269,66,55552,1,8,1:3:0:0:
292,150,55752,1,2,0:0:0:0:
379,146,55952,1,8,1:3:0:0:
356,62,56152,1,2,0:0:0:0:
292,150,56352,6,0,P|286:189|293:228,1,80,8|0,1:3|0:0,0:0:0:0:
324,260,56652,1,0,0:0:0:0:
324,260,56752,2,0,L|403:254,1,80,8|0,1:3|0:0,0:0:0:0:
345,363,57152,2,0,L|265:357,1,80,8|2,1:3|0:0,0:0:0:0:
177,348,57552,1,8,1:3:0:0:
482,303,57952,6,0,P|489:263|482:224,1,80,8|0,1:3|0:0,0:0:0:0:
452,191,58252,1,0,0:0:0:0:
452,191,58352,2,0,P|444:151|452:112,1,80,8|0,1:3|0:0,0:0:0:0:
399,41,58752,1,8,1:3:0:0:
319,78,58952,1,2,0:0:0:0:
254,17,59152,1,8,1:3:0:0:
174,54,59352,1,2,0:0:0:0:
238,168,59552,6,0,P|277:163|317:161,1,80,8|0,1:3|0:0,0:0:0:0:
350,191,59852,1,0,0:0:0:0:
350,191,59952,2,0,L|346:270,1,80,8|0,1:3|0:0,0:0:0:0:
286,335,60352,1,8,1:3:0:0:
201,308,60552,1,4,1:2:0:0:
116,282,60752,1,4,1:2:0:0:
238,88,61152,6,0,P|243:127|237:167,1,80,4|0,1:2|0:0,0:0:0:0:
208,200,61452,1,0,0:0:0:0:
208,200,61552,2,0,L|128:193,1,80,8|0,1:3|0:0,0:0:0:0:
44,164,61952,1,8,1:3:0:0:
26,77,62152,1,2,0:0:0:0:
111,97,62352,1,8,1:3:0:0:
93,10,62552,1,2,0:0:0:0:
225,73,62752,6,0,P|264:68|304:64,1,80,8|0,1:3|0:0,0:0:0:0:
347,74,63052,1,0,0:0:0:0:
347,74,63152,2,0,P|386:78|426:82,1,80,8|0,1:3|0:0,0:0:0:0:
509,52,63552,2,0,L|504:131,1,80,8|2,1:3|0:0,0:0:0:0:
497,219,63952,1,8,1:3:0:0:
293,355,64352,6,0,P|285:316|291:277,1,80,8|0,1:3|0:0,0:0:0:0:
304,235,64652,1,0,0:0:0:0:
304,235,64752,2,0,L|224:239,1,80,8|0,1:3|0:0,0:0:0:0:
143,276,65152,1,8,1:3:0:0:
83,209,65352,1,2,0:0:0:0:
127,131,65552,1,8,1:3:0:0:
215,150,65752,1,2,0:0:0:0:
83,209,65952,6,0,L|76:88,1,120,8|0,1:3|1:0,0:0:0:0:
70,79,66352,2,0,P|107:66|144:78,1,80,0|0,1:0|1:0,0:0:0:0:
230,57,66752,2,0,L|226:17,2,40,0|0|0,1:0|1:0|1:0,0:0:0:0:
298,111,67152,1,2,1:3:0:0:
459,40,67552,6,0,P|472:77|466:116,1,80,4|0,1:2|0:0,0:0:0:0:
431,142,67852,1,0,0:0:0:0:
431,142,67952,2,0,P|424:181|438:218,1,80,8|0,1:3|0:0,0:0:0:0:
476,297,68352,1,8,1:3:0:0:
397,337,68552,1,2,0:0:0:0:
329,280,68752,1,8,1:3:0:0:
250,320,68952,1,2,0:0:0:0:
163,225,69152,6,0,P|158:186|162:146,1,80,8|0,1:3|0:0,0:0:0:0:
187,110,69452,1,0,0:0:0:0:
187,110,69552,2,0,L|266:114,1,80,8|0,1:3|0:0,0:0:0:0:
288,32,69952,2,0,L|208:27,1,80,8|2,1:3|0:0,0:0:0:0:
120,25,70352,1,8,1:3:0:0:
354,97,70752,6,0,P|393:102|432:94,1,80,8|0,1:3|0:0,0:0:0:0:
473,76,71052,1,0,0:0:0:0:
473,76,71152,2,0,L|468:155,1,80,8|0,1:3|0:0,0:0:0:0:
410,222,71552,1,8,1:3:0:0:
468,287,71752,1,2,0:0:0:0:
419,360,71952,1,8,1:3:0:0:
361,295,72152,1,2,0:0:0:0:
260,380,72352,6,0,L|180:372,1,80,8|0,1:3|0:0,0:0:0:0:
136,378,72652,1,0,0:0:0:0:
135,377,72752,2,0,P|126:338|134:299,1,80,8|0,1:3|0:0,0:0:0:0:
174,220,73152,1,8,1:3:0:0:
88,201,73352,1,4,1:2:0:0:
4,182,73552,1,4,1:2:0:0:
252,38,73952,6,0,P|259:77|254:116,1,80,4|0,1:2|0:0,0:0:0:0:
241,158,74252,1,0,0:0:0:0:
241,158,74352,2,0,L|320:152,1,80,8|0,1:3|0:0,0:0:0:0:
408,142,74752,1,8,1:3:0:0:
490,112,74952,1,2,0:0:0:0:
442,38,75152,1,8,1:3:0:0:
360,68,75352,1,2,0:0:0:0:
490,112,75552,6,0,P|497:151|493:190,1,80,8|0,1:3|0:0,0:0:0:0:
470,228,75852,1,0,0:0:0:0:
470,228,75952,2,0,P|465:267|473:306,1,80,8|0,1:3|0:0,0:0:0:0:
405,362,76352,2,0,L|321:354,1,80,8|2,1:3|0:0,0:0:0:0:
239,334,76752,1,8,1:3:0:0:
77,158,77152,6,0,P|115:149|154:154,1,80,8|0,1:3|0:0,0:0:0:0:
194,174,77452,1,0,0:0:0:0:
194,174,77552,2,0,P|233:179|271:169,1,80,8|0,1:3|0:0,0:0:0:0:
329,103,77952,1,8,1:3:0:0:
407,143,78152,1,2,0:0:0:0:
469,80,78352,1,8,1:3:0:0:
391,40,78552,1,2,0:0:0:0:
407,143,78752,6,0,L|400:262,1,120,0|0,1:0|1:0,0:0:0:0:
405,274,79152,2,0,P|365:272|329:255,1,80,0|0,1:0|1:0,0:0:0:0:
260,308,79552,2,0,L|262:347,2,40,0|0|0,1:0|1:0|1:0,0:0:0:0:
203,240,79952,1,2,1:3:0:0:
301,147,80352,6,0,B|315:109|315:109|303:71,1,80,6|0,0:1|0:0,0:0:0:0:
292,55,80652,2,0,L|371:49,1,80,2|0,0:1|0:0,0:0:0:0:
387,37,80952,1,2,0:1:0:0:
499,105,81252,2,0,P|509:143|502:182,1,80,2|0,0:1|0:0,0:0:0:0:
492,200,81552,1,2,0:1:0:0:
506,286,81752,1,2,0:1:0:0:
424,332,81952,6,0,L|344:323,1,80,2|0,0:1|0:0,0:0:0:0:
337,305,82252,2,0,P|302:325|263:329,1,80,2|0,0:1|0:0,0:0:0:0:
248,317,82552,1,2,0:1:0:0:
171,359,82752,1,2,0:3:0:0:
171,359,82852,2,0,L|51:347,1,120,2|2,0:1|0:1,0:0:0:0:
5,133,83552,6,0,B|45:127|45:127|80:144,1,80,2|0,0:1|0:0,0:0:0:0:
96,158,83852,2,0,L|104:78,1,80,2|0,0:1|0:0,0:0:0:0:
116,62,84152,1,2,0:1:0:0:
242,25,84452,2,0,P|252:63|244:101,1,80,2|0,0:1|0:0,0:0:0:0:
232,118,84752,1,2,0:1:0:0:
281,190,84952,1,2,0:1:0:0:
339,124,85152,6,0,L|418:118,1,80,2|0,0:1|0:0,0:0:0:0:
436,108,85452,2,0,B|425:146|425:146|430:185,1,80,2|0,0:1|0:0,0:0:0:0:
443,202,85752,1,2,0:1:0:0:
394,275,85952,1,2,0:3:0:0:
394,275,86052,2,0,L|274:269,1,120,2|2,0:1|0:1,0:0:0:0:
201,319,86552,1,2,0:1:0:0:
138,256,86752,6,0,P|124:219|120:180,1,80,6|0,0:1|0:0,0:0:0:0:
101,175,87052,2,0,P|115:137|119:98,1,80,2|0,0:1|0:0,0:0:0:0:
105,84,87352,1,2,0:1:0:0:
19,184,87652,2,0,L|15:263,1,80,2|0,0:1|0:0,0:0:0:0:
22,283,87952,1,2,0:1:0:0:
97,329,88152,1,2,0:1:0:0:
138,252,88352,6,0,P|177:245|215:254,1,80,2|0,0:1|0:0,0:0:0:0:
234,264,88652,2,0,P|272:272|311:265,1,80,2|0,0:1|0:0,0:0:0:0:
329,255,88952,1,2,0:1:0:0:
396,312,89152,1,2,0:3:0:0:
396,312,89252,2,0,L|516:300,1,120,2|2,0:1|0:1,0:0:0:0:
500,87,89952,6,0,P|461:84|429:106,1,80,2|0,0:1|0:0,0:0:0:0:
427,127,90252,2,0,L|347:117,1,80,2|0,0:1|0:0,0:0:0:0:
331,106,90552,1,2,0:1:0:0:
220,178,90852,2,0,P|181:180|141:174,1,80,2|0,0:1|0:0,0:0:0:0:
126,162,91152,1,2,0:1:0:0:
88,83,91352,1,2,0:1:0:0:
20,139,91552,5,2,0:3:0:0:
20,152,91952,1,2,0:3:0:0:
21,165,92352,2,0,L|16:205,4,40,2|2|2|2|2,0:3|0:0|0:0|0:0|0:3,0:0:0:0:
80,331,93152,5,6,0:0:0:0:
80,331,93552,1,10,1:3:0:0:
166,314,93752,1,10,1:3:0:0:
253,296,93952,2,0,B|340:286|321:333|407:320,1,160,10|10,1:3|1:3,0:0:0:0:
478,266,94552,1,0,0:0:0:0:
419,201,94752,6,0,L|425:121,1,80,2|0,0:1|0:0,0:0:0:0:
420,102,95052,2,0,L|340:108,1,80,2|0,0:1|0:0,0:0:0:0:
326,122,95352,1,2,0:1:0:0:
256,67,95552,1,2,0:3:0:0:
256,67,95652,2,0,P|198:56|141:73,1,120,2|2,0:1|0:1,0:0:0:0:
53,225,96352,6,0,P|52:264|57:304,1,80,2|0,0:1|0:0,0:0:0:0:
76,312,96652,2,0,P|111:293|143:269,1,80,2|0,0:1|0:0,0:0:0:0:
151,251,96952,1,2,0:1:0:0:
260,324,97252,2,0,L|339:313,1,80,2|0,0:1|0:0,0:0:0:0:
354,300,97552,1,2,0:1:0:0:
432,338,97752,1,2,0:1:0:0:
466,257,97952,6,0,L|461:177,1,80,2|0,0:1|0:0,0:0:0:0:
446,164,98252,2,0,L|441:84,1,80,2|0,0:1|0:0,0:0:0:0:
448,65,98552,1,2,0:1:0:0:
367,29,98752,1,2,0:3:0:0:
367,29,98852,2,0,B|339:66|339:66|265:56,1,120,2|2,0:1|0:1,0:0:0:0:
193,6,99352,1,2,0:1:0:0:
119,54,99552,6,0,P|120:93|123:133,1,80,6|0,0:1|0:0,0:0:0:0:
135,150,99852,2,0,P|133:189|130:229,1,80,2|0,0:1|0:0,0:0:0:0:
118,245,100152,1,2,0:1:0:0:
95,375,100452,2,0,L|15:371,1,80,2|0,0:1|0:0,0:0:0:0:
12,352,100752,1,2,0:1:0:0:
38,267,100952,1,2,0:1:0:0:
13,182,101152,6,0,P|8:142|15:103,1,80,2|0,0:1|0:0,0:0:0:0:
30,90,101452,2,0,L|109:95,1,80,2|0,0:1|0:0,0:0:0:0:
130,98,101752,1,2,0:1:0:0:
194,38,101952,1,2,0:3:0:0:
194,38,102052,2,0,B|266:29|236:69|309:57,1,120,2|2,0:1|0:1,0:0:0:0:
490,215,102752,6,0,P|454:200|415:205,1,80,2|0,0:1|0:0,0:0:0:0:
402,221,103052,2,0,L|322:213,1,80,2|0,0:1|0:0,0:0:0:0:
306,201,103352,1,2,0:1:0:0:
203,284,103652,2,0,P|195:322|198:362,1,80,2|0,0:1|0:0,0:0:0:0:
209,380,103952,1,2,0:1:0:0:
296,371,104152,1,2,0:1:0:0:
383,362,104352,5,2,0:3:0:0:
384,348,104752,1,2,0:3:0:0:
385,335,105152,2,0,L|382:295,4,40,2|2|2|2|2,0:3|0:0|0:0|0:0|0:3,0:0:0:0:
256,192,105952,5,4,0:0:0:0:
