osu file format v14

[General]
AudioFilename: audio.mp3
AudioLeadIn: 0
PreviewTime: 76114
Countdown: 0
SampleSet: Normal
StackLeniency: 0.7
Mode: 1
LetterboxInBreaks: 0
WidescreenStoryboard: 1

[Editor]
DistanceSpacing: 1
BeatDivisor: 4
GridSize: 32
TimelineZoom: 1.2

[Metadata]
Title:Ready For The Madness
TitleUnicode:Ready For The Madness
Artist:RiraN
ArtistUnicode:RiraN
Creator:Saoji
Version:Muzukashii
Source:
Tags:Yales featured artist osu! fa mpg mg mappers' guild electronic hardstyle instrumental english lose control
BeatmapID:3386539
BeatmapSetID:1650835

[Difficulty]
HPDrainRate:6
CircleSize:6
OverallDifficulty:5
ApproachRate:6
SliderMultiplier:1.4
SliderTickRate:1

[Events]
//Background and Video events
0,0,"bg.jpg",0,-50
//Break Periods
//Storyboard Layer 0 (Background)
//Storyboard Layer 1 (Fail)
//Storyboard Layer 2 (Pass)
//Storyboard Layer 3 (Foreground)
//Storyboard Layer 4 (Overlay)
//Storyboard Sound Samples

[TimingPoints]
1531,333.333333333333,4,1,0,80,1,0
2780,-100,4,1,0,60,0,0
13447,-100,4,1,0,70,0,0
18780,-100,4,1,0,80,0,0
24114,-100,4,1,0,90,0,0
24197,-100,4,1,0,90,0,1
34864,-100,4,1,0,90,0,0
35197,-100,4,1,0,90,0,1
45447,-100,4,1,0,75,0,1
45530,-100,4,1,0,75,0,0
56114,-100,4,1,0,80,0,0
77447,-100,4,1,0,90,0,0
77530,-100,4,1,0,90,0,1
100114,-100,4,1,0,80,0,1
100197,-100,4,1,0,80,0,0
109447,-100,4,1,0,50,0,0

[HitObjects]
106,217,1531,5,12,0:0:0:0:
139,228,1864,1,0,0:0:0:0:
134,236,2197,1,8,0:0:0:0:
106,226,2364,1,8,0:0:0:0:
116,226,2530,1,4,0:0:0:0:
125,225,2864,1,12,0:0:0:0:
135,225,3197,1,0,0:0:0:0:
136,227,3530,1,0,0:0:0:0:
136,227,3864,1,0,0:0:0:0:
135,225,4197,1,0,0:0:0:0:
136,227,4530,1,0,0:0:0:0:
159,221,4864,1,0,0:0:0:0:
159,221,5197,1,0,0:0:0:0:
151,220,5530,1,0,0:0:0:0:
171,221,5864,1,0,0:0:0:0:
171,221,6197,1,0,0:0:0:0:
171,221,6530,1,0,0:0:0:0:
171,221,6864,1,0,0:0:0:0:
171,221,7197,1,0,0:0:0:0:
171,221,7530,1,0,0:0:0:0:
171,221,7864,1,0,0:0:0:0:
171,221,8197,1,8,0:0:0:0:
171,221,8530,1,8,0:0:0:0:
165,228,8864,1,8,0:0:0:0:
165,228,9197,1,8,0:0:0:0:
177,227,9530,1,8,0:0:0:0:
177,228,9864,1,8,0:0:0:0:
173,228,10197,1,8,0:0:0:0:
177,227,10530,1,8,0:0:0:0:
173,228,10864,1,8,0:0:0:0:
180,227,11197,1,8,0:0:0:0:
177,227,11530,1,8,0:0:0:0:
180,227,11864,1,8,0:0:0:0:
180,227,12197,1,8,0:0:0:0:
180,227,12530,1,8,0:0:0:0:
183,224,12864,1,8,0:0:0:0:
183,223,13197,1,8,0:0:0:0:
187,232,13530,1,4,0:0:0:0:
212,223,14197,1,8,0:0:0:0:
220,227,14364,1,0,0:0:0:0:
217,225,14530,1,8,0:0:0:0:
222,225,14864,1,8,0:0:0:0:
216,219,15030,1,0,0:0:0:0:
219,218,15197,1,8,0:0:0:0:
219,218,15280,1,8,0:0:0:0:
219,218,15447,1,0,0:0:0:0:
219,218,15530,1,0,0:0:0:0:
219,218,15697,1,0,0:0:0:0:
219,221,15864,1,8,0:0:0:0:
244,211,16197,1,8,0:0:0:0:
243,215,16364,1,8,0:0:0:0:
267,227,16530,1,0,0:0:0:0:
262,222,16614,1,0,0:0:0:0:
262,221,16780,1,8,0:0:0:0:
259,222,16864,1,8,0:0:0:0:
272,219,17030,1,0,0:0:0:0:
275,223,17197,1,8,0:0:0:0:
268,220,17530,1,8,0:0:0:0:
274,216,17697,1,8,0:0:0:0:
271,213,17864,1,8,0:0:0:0:
272,214,18030,1,0,0:0:0:0:
272,214,18197,1,8,0:0:0:0:
273,212,18364,1,8,0:0:0:0:
273,212,18530,1,0,0:0:0:0:
276,212,18864,1,12,0:0:0:0:
270,202,19364,1,0,0:0:0:0:
277,217,19530,1,8,0:0:0:0:
268,216,19697,1,8,0:0:0:0:
268,216,19864,1,0,0:0:0:0:
270,216,20197,1,8,0:0:0:0:
271,216,20364,1,0,0:0:0:0:
270,217,20530,1,0,0:0:0:0:
268,216,20697,1,8,0:0:0:0:
268,216,20864,1,8,0:0:0:0:
266,220,21030,1,0,0:0:0:0:
266,220,21197,1,8,0:0:0:0:
269,222,21530,1,8,0:0:0:0:
271,222,21614,1,8,0:0:0:0:
271,222,21697,1,8,0:0:0:0:
271,222,21864,1,8,0:0:0:0:
266,220,22030,1,0,0:0:0:0:
266,220,22114,1,0,0:0:0:0:
266,220,22197,1,0,0:0:0:0:
269,222,22364,1,8,0:0:0:0:
269,222,22530,1,0,0:0:0:0:
271,222,22864,1,12,0:0:0:0:
266,220,23197,1,0,0:0:0:0:
263,220,23530,1,8,0:0:0:0:
288,246,23697,1,8,0:0:0:0:
262,220,23864,1,4,0:0:0:0:
266,220,24197,1,12,0:0:0:0:
154,225,24864,1,0,0:0:0:0:
186,233,25114,1,0,0:0:0:0:
160,222,25364,1,8,0:0:0:0:
171,227,25530,1,0,0:0:0:0:
167,227,25864,1,8,0:0:0:0:
168,230,26030,1,8,0:0:0:0:
181,235,26197,1,0,0:0:0:0:
177,231,26530,1,0,0:0:0:0:
177,231,26614,1,0,0:0:0:0:
177,231,26697,1,0,0:0:0:0:
177,231,26864,1,0,0:0:0:0:
181,235,27197,1,8,0:0:0:0:
200,239,27530,1,0,0:0:0:0:
200,238,27780,1,8,0:0:0:0:
204,240,28030,1,8,0:0:0:0:
205,243,28197,1,0,0:0:0:0:
201,245,28530,1,0,0:0:0:0:
218,243,28864,1,8,0:0:0:0:
213,239,29530,1,12,0:0:0:0:
216,238,29864,1,8,0:0:0:0:
219,247,30197,1,0,0:0:0:0:
207,241,30447,1,0,0:0:0:0:
209,237,30697,1,8,0:0:0:0:
209,237,30864,1,0,0:0:0:0:
227,234,31197,1,8,0:0:0:0:
240,233,31364,1,0,0:0:0:0:
231,239,31530,1,8,0:0:0:0:
245,240,31864,1,8,0:0:0:0:
245,239,31947,1,8,0:0:0:0:
245,239,32030,1,8,0:0:0:0:
241,243,32197,1,0,0:0:0:0:
181,235,32530,1,8,0:0:0:0:
200,239,32863,1,0,0:0:0:0:
208,235,33030,1,8,0:0:0:0:
200,238,33113,1,8,0:0:0:0:
220,258,33197,1,8,0:0:0:0:
204,240,33363,1,8,0:0:0:0:
205,243,33530,1,8,0:0:0:0:
222,252,33697,1,0,0:0:0:0:
210,243,33780,1,0,0:0:0:0:
201,245,33863,1,0,0:0:0:0:
235,239,34030,1,0,0:0:0:0:
218,243,34197,1,8,0:0:0:0:
225,243,34364,1,8,0:0:0:0:
229,242,34530,1,0,0:0:0:0:
247,240,34864,1,8,0:0:0:0:
244,236,35197,1,4,0:0:0:0:
253,227,35364,1,4,0:0:0:0:
242,236,35530,1,4,0:0:0:0:
238,249,36197,1,8,0:0:0:0:
230,249,36364,1,0,0:0:0:0:
231,250,36530,1,8,0:0:0:0:
231,250,36697,1,8,0:0:0:0:
229,249,36864,1,0,0:0:0:0:
228,251,37197,1,0,0:0:0:0:
230,249,37280,1,0,0:0:0:0:
230,249,37364,1,0,0:0:0:0:
229,254,37530,1,0,0:0:0:0:
181,235,37864,1,8,0:0:0:0:
200,239,38197,1,0,0:0:0:0:
200,238,38447,1,8,0:0:0:0:
204,240,38697,1,8,0:0:0:0:
205,243,38864,1,0,0:0:0:0:
218,250,39030,1,0,0:0:0:0:
201,245,39197,1,0,0:0:0:0:
218,249,39364,1,0,0:0:0:0:
218,243,39531,1,8,0:0:0:0:
226,245,39697,1,8,0:0:0:0:
233,244,39864,1,0,0:0:0:0:
244,247,40197,1,12,0:0:0:0:
264,232,40864,1,0,0:0:0:0:
275,229,41114,1,0,0:0:0:0:
255,227,41364,1,8,0:0:0:0:
251,235,41530,1,0,0:0:0:0:
264,232,41864,1,8,0:0:0:0:
266,229,42030,1,8,0:0:0:0:
266,229,42197,1,0,0:0:0:0:
280,221,42530,1,8,0:0:0:0:
273,221,42614,1,8,0:0:0:0:
270,221,42697,1,8,0:0:0:0:
268,221,42864,1,8,0:0:0:0:
278,227,43030,1,0,0:0:0:0:
275,224,43197,1,8,0:0:0:0:
296,227,43364,1,8,0:0:0:0:
292,228,43530,1,0,0:0:0:0:
292,228,43614,1,0,0:0:0:0:
292,228,43697,1,0,0:0:0:0:
292,228,43864,1,0,0:0:0:0:
306,237,44197,1,12,0:0:0:0:
301,234,44530,1,0,0:0:0:0:
300,234,44864,1,8,0:0:0:0:
298,232,45030,1,8,0:0:0:0:
298,232,45197,1,4,0:0:0:0:
301,234,45530,1,12,0:0:0:0:
286,233,46030,1,8,0:0:0:0:
291,237,46364,1,0,0:0:0:0:
292,237,46530,1,8,0:0:0:0:
288,227,46697,1,8,0:0:0:0:
293,234,46864,1,0,0:0:0:0:
276,233,47197,1,8,0:0:0:0:
291,237,47364,1,0,0:0:0:0:
300,245,47697,1,0,0:0:0:0:
291,245,47864,1,8,0:0:0:0:
291,243,48030,1,8,0:0:0:0:
296,248,48197,1,0,0:0:0:0:
260,234,48530,1,8,0:0:0:0:
284,248,48697,1,0,0:0:0:0:
275,243,49030,1,0,0:0:0:0:
282,252,49197,1,8,0:0:0:0:
293,253,49364,1,0,0:0:0:0:
291,252,49530,1,8,0:0:0:0:
289,256,49864,1,0,0:0:0:0:
286,254,50030,1,8,0:0:0:0:
278,250,50364,1,0,0:0:0:0:
288,256,50530,1,8,0:0:0:0:
282,239,50697,1,0,0:0:0:0:
272,249,50864,1,8,0:0:0:0:
271,239,51197,1,8,0:0:0:0:
272,239,51530,1,8,0:0:0:0:
272,239,51864,1,8,0:0:0:0:
271,239,52197,1,0,0:0:0:0:
267,239,52530,1,0,0:0:0:0:
267,239,52864,1,0,0:0:0:0:
266,239,53197,1,0,0:0:0:0:
267,239,53530,1,8,0:0:0:0:
267,239,53864,1,8,0:0:0:0:
266,239,54197,1,8,0:0:0:0:
267,239,54530,1,8,0:0:0:0:
267,239,54864,1,0,0:0:0:0:
263,231,55197,1,0,0:0:0:0:
263,230,55530,1,0,0:0:0:0:
263,230,55864,1,0,0:0:0:0:
258,227,56197,1,12,0:0:0:0:
256,226,56864,1,0,0:0:0:0:
236,224,57197,1,0,0:0:0:0:
236,223,57530,1,0,0:0:0:0:
222,225,57864,1,8,0:0:0:0:
236,224,58030,1,8,0:0:0:0:
236,224,58197,1,0,0:0:0:0:
231,227,58364,1,8,0:0:0:0:
228,229,58530,1,0,0:0:0:0:
244,231,59030,1,8,0:0:0:0:
255,229,59197,1,8,0:0:0:0:
251,231,59364,1,0,0:0:0:0:
249,231,59530,1,8,0:0:0:0:
258,230,59864,1,8,0:0:0:0:
259,230,60197,1,8,0:0:0:0:
264,241,60530,1,8,0:0:0:0:
263,241,60697,1,0,0:0:0:0:
266,246,60864,1,8,0:0:0:0:
266,245,61030,1,0,0:0:0:0:
266,245,61197,1,0,0:0:0:0:
278,229,61697,1,0,0:0:0:0:
271,231,61863,1,0,0:0:0:0:
271,230,62030,1,8,0:0:0:0:
273,227,62197,1,0,0:0:0:0:
278,229,62530,1,0,0:0:0:0:
281,226,62864,1,0,0:0:0:0:
278,229,63197,1,8,0:0:0:0:
286,220,63364,1,8,0:0:0:0:
282,228,63530,1,0,0:0:0:0:
282,229,63697,1,8,0:0:0:0:
284,229,63864,1,0,0:0:0:0:
295,228,64364,1,8,0:0:0:0:
291,232,64530,1,8,0:0:0:0:
291,219,64697,1,0,0:0:0:0:
285,221,64864,1,0,0:0:0:0:
298,209,65197,1,8,0:0:0:0:
285,222,65364,1,0,0:0:0:0:
284,223,65530,1,0,0:0:0:0:
296,224,65864,1,8,0:0:0:0:
296,223,66197,1,8,0:0:0:0:
297,222,66530,1,8,0:0:0:0:
296,224,66864,1,4,0:0:0:0:
267,187,67530,1,8,0:0:0:0:
264,194,67864,1,0,0:0:0:0:
288,192,68364,1,0,0:0:0:0:
276,199,68530,1,0,0:0:0:0:
276,199,68697,1,0,0:0:0:0:
259,184,68864,1,8,0:0:0:0:
259,184,69197,1,8,0:0:0:0:
288,192,69697,1,8,0:0:0:0:
276,199,69863,1,0,0:0:0:0:
276,199,70030,1,0,0:0:0:0:
259,184,70197,1,8,0:0:0:0:
259,184,70530,1,8,0:0:0:0:
288,192,71030,1,8,0:0:0:0:
276,199,71196,1,8,0:0:0:0:
276,199,71363,1,0,0:0:0:0:
259,184,71530,1,8,0:0:0:0:
259,184,71863,1,0,0:0:0:0:
305,185,72197,1,12,0:0:0:0:
214,190,72864,1,8,0:0:0:0:
216,197,73030,1,8,0:0:0:0:
216,197,73197,1,0,0:0:0:0:
216,197,73364,1,8,0:0:0:0:
214,199,73530,1,0,0:0:0:0:
215,200,73864,1,0,0:0:0:0:
214,199,74030,1,0,0:0:0:0:
254,201,74197,1,8,0:0:0:0:
228,203,74364,1,0,0:0:0:0:
218,189,74530,1,8,0:0:0:0:
233,201,74864,1,8,0:0:0:0:
236,198,74947,1,8,0:0:0:0:
236,198,75030,1,8,0:0:0:0:
236,198,75197,1,8,0:0:0:0:
239,196,75530,1,0,0:0:0:0:
238,196,75614,1,0,0:0:0:0:
238,196,75697,1,0,0:0:0:0:
236,197,75864,1,0,0:0:0:0:
236,198,76197,1,12,0:0:0:0:
239,196,76530,1,0,0:0:0:0:
241,197,76864,1,8,0:0:0:0:
243,195,77030,1,8,0:0:0:0:
243,195,77197,1,4,0:0:0:0:
239,196,77530,1,12,0:0:0:0:
260,199,78197,1,8,0:0:0:0:
270,201,78530,1,8,0:0:0:0:
268,201,78864,1,0,0:0:0:0:
266,207,79197,1,8,0:0:0:0:
267,207,79364,1,8,0:0:0:0:
269,214,79530,1,0,0:0:0:0:
265,212,79697,1,8,0:0:0:0:
265,211,79780,1,8,0:0:0:0:
261,215,79864,1,0,0:0:0:0:
256,210,80364,1,0,0:0:0:0:
271,205,80530,1,8,0:0:0:0:
273,208,80697,1,0,0:0:0:0:
265,210,80864,1,8,0:0:0:0:
274,207,81197,1,0,0:0:0:0:
276,207,81530,1,0,0:0:0:0:
272,193,81864,1,8,0:0:0:0:
276,202,82030,1,0,0:0:0:0:
277,202,82197,1,0,0:0:0:0:
273,198,82364,1,8,0:0:0:0:
275,197,82530,1,0,0:0:0:0:
280,200,82864,1,12,0:0:0:0:
260,199,83530,1,8,0:0:0:0:
270,201,83863,1,8,0:0:0:0:
268,201,84197,1,0,0:0:0:0:
266,207,84530,1,8,0:0:0:0:
267,207,84697,1,8,0:0:0:0:
269,214,84863,1,0,0:0:0:0:
265,212,85030,1,8,0:0:0:0:
265,211,85113,1,8,0:0:0:0:
261,215,85197,1,0,0:0:0:0:
279,215,85697,1,0,0:0:0:0:
284,217,85864,1,8,0:0:0:0:
277,213,86030,1,8,0:0:0:0:
276,211,86197,1,0,0:0:0:0:
274,207,86530,1,8,0:0:0:0:
274,206,86697,1,8,0:0:0:0:
271,207,86864,1,0,0:0:0:0:
274,204,87197,1,8,0:0:0:0:
274,207,87364,1,0,0:0:0:0:
274,207,87530,1,8,0:0:0:0:
274,206,87614,1,8,0:0:0:0:
274,206,87697,1,8,0:0:0:0:
271,207,87864,1,8,0:0:0:0:
280,216,88030,1,0,0:0:0:0:
280,215,88197,1,12,0:0:0:0:
281,215,88864,1,8,0:0:0:0:
280,216,89030,1,0,0:0:0:0:
280,215,89197,1,8,0:0:0:0:
286,216,89364,1,8,0:0:0:0:
281,215,89530,1,0,0:0:0:0:
281,215,89864,1,8,0:0:0:0:
288,215,90030,1,0,0:0:0:0:
285,212,90114,1,0,0:0:0:0:
284,212,90197,1,0,0:0:0:0:
286,216,90364,1,8,0:0:0:0:
283,211,90530,1,0,0:0:0:0:
276,214,90864,1,8,0:0:0:0:
294,210,91030,1,0,0:0:0:0:
281,222,91197,1,8,0:0:0:0:
298,222,91530,1,0,0:0:0:0:
293,217,91697,1,8,0:0:0:0:
287,219,91864,1,0,0:0:0:0:
293,217,91947,1,0,0:0:0:0:
287,219,92030,1,0,0:0:0:0:
290,219,92197,1,0,0:0:0:0:
298,220,92530,1,8,0:0:0:0:
298,220,92614,1,8,0:0:0:0:
298,220,92697,1,8,0:0:0:0:
287,219,92864,1,8,0:0:0:0:
287,219,93030,1,8,0:0:0:0:
290,219,93197,1,0,0:0:0:0:
286,222,93530,1,12,0:0:0:0:
281,215,94197,1,8,0:0:0:0:
280,215,94530,1,0,0:0:0:0:
286,216,94697,1,8,0:0:0:0:
281,215,94863,1,0,0:0:0:0:
309,210,95030,1,0,0:0:0:0:
281,215,95197,1,8,0:0:0:0:
299,216,95280,1,8,0:0:0:0:
294,216,95364,1,8,0:0:0:0:
281,210,95530,1,8,0:0:0:0:
286,216,95697,1,8,0:0:0:0:
283,211,95863,1,0,0:0:0:0:
276,214,96197,1,12,0:0:0:0:
281,222,96530,1,8,0:0:0:0:
293,217,96697,1,0,0:0:0:0:
293,217,96780,1,0,0:0:0:0:
293,217,96863,1,0,0:0:0:0:
293,217,97030,1,0,0:0:0:0:
287,219,97197,1,8,0:0:0:0:
287,219,97363,1,8,0:0:0:0:
290,219,97530,1,0,0:0:0:0:
266,203,97864,1,8,0:0:0:0:
258,205,98030,1,8,0:0:0:0:
255,205,98197,1,0,0:0:0:0:
266,203,98364,1,8,0:0:0:0:
247,207,98530,1,0,0:0:0:0:
249,187,98864,1,8,0:0:0:0:
264,188,99197,1,4,0:0:0:0:
245,197,99364,1,4,0:0:0:0:
245,197,99530,1,4,0:0:0:0:
246,190,100197,1,12,0:0:0:0:
250,192,100530,1,8,0:0:0:0:
236,188,100697,1,8,0:0:0:0:
237,190,100864,1,0,0:0:0:0:
229,185,101197,1,8,0:0:0:0:
224,186,101530,1,0,0:0:0:0:
224,186,101614,1,0,0:0:0:0:
224,186,101697,1,0,0:0:0:0:
225,191,101864,1,8,0:0:0:0:
215,185,102197,1,8,0:0:0:0:
224,186,102280,1,8,0:0:0:0:
224,186,102364,1,8,0:0:0:0:
241,193,102530,1,8,0:0:0:0:
246,189,102864,1,8,0:0:0:0:
236,198,103197,1,8,0:0:0:0:
242,198,103364,1,0,0:0:0:0:
223,198,103530,1,8,0:0:0:0:
239,199,103864,1,0,0:0:0:0:
241,198,104197,1,8,0:0:0:0:
254,207,104530,1,4,0:0:0:0:
250,206,104697,1,4,0:0:0:0:
250,206,104864,1,4,0:0:0:0:
261,210,105530,1,12,0:0:0:0:
250,192,105864,1,8,0:0:0:0:
236,188,106031,1,8,0:0:0:0:
237,190,106198,1,0,0:0:0:0:
229,185,106531,1,8,0:0:0:0:
224,186,106864,1,0,0:0:0:0:
224,186,106948,1,0,0:0:0:0:
224,186,107031,1,0,0:0:0:0:
225,191,107198,1,8,0:0:0:0:
245,188,107364,1,0,0:0:0:0:
215,185,107531,1,8,0:0:0:0:
224,186,107614,1,8,0:0:0:0:
224,186,107698,1,8,0:0:0:0:
241,193,107864,1,8,0:0:0:0:
237,186,108030,1,0,0:0:0:0:
246,189,108198,1,12,0:0:0:0:
236,198,108531,1,0,0:0:0:0:
223,198,108864,1,8,0:0:0:0:
215,199,109030,1,8,0:0:0:0:
239,199,109198,1,4,0:0:0:0:
241,198,109531,1,12,0:0:0:0:
