osu file format v14

[General]
AudioFilename: audio.mp3
AudioLeadIn: 0
PreviewTime: 76114
Countdown: 0
SampleSet: Normal
StackLeniency: 0.7
Mode: 1
LetterboxInBreaks: 0
WidescreenStoryboard: 0

[Editor]
DistanceSpacing: 1
BeatDivisor: 4
GridSize: 32
TimelineZoom: 2.1

[Metadata]
Title:Ready For The Madness
TitleUnicode:Ready For The Madness
Artist:RiraN
ArtistUnicode:RiraN
Creator:Saoji
Version:Inner Oni
Source:
Tags:Yales featured artist osu! fa mpg mg mappers' guild electronic hardstyle instrumental english lose control
BeatmapID:3370052
BeatmapSetID:1650835

[Difficulty]
HPDrainRate:6
CircleSize:6
OverallDifficulty:6
ApproachRate:6
SliderMultiplier:1.4
SliderTickRate:1

[Events]
//Background and Video events
0,0,"bg.jpg",0,-50
//Break Periods
//Storyboard Layer 0 (Background)
//Storyboard Layer 1 (Fail)
//Storyboard Layer 2 (Pass)
//Storyboard Layer 3 (Foreground)
//Storyboard Layer 4 (Overlay)
//Storyboard Sound Samples

[TimingPoints]
1531,333.333333333333,4,1,0,80,1,0
1531,-90.9090909090909,4,1,0,80,0,0
2822,-80,4,1,0,60,0,0
2947,-80.6451612903226,4,1,0,60,0,0
3114,-81.3008130081301,4,1,0,60,0,0
3280,-81.9672131147541,4,1,0,60,0,0
3447,-82.6446280991736,4,1,0,60,0,0
3614,-83.3333333333333,4,1,0,60,0,0
3780,-84.0336134453782,4,1,0,60,0,0
3947,-84.7457627118644,4,1,0,60,0,0
4114,-85.4700854700855,4,1,0,60,0,0
4280,-86.2068965517241,4,1,0,60,0,0
4447,-86.9565217391304,4,1,0,60,0,0
4614,-87.719298245614,4,1,0,60,0,0
4780,-88.495575221239,4,1,0,60,0,0
4947,-89.2857142857143,4,1,0,60,0,0
5114,-90.0900900900901,4,1,0,60,0,0
5280,-90.9090909090909,4,1,0,60,0,0
5447,-91.743119266055,4,1,0,60,0,0
5614,-92.5925925925926,4,1,0,60,0,0
5780,-93.4579439252336,4,1,0,60,0,0
5947,-94.3396226415094,4,1,0,60,0,0
6114,-95.2380952380952,4,1,0,60,0,0
6280,-96.1538461538461,4,1,0,60,0,0
6447,-97.0873786407767,4,1,0,60,0,0
6614,-98.0392156862745,4,1,0,60,0,0
6780,-99.009900990099,4,1,0,60,0,0
6947,-100,4,1,0,60,0,0
7114,-101.010101010101,4,1,0,60,0,0
7280,-102.040816326531,4,1,0,60,0,0
7447,-103.092783505155,4,1,0,60,0,0
7614,-104.166666666667,4,1,0,60,0,0
7780,-105.263157894737,4,1,0,60,0,0
7947,-106.382978723404,4,1,0,60,0,0
8114,-107.52688172043,4,1,0,60,0,0
13489,-100,4,1,0,70,0,0
18405,-100,4,1,0,70,0,0
18489,-99.009900990099,4,1,0,70,0,0
18572,-98.0392156862745,4,1,0,70,0,0
18614,-97.0873786407767,4,1,0,70,0,0
18676,-96.1538461538461,4,1,0,70,0,0
18822,-95.2380952380952,4,1,0,80,0,0
18989,-95.2380952380952,4,1,0,80,0,0
19072,-94.8717948717949,4,1,0,80,0,0
19155,-94.5083014048531,4,1,0,80,0,0
19322,-94.147582697201,4,1,0,80,0,0
19489,-93.7896070975919,4,1,0,80,0,0
19572,-93.4343434343434,4,1,0,80,0,0
19739,-93.0817610062893,4,1,0,80,0,0
19822,-92.7318295739348,4,1,0,80,0,0
19905,-92.3845193508115,4,1,0,80,0,0
19989,-92.0398009950249,4,1,0,80,0,0
20155,-91.6976456009913,4,1,0,80,0,0
20322,-91.358024691358,4,1,0,80,0,0
20405,-91.0209102091021,4,1,0,80,0,0
20489,-90.6862745098039,4,1,0,80,0,0
20655,-90.3540903540904,4,1,0,80,0,0
20753,-90.0243309002433,4,1,0,80,0,0
20808,-89.6969696969697,4,1,0,80,0,0
20919,-89.3719806763285,4,1,0,80,0,0
21030,-89.0493381468111,4,1,0,80,0,0
21142,-88.7290167865707,4,1,0,80,0,0
21322,-88.4109916367981,4,1,0,80,0,0
21489,-88.0952380952381,4,1,0,80,0,0
21572,-87.7817319098458,4,1,0,80,0,0
21655,-87.4704491725768,4,1,0,80,0,0
21739,-87.1613663133098,4,1,0,80,0,0
21822,-86.8544600938967,4,1,0,80,0,0
21905,-86.5497076023392,4,1,0,80,0,0
21989,-86.2470862470863,4,1,0,80,0,0
22072,-85.9465737514518,4,1,0,80,0,0
22155,-85.6481481481481,4,1,0,80,0,0
22239,-85.3517877739331,4,1,0,80,0,0
22322,-85.0574712643678,4,1,0,80,0,0
22405,-84.7651775486827,4,1,0,80,0,0
22489,-84.4748858447489,4,1,0,80,0,0
22572,-84.1865756541524,4,1,0,80,0,0
22655,-83.9002267573696,4,1,0,80,0,0
22739,-83.6158192090396,4,1,0,80,0,0
22822,-83.3333333333333,4,1,0,80,0,0
24114,-83.3333333333333,4,1,0,90,0,0
24197,-90.9090909090909,4,1,0,90,0,1
34864,-90.9090909090909,4,1,0,90,0,0
35197,-90.9090909090909,4,1,0,90,0,1
44419,-90.9090909090909,4,1,0,90,0,1
44503,-90.0900900900901,4,1,0,90,0,1
44558,-89.2857142857143,4,1,0,90,0,1
44614,-88.4955752212389,4,1,0,90,0,1
44669,-87.719298245614,4,1,0,90,0,1
44753,-86.9565217391304,4,1,0,90,0,1
44836,-86.2068965517241,4,1,0,90,0,1
44892,-85.4700854700855,4,1,0,90,0,1
44947,-84.7457627118644,4,1,0,90,0,1
45003,-84.0336134453782,4,1,0,90,0,1
45169,-83.3333333333333,4,1,0,90,0,1
45447,-83.3333333333333,4,1,0,75,0,1
45530,-80,4,1,0,75,0,0
45822,-80.9399477806789,4,1,0,75,0,0
45989,-81.9022457067371,4,1,0,75,0,0
46155,-82.8877005347593,4,1,0,75,0,0
46322,-83.8971583220568,4,1,0,75,0,0
46489,-84.9315068493151,4,1,0,75,0,0
46655,-85.9916782246879,4,1,0,75,0,0
46822,-87.0786516853933,4,1,0,75,0,0
46989,-88.1934566145093,4,1,0,75,0,0
47155,-89.3371757925072,4,1,0,75,0,0
47280,-90.5109489051095,4,1,0,75,0,0
47489,-91.7159763313609,4,1,0,75,0,0
47614,-92.9535232383808,4,1,0,75,0,0
47780,-94.2249240121581,4,1,0,75,0,0
47947,-95.5315870570108,4,1,0,75,0,0
48114,-96.875,4,1,0,75,0,0
48322,-98.256735340729,4,1,0,75,0,0
48489,-99.6784565916399,4,1,0,75,0,0
48614,-101.141924959217,4,1,0,75,0,0
48822,-102.649006622517,4,1,0,75,0,0
48947,-104.201680672269,4,1,0,75,0,0
49114,-105.80204778157,4,1,0,75,0,0
49280,-107.452339688042,4,1,0,75,0,0
49447,-109.154929577465,4,1,0,75,0,0
49614,-110.912343470483,4,1,0,75,0,0
49780,-112.727272727273,4,1,0,75,0,0
49947,-114.60258780037,4,1,0,75,0,0
50114,-116.541353383459,4,1,0,75,0,0
50322,-118.546845124283,4,1,0,75,0,0
50489,-120.622568093385,4,1,0,75,0,0
50655,-122.772277227723,4,1,0,75,0,0
50822,-125,4,1,0,75,0,0
56155,-111.111111111111,4,1,0,80,0,0
66822,-100,4,1,0,80,0,0
71836,-95.6937799043062,4,1,0,80,0,0
71892,-97.0873786407767,4,1,0,80,0,0
71947,-98.5221674876847,4,1,0,80,0,0
72003,-100,4,1,0,80,0,0
72155,-100,4,1,0,80,0,0
72336,-99.3975903614458,4,1,0,80,0,0
72503,-98.8023952095808,4,1,0,80,0,0
72642,-98.2142857142857,4,1,0,80,0,0
72780,-97.6331360946746,4,1,0,80,0,0
72947,-97.0588235294118,4,1,0,80,0,0
73114,-96.4912280701754,4,1,0,80,0,0
73280,-95.9302325581395,4,1,0,80,0,0
73447,-95.3757225433526,4,1,0,80,0,0
73586,-94.8275862068966,4,1,0,80,0,0
73669,-94.2857142857143,4,1,0,80,0,0
73780,-93.75,4,1,0,80,0,0
73947,-93.2203389830509,4,1,0,80,0,0
74114,-92.6966292134831,4,1,0,80,0,0
74280,-92.1787709497207,4,1,0,80,0,0
74447,-91.6666666666667,4,1,0,80,0,0
74614,-91.1602209944751,4,1,0,80,0,0
74822,-90.6593406593407,4,1,0,80,0,0
74905,-90.1639344262295,4,1,0,80,0,0
74989,-89.6739130434783,4,1,0,80,0,0
75072,-89.1891891891892,4,1,0,80,0,0
75155,-88.7096774193548,4,1,0,80,0,0
75239,-88.2352941176471,4,1,0,80,0,0
75322,-87.7659574468085,4,1,0,80,0,0
75405,-87.3015873015873,4,1,0,80,0,0
75489,-86.8421052631579,4,1,0,80,0,0
75572,-86.3874345549738,4,1,0,80,0,0
75655,-85.9375,4,1,0,80,0,0
75739,-85.4922279792746,4,1,0,80,0,0
75822,-85.0515463917526,4,1,0,80,0,0
75905,-84.6153846153846,4,1,0,80,0,0
75989,-84.1836734693878,4,1,0,80,0,0
76072,-83.756345177665,4,1,0,80,0,0
76155,-83.3333333333333,4,1,0,80,0,0
77447,-83.3333333333333,4,1,0,90,0,0
77530,-90.9090909090909,4,1,0,90,0,1
99197,-95.2380952380952,4,1,0,90,0,1
100114,-95.2380952380952,4,1,0,80,0,1
100197,-100,4,1,0,80,0,0
104503,-100,4,1,0,80,0,0
104669,-98.9010989010989,4,1,0,80,0,0
104836,-97.8260869565217,4,1,0,80,0,0
104989,-96.7741935483871,4,1,0,80,0,0
105072,-95.7446808510638,4,1,0,80,0,0
105155,-94.7368421052632,4,1,0,80,0,0
105225,-93.75,4,1,0,80,0,0
105280,-92.7835051546392,4,1,0,80,0,0
105336,-91.8367346938775,4,1,0,80,0,0
105489,-90.9090909090909,4,1,0,80,0,0
108322,-90.9090909090909,4,1,0,80,0,0
108405,-90.1639344262295,4,1,0,80,0,0
108489,-89.4308943089431,4,1,0,80,0,0
108558,-88.7096774193548,4,1,0,80,0,0
108614,-88,4,1,0,80,0,0
108669,-87.3015873015873,4,1,0,80,0,0
108753,-86.6141732283465,4,1,0,80,0,0
108836,-85.9375,4,1,0,80,0,0
108892,-85.2713178294574,4,1,0,80,0,0
108947,-84.6153846153846,4,1,0,80,0,0
109003,-83.969465648855,4,1,0,80,0,0
109169,-83.3333333333333,4,1,0,80,0,0
109447,-90.9090909090909,4,1,0,50,0,0

[HitObjects]
256,192,1531,5,12,0:0:0:0:
256,192,1697,1,0,0:0:0:0:
256,192,1864,1,8,0:0:0:0:
256,192,2114,1,0,0:0:0:0:
256,192,2197,1,8,0:0:0:0:
256,192,2364,1,8,0:0:0:0:
256,192,2530,1,4,0:0:0:0:
256,192,2864,5,12,0:0:0:0:
256,192,3030,1,0,0:0:0:0:
256,192,3197,1,8,0:0:0:0:
256,192,3364,1,8,0:0:0:0:
256,192,3530,1,0,0:0:0:0:
256,192,3697,1,0,0:0:0:0:
256,192,3864,1,8,0:0:0:0:
256,192,4030,1,8,0:0:0:0:
256,192,4197,1,0,0:0:0:0:
256,192,4364,1,0,0:0:0:0:
256,192,4530,1,8,0:0:0:0:
256,192,4697,1,8,0:0:0:0:
256,192,4864,1,0,0:0:0:0:
256,192,5030,1,8,0:0:0:0:
256,192,5197,1,8,0:0:0:0:
256,192,5364,1,8,0:0:0:0:
256,192,5530,1,0,0:0:0:0:
256,192,5697,1,8,0:0:0:0:
256,192,5864,1,8,0:0:0:0:
256,192,6030,1,8,0:0:0:0:
256,192,6197,1,0,0:0:0:0:
256,192,6364,1,8,0:0:0:0:
256,192,6530,1,8,0:0:0:0:
224,192,6697,1,8,0:0:0:0:
256,192,6864,1,0,0:0:0:0:
256,192,7030,1,0,0:0:0:0:
256,192,7197,1,8,0:0:0:0:
256,192,7364,1,8,0:0:0:0:
256,192,7530,1,0,0:0:0:0:
256,192,7697,1,0,0:0:0:0:
256,192,7864,1,8,0:0:0:0:
256,192,8030,1,0,0:0:0:0:
256,192,8197,1,8,0:0:0:0:
256,192,8530,1,8,0:0:0:0:
256,192,8864,1,8,0:0:0:0:
256,192,9197,1,8,0:0:0:0:
256,192,9530,1,8,0:0:0:0:
256,192,9864,1,8,0:0:0:0:
256,192,10197,1,8,0:0:0:0:
288,192,10530,1,8,0:0:0:0:
256,192,10864,1,8,0:0:0:0:
288,192,11197,1,8,0:0:0:0:
288,192,11530,1,8,0:0:0:0:
288,192,11864,1,8,0:0:0:0:
288,192,12197,1,8,0:0:0:0:
288,192,12530,1,8,0:0:0:0:
288,192,12864,1,8,0:0:0:0:
288,192,13197,1,8,0:0:0:0:
288,192,13530,1,4,0:0:0:0:
288,192,13697,1,8,0:0:0:0:
288,192,13780,1,8,0:0:0:0:
288,192,13864,1,0,0:0:0:0:
288,192,14030,1,0,0:0:0:0:
288,192,14197,1,8,0:0:0:0:
288,192,14280,1,8,0:0:0:0:
288,192,14447,1,0,0:0:0:0:
288,192,14530,1,8,0:0:0:0:
288,192,14697,1,0,0:0:0:0:
288,192,14864,1,8,0:0:0:0:
288,192,14947,1,0,0:0:0:0:
288,192,15030,1,8,0:0:0:0:
288,192,15197,1,8,0:0:0:0:
288,192,15364,1,0,0:0:0:0:
285,184,15447,1,0,0:0:0:0:
288,192,15530,1,8,0:0:0:0:
288,192,15642,1,8,0:0:0:0:
288,192,15753,1,8,0:0:0:0:
288,192,15864,1,0,0:0:0:0:
288,192,16030,1,0,0:0:0:0:
288,192,16197,1,8,0:0:0:0:
288,192,16280,1,0,0:0:0:0:
288,192,16447,1,0,0:0:0:0:
288,192,16530,1,8,0:0:0:0:
288,192,16697,1,0,0:0:0:0:
288,192,16864,1,8,0:0:0:0:
288,192,16947,1,0,0:0:0:0:
288,192,17114,1,0,0:0:0:0:
288,192,17197,1,0,0:0:0:0:
288,192,17364,1,0,0:0:0:0:
288,192,17530,1,8,0:0:0:0:
288,192,17614,1,8,0:0:0:0:
288,192,17697,1,0,0:0:0:0:
288,192,17864,1,8,0:0:0:0:
288,192,18030,1,0,0:0:0:0:
288,192,18197,1,8,0:0:0:0:
288,192,18280,1,0,0:0:0:0:
288,192,18447,1,0,0:0:0:0:
288,192,18530,1,8,0:0:0:0:
288,192,18586,1,8,0:0:0:0:
288,192,18642,1,8,0:0:0:0:
288,192,18697,1,0,0:0:0:0:
288,192,18864,1,12,0:0:0:0:
288,192,19030,1,0,0:0:0:0:
288,192,19114,1,0,0:0:0:0:
288,192,19197,1,8,0:0:0:0:
288,192,19364,1,0,0:0:0:0:
288,192,19530,1,8,0:0:0:0:
320,192,19614,1,8,0:0:0:0:
288,192,19780,1,0,0:0:0:0:
288,192,19864,1,8,0:0:0:0:
320,192,19947,1,0,0:0:0:0:
288,192,20030,1,0,0:0:0:0:
288,192,20197,1,8,0:0:0:0:
320,192,20364,1,0,0:0:0:0:
320,192,20447,1,8,0:0:0:0:
288,192,20530,1,0,0:0:0:0:
320,192,20697,1,0,0:0:0:0:
324,209,20780,1,0,0:0:0:0:
320,192,20864,1,8,0:0:0:0:
288,192,20975,1,0,0:0:0:0:
288,192,21086,1,0,0:0:0:0:
288,192,21197,1,8,0:0:0:0:
288,192,21364,1,0,0:0:0:0:
256,192,21530,1,8,0:0:0:0:
256,192,21614,1,8,0:0:0:0:
256,192,21697,1,0,0:0:0:0:
256,192,21780,1,8,0:0:0:0:
256,192,21864,1,0,0:0:0:0:
256,192,21947,1,0,0:0:0:0:
256,192,22030,1,8,0:0:0:0:
256,192,22114,1,0,0:0:0:0:
256,192,22197,1,8,0:0:0:0:
256,192,22280,1,8,0:0:0:0:
256,192,22364,1,8,0:0:0:0:
256,192,22447,1,0,0:0:0:0:
256,192,22530,1,8,0:0:0:0:
256,192,22614,1,8,0:0:0:0:
256,192,22697,1,0,0:0:0:0:
256,192,22780,1,0,0:0:0:0:
256,192,22864,1,8,0:0:0:0:
256,192,23030,1,0,0:0:0:0:
256,192,23197,1,8,0:0:0:0:
256,192,23280,1,0,0:0:0:0:
256,192,23447,1,0,0:0:0:0:
256,192,23530,1,8,0:0:0:0:
256,192,23697,1,8,0:0:0:0:
256,192,23864,1,4,0:0:0:0:
256,192,24197,1,12,0:0:0:0:
256,192,24364,1,0,0:0:0:0:
256,192,24447,1,0,0:0:0:0:
256,192,24530,1,8,0:0:0:0:
256,192,24697,1,0,0:0:0:0:
256,192,24864,1,8,0:0:0:0:
256,192,24947,1,0,0:0:0:0:
256,192,25114,1,0,0:0:0:0:
256,192,25197,1,8,0:0:0:0:
256,192,25364,1,0,0:0:0:0:
256,192,25530,1,8,0:0:0:0:
256,192,25614,1,0,0:0:0:0:
256,192,25697,1,8,0:0:0:0:
256,192,25864,1,8,0:0:0:0:
256,192,26030,1,0,0:0:0:0:
256,192,26197,1,8,0:0:0:0:
288,192,26364,1,0,0:0:0:0:
288,192,26447,1,0,0:0:0:0:
288,192,26530,1,8,0:0:0:0:
256,192,26614,1,0,0:0:0:0:
256,192,26697,1,8,0:0:0:0:
256,192,26780,1,8,0:0:0:0:
288,192,26864,1,0,0:0:0:0:
256,192,27030,1,0,0:0:0:0:
256,192,27114,1,0,0:0:0:0:
256,192,27197,1,8,0:0:0:0:
256,192,27364,1,0,0:0:0:0:
256,192,27530,1,8,0:0:0:0:
256,192,27614,1,8,0:0:0:0:
256,192,27780,1,0,0:0:0:0:
256,192,27864,1,8,0:0:0:0:
256,192,28030,1,0,0:0:0:0:
256,192,28197,1,8,0:0:0:0:
256,192,28280,1,8,0:0:0:0:
256,192,28364,1,0,0:0:0:0:
256,192,28447,1,0,0:0:0:0:
256,192,28530,1,8,0:0:0:0:
256,192,28697,1,0,0:0:0:0:
256,192,28780,1,0,0:0:0:0:
256,192,28864,1,8,0:0:0:0:
256,192,28947,5,0,0:0:0:0:
256,192,29030,1,8,0:0:0:0:
256,192,29114,1,8,0:0:0:0:
256,192,29197,1,0,0:0:0:0:
256,192,29280,1,8,0:0:0:0:
256,192,29364,1,0,0:0:0:0:
256,192,29530,1,12,0:0:0:0:
256,192,29697,1,0,0:0:0:0:
256,192,29780,1,0,0:0:0:0:
256,192,29863,1,8,0:0:0:0:
256,192,30030,1,0,0:0:0:0:
256,192,30197,1,8,0:0:0:0:
256,192,30280,1,0,0:0:0:0:
256,192,30447,1,0,0:0:0:0:
256,192,30530,1,8,0:0:0:0:
256,192,30697,1,0,0:0:0:0:
256,192,30863,1,8,0:0:0:0:
256,192,30947,1,0,0:0:0:0:
256,192,31030,1,8,0:0:0:0:
256,192,31197,1,8,0:0:0:0:
256,192,31363,1,0,0:0:0:0:
256,192,31530,1,8,0:0:0:0:
288,192,31697,1,0,0:0:0:0:
288,192,31780,1,8,0:0:0:0:
288,192,31864,1,0,0:0:0:0:
256,192,31947,1,0,0:0:0:0:
256,192,32030,1,8,0:0:0:0:
256,192,32113,1,8,0:0:0:0:
288,192,32197,1,0,0:0:0:0:
256,192,32364,1,0,0:0:0:0:
256,192,32447,1,0,0:0:0:0:
256,192,32530,1,8,0:0:0:0:
256,192,32697,1,0,0:0:0:0:
256,192,32780,1,0,0:0:0:0:
256,192,32863,1,8,0:0:0:0:
256,192,32947,1,8,0:0:0:0:
256,192,33030,1,0,0:0:0:0:
256,192,33114,1,8,0:0:0:0:
256,192,33197,1,0,0:0:0:0:
256,192,33363,1,0,0:0:0:0:
256,192,33530,1,8,0:0:0:0:
256,192,33697,1,0,0:0:0:0:
256,192,33780,1,0,0:0:0:0:
256,192,33863,1,8,0:0:0:0:
256,192,34030,1,0,0:0:0:0:
256,192,34113,1,0,0:0:0:0:
256,192,34197,1,8,0:0:0:0:
256,192,34280,1,8,0:0:0:0:
256,192,34364,1,0,0:0:0:0:
256,192,34447,1,0,0:0:0:0:
256,192,34530,1,8,0:0:0:0:
256,192,34586,1,8,0:0:0:0:
256,192,34642,1,8,0:0:0:0:
256,192,34697,1,0,0:0:0:0:
256,192,34864,1,8,0:0:0:0:
256,192,35197,1,4,0:0:0:0:
256,192,35364,1,4,0:0:0:0:
256,192,35530,1,4,0:0:0:0:
256,192,35780,1,0,0:0:0:0:
256,192,35864,1,8,0:0:0:0:
256,192,36030,1,0,0:0:0:0:
256,192,36197,1,8,0:0:0:0:
256,192,36280,1,0,0:0:0:0:
256,192,36364,1,8,0:0:0:0:
256,192,36530,1,8,0:0:0:0:
256,192,36697,1,0,0:0:0:0:
256,192,36864,1,8,0:0:0:0:
256,192,37030,1,0,0:0:0:0:
256,192,37114,1,0,0:0:0:0:
256,192,37197,1,8,0:0:0:0:
261,189,37280,1,8,0:0:0:0:
261,189,37364,1,0,0:0:0:0:
266,187,37447,1,8,0:0:0:0:
266,187,37530,1,0,0:0:0:0:
271,186,37697,1,0,0:0:0:0:
271,186,37780,1,0,0:0:0:0:
271,186,37864,1,8,0:0:0:0:
271,187,38030,1,0,0:0:0:0:
275,191,38197,1,8,0:0:0:0:
275,191,38280,1,0,0:0:0:0:
275,190,38447,1,8,0:0:0:0:
279,188,38530,1,8,0:0:0:0:
281,185,38697,1,0,0:0:0:0:
281,183,38864,1,8,0:0:0:0:
281,189,38947,1,0,0:0:0:0:
281,185,39030,1,0,0:0:0:0:
282,185,39114,1,0,0:0:0:0:
282,185,39197,1,8,0:0:0:0:
283,182,39280,1,0,0:0:0:0:
283,182,39364,1,8,0:0:0:0:
284,182,39447,1,8,0:0:0:0:
257,175,39530,1,0,0:0:0:0:
282,176,39614,1,8,0:0:0:0:
282,175,39697,1,0,0:0:0:0:
285,174,39780,1,0,0:0:0:0:
281,183,39864,1,8,0:0:0:0:
282,191,39919,1,8,0:0:0:0:
283,191,39975,1,8,0:0:0:0:
289,182,40030,1,0,0:0:0:0:
290,172,40197,1,12,0:0:0:0:
286,177,40364,1,0,0:0:0:0:
279,192,40447,1,0,0:0:0:0:
279,192,40530,1,8,0:0:0:0:
289,187,40697,1,0,0:0:0:0:
296,183,40864,1,8,0:0:0:0:
296,181,40947,1,0,0:0:0:0:
301,174,41114,1,0,0:0:0:0:
301,174,41197,1,8,0:0:0:0:
302,175,41364,1,0,0:0:0:0:
306,174,41530,1,8,0:0:0:0:
328,190,41614,1,0,0:0:0:0:
308,177,41697,1,8,0:0:0:0:
311,175,41864,1,8,0:0:0:0:
271,168,41947,1,8,0:0:0:0:
305,173,42030,1,0,0:0:0:0:
318,167,42197,1,8,0:0:0:0:
320,171,42280,1,0,0:0:0:0:
319,168,42447,1,0,0:0:0:0:
316,165,42530,1,8,0:0:0:0:
314,161,42614,1,0,0:0:0:0:
312,161,42697,1,8,0:0:0:0:
305,165,42780,1,8,0:0:0:0:
311,160,42864,1,0,0:0:0:0:
310,159,43030,1,0,0:0:0:0:
308,157,43197,1,8,0:0:0:0:
308,157,43364,1,0,0:0:0:0:
308,157,43530,1,8,0:0:0:0:
307,160,43614,1,8,0:0:0:0:
307,160,43697,1,0,0:0:0:0:
311,160,43780,1,8,0:0:0:0:
311,160,43864,1,0,0:0:0:0:
310,159,43947,1,0,0:0:0:0:
305,158,44030,1,8,0:0:0:0:
308,157,44114,1,0,0:0:0:0:
256,192,44197,1,8,0:0:0:0:
256,192,44363,1,0,0:0:0:0:
256,192,44447,1,0,0:0:0:0:
256,192,44530,1,8,0:0:0:0:
256,192,44586,1,0,0:0:0:0:
271,196,44642,1,0,0:0:0:0:
263,199,44697,1,8,0:0:0:0:
256,192,44780,1,0,0:0:0:0:
256,192,44863,1,8,0:0:0:0:
249,182,44919,1,8,0:0:0:0:
243,190,44975,1,8,0:0:0:0:
256,192,45030,1,0,0:0:0:0:
256,192,45197,1,12,0:0:0:0:
246,188,45530,1,4,0:0:0:0:
246,188,45864,1,0,0:0:0:0:
259,185,46030,1,8,0:0:0:0:
270,184,46197,1,0,0:0:0:0:
261,182,46364,1,8,0:0:0:0:
268,176,46530,1,8,0:0:0:0:
268,176,46697,1,0,0:0:0:0:
268,175,46864,1,0,0:0:0:0:
272,173,47030,1,8,0:0:0:0:
272,176,47197,1,0,0:0:0:0:
276,176,47364,1,8,0:0:0:0:
290,174,47530,1,8,0:0:0:0:
284,190,47697,1,0,0:0:0:0:
288,184,47864,1,8,0:0:0:0:
299,175,48030,1,8,0:0:0:0:
301,172,48197,1,0,0:0:0:0:
300,179,48364,1,0,0:0:0:0:
293,177,48530,1,8,0:0:0:0:
294,176,48697,1,0,0:0:0:0:
303,177,48864,1,8,0:0:0:0:
299,175,49030,1,8,0:0:0:0:
297,167,49197,1,0,0:0:0:0:
296,163,49364,1,0,0:0:0:0:
296,163,49530,1,8,0:0:0:0:
300,169,49697,1,8,0:0:0:0:
291,163,49864,1,0,0:0:0:0:
300,164,50030,1,8,0:0:0:0:
276,169,50197,1,0,0:0:0:0:
296,163,50364,1,8,0:0:0:0:
296,163,50530,1,8,0:0:0:0:
298,165,50697,1,0,0:0:0:0:
301,167,50864,1,8,0:0:0:0:
303,165,51197,1,8,0:0:0:0:
303,165,51530,1,8,0:0:0:0:
301,167,51864,1,8,0:0:0:0:
271,187,52030,1,8,0:0:0:0:
265,186,52197,1,0,0:0:0:0:
265,186,52530,1,0,0:0:0:0:
275,187,52864,1,0,0:0:0:0:
276,185,53197,1,0,0:0:0:0:
271,194,53364,1,0,0:0:0:0:
276,185,53530,1,8,0:0:0:0:
282,179,53864,1,8,0:0:0:0:
282,177,54197,1,8,0:0:0:0:
282,177,54530,1,8,0:0:0:0:
275,191,54697,1,8,0:0:0:0:
282,174,54864,1,0,0:0:0:0:
282,177,55197,1,0,0:0:0:0:
282,181,55530,1,0,0:0:0:0:
286,177,55864,1,0,0:0:0:0:
286,171,56197,1,12,0:0:0:0:
293,179,56364,1,0,0:0:0:0:
282,181,56530,1,0,0:0:0:0:
281,180,56697,1,8,0:0:0:0:
281,180,56864,1,0,0:0:0:0:
281,180,57197,1,0,0:0:0:0:
282,181,57530,1,0,0:0:0:0:
281,180,57864,1,8,0:0:0:0:
281,180,58030,1,8,0:0:0:0:
281,180,58197,1,0,0:0:0:0:
282,181,58364,1,8,0:0:0:0:
282,181,58530,1,0,0:0:0:0:
281,180,58864,1,0,0:0:0:0:
281,180,59030,1,8,0:0:0:0:
281,180,59197,1,8,0:0:0:0:
282,181,59364,1,0,0:0:0:0:
282,181,59530,1,8,0:0:0:0:
285,184,59864,1,8,0:0:0:0:
281,180,60197,1,8,0:0:0:0:
276,181,60530,1,8,0:0:0:0:
273,180,60697,1,0,0:0:0:0:
273,179,60864,1,8,0:0:0:0:
273,179,61030,1,0,0:0:0:0:
273,178,61197,1,0,0:0:0:0:
286,177,61530,1,8,0:0:0:0:
293,179,61697,1,0,0:0:0:0:
282,181,61863,1,0,0:0:0:0:
281,180,62030,1,8,0:0:0:0:
281,180,62197,1,0,0:0:0:0:
281,180,62530,1,0,0:0:0:0:
282,181,62863,1,0,0:0:0:0:
281,180,63197,1,8,0:0:0:0:
281,180,63363,1,8,0:0:0:0:
281,180,63530,1,0,0:0:0:0:
282,181,63697,1,8,0:0:0:0:
282,181,63863,1,0,0:0:0:0:
281,180,64197,1,0,0:0:0:0:
281,180,64363,1,8,0:0:0:0:
281,180,64530,1,8,0:0:0:0:
282,181,64697,1,0,0:0:0:0:
282,181,64863,1,0,0:0:0:0:
285,184,65197,1,8,0:0:0:0:
298,188,65364,1,0,0:0:0:0:
281,180,65530,1,0,0:0:0:0:
276,181,65863,1,8,0:0:0:0:
273,179,66197,1,8,0:0:0:0:
273,178,66530,1,8,0:0:0:0:
288,187,66864,1,4,0:0:0:0:
273,180,67030,1,8,0:0:0:0:
273,179,67197,1,0,0:0:0:0:
265,185,67364,1,0,0:0:0:0:
264,185,67530,1,8,0:0:0:0:
262,186,67864,1,8,0:0:0:0:
261,186,68197,1,0,0:0:0:0:
261,186,68364,1,0,0:0:0:0:
264,185,68530,1,8,0:0:0:0:
262,186,68697,1,0,0:0:0:0:
262,186,68864,1,8,0:0:0:0:
275,182,69197,1,8,0:0:0:0:
274,182,69530,1,0,0:0:0:0:
261,181,69697,1,8,0:0:0:0:
257,181,69864,1,0,0:0:0:0:
249,178,70030,1,0,0:0:0:0:
249,178,70197,1,8,0:0:0:0:
250,183,70530,1,8,0:0:0:0:
257,181,70864,1,0,0:0:0:0:
254,182,71030,1,8,0:0:0:0:
254,182,71197,1,8,0:0:0:0:
254,182,71364,1,0,0:0:0:0:
250,183,71530,1,8,0:0:0:0:
257,181,71864,1,8,0:0:0:0:
248,181,71919,1,8,0:0:0:0:
249,181,71975,1,8,0:0:0:0:
249,181,72030,1,0,0:0:0:0:
242,181,72197,1,12,0:0:0:0:
241,177,72364,1,0,0:0:0:0:
246,177,72530,1,8,0:0:0:0:
250,178,72697,1,8,0:0:0:0:
251,178,72864,1,0,0:0:0:0:
249,181,73030,1,0,0:0:0:0:
252,178,73197,1,8,0:0:0:0:
252,178,73364,1,8,0:0:0:0:
252,177,73530,1,8,0:0:0:0:
250,178,73614,1,8,0:0:0:0:
250,178,73697,1,0,0:0:0:0:
251,178,73864,1,8,0:0:0:0:
251,176,74030,1,8,0:0:0:0:
252,178,74197,1,0,0:0:0:0:
252,178,74364,1,0,0:0:0:0:
252,177,74530,1,8,0:0:0:0:
250,172,74697,1,0,0:0:0:0:
257,199,74864,1,8,0:0:0:0:
257,199,74947,1,8,0:0:0:0:
254,204,75030,1,0,0:0:0:0:
247,220,75114,1,8,0:0:0:0:
247,220,75197,1,0,0:0:0:0:
246,220,75280,1,0,0:0:0:0:
261,228,75364,1,8,0:0:0:0:
261,228,75447,1,0,0:0:0:0:
260,229,75530,1,8,0:0:0:0:
261,229,75614,1,8,0:0:0:0:
261,229,75697,1,8,0:0:0:0:
261,229,75780,1,0,0:0:0:0:
261,230,75864,1,8,0:0:0:0:
261,229,75947,1,8,0:0:0:0:
260,228,76030,1,0,0:0:0:0:
261,228,76114,1,0,0:0:0:0:
256,192,76197,1,8,0:0:0:0:
256,192,76363,1,0,0:0:0:0:
256,192,76530,1,8,0:0:0:0:
256,192,76613,1,0,0:0:0:0:
256,192,76780,1,0,0:0:0:0:
256,192,76863,1,8,0:0:0:0:
256,192,77030,1,8,0:0:0:0:
256,192,77197,1,4,0:0:0:0:
253,186,77530,5,12,0:0:0:0:
253,186,77697,1,0,0:0:0:0:
253,186,77780,1,0,0:0:0:0:
253,186,77864,1,8,0:0:0:0:
253,186,78030,1,0,0:0:0:0:
253,186,78197,1,8,0:0:0:0:
257,187,78280,1,0,0:0:0:0:
257,187,78447,1,8,0:0:0:0:
257,187,78530,1,8,0:0:0:0:
263,187,78697,1,0,0:0:0:0:
262,188,78864,1,8,0:0:0:0:
261,187,78947,1,0,0:0:0:0:
259,186,79114,1,0,0:0:0:0:
259,186,79197,1,8,0:0:0:0:
261,187,79280,1,0,0:0:0:0:
257,187,79364,1,8,0:0:0:0:
280,183,79447,1,8,0:0:0:0:
267,187,79530,1,0,0:0:0:0:
267,187,79697,1,0,0:0:0:0:
267,187,79780,1,8,0:0:0:0:
267,187,79864,1,0,0:0:0:0:
267,187,80197,1,8,0:0:0:0:
270,186,80364,1,0,0:0:0:0:
267,187,80447,1,0,0:0:0:0:
267,187,80530,1,8,0:0:0:0:
259,197,80697,1,0,0:0:0:0:
259,197,80864,1,8,0:0:0:0:
265,197,80947,1,0,0:0:0:0:
256,195,81114,1,8,0:0:0:0:
256,195,81197,1,8,0:0:0:0:
251,187,81364,1,0,0:0:0:0:
261,197,81530,1,8,0:0:0:0:
259,197,81614,1,0,0:0:0:0:
259,197,81780,1,0,0:0:0:0:
259,197,81864,1,8,0:0:0:0:
252,201,81947,1,8,0:0:0:0:
261,192,82030,1,0,0:0:0:0:
256,195,82114,1,0,0:0:0:0:
261,192,82197,1,8,0:0:0:0:
261,192,82364,1,0,0:0:0:0:
261,189,82447,1,8,0:0:0:0:
261,189,82530,1,0,0:0:0:0:
261,189,82864,1,12,0:0:0:0:
253,189,83030,1,0,0:0:0:0:
252,190,83114,1,0,0:0:0:0:
252,190,83197,1,8,0:0:0:0:
249,191,83364,1,0,0:0:0:0:
249,186,83530,1,8,0:0:0:0:
249,187,83614,1,0,0:0:0:0:
261,182,83780,1,8,0:0:0:0:
261,182,83864,1,8,0:0:0:0:
259,185,84030,1,0,0:0:0:0:
256,182,84197,1,8,0:0:0:0:
270,196,84280,1,0,0:0:0:0:
268,195,84447,1,0,0:0:0:0:
268,195,84530,1,8,0:0:0:0:
266,189,84614,1,0,0:0:0:0:
266,189,84697,1,8,0:0:0:0:
266,189,84780,1,8,0:0:0:0:
266,189,84864,1,0,0:0:0:0:
259,189,85030,1,0,0:0:0:0:
259,190,85114,1,8,0:0:0:0:
259,190,85197,1,0,0:0:0:0:
261,192,85530,1,8,0:0:0:0:
262,192,85697,1,0,0:0:0:0:
266,189,85780,1,0,0:0:0:0:
266,189,85864,1,8,0:0:0:0:
266,191,86030,1,8,0:0:0:0:
265,191,86197,1,0,0:0:0:0:
261,192,86280,1,8,0:0:0:0:
261,192,86447,1,0,0:0:0:0:
261,192,86530,1,8,0:0:0:0:
264,202,86614,1,8,0:0:0:0:
262,192,86697,1,0,0:0:0:0:
260,193,86864,1,8,0:0:0:0:
260,193,86947,1,0,0:0:0:0:
260,193,87114,1,0,0:0:0:0:
260,193,87197,1,0,0:0:0:0:
251,206,87280,1,8,0:0:0:0:
261,192,87364,1,8,0:0:0:0:
261,192,87447,1,0,0:0:0:0:
261,192,87530,1,8,0:0:0:0:
279,198,87697,1,8,0:0:0:0:
277,197,87780,1,8,0:0:0:0:
277,197,87864,1,0,0:0:0:0:
276,197,88030,1,8,0:0:0:0:
276,197,88197,1,4,0:0:0:0:
276,198,88364,1,0,0:0:0:0:
276,198,88447,1,0,0:0:0:0:
276,198,88530,1,8,0:0:0:0:
271,197,88697,1,0,0:0:0:0:
272,196,88864,1,8,0:0:0:0:
276,197,88947,1,0,0:0:0:0:
276,197,89030,1,8,0:0:0:0:
271,194,89114,1,8,0:0:0:0:
271,194,89197,1,0,0:0:0:0:
269,200,89364,1,0,0:0:0:0:
276,198,89530,1,8,0:0:0:0:
276,200,89697,1,0,0:0:0:0:
215,150,89780,1,0,0:0:0:0:
272,196,89864,1,8,0:0:0:0:
276,197,89947,1,0,0:0:0:0:
276,197,90030,1,8,0:0:0:0:
271,194,90114,1,8,0:0:0:0:
271,194,90197,1,8,0:0:0:0:
272,195,90280,1,0,0:0:0:0:
272,195,90364,1,8,0:0:0:0:
276,198,90447,1,8,0:0:0:0:
276,198,90530,1,0,0:0:0:0:
281,197,90864,1,8,0:0:0:0:
272,202,91030,1,0,0:0:0:0:
274,203,91114,1,0,0:0:0:0:
273,203,91197,1,8,0:0:0:0:
283,201,91364,1,0,0:0:0:0:
268,202,91530,1,8,0:0:0:0:
268,208,91614,1,0,0:0:0:0:
268,208,91697,1,8,0:0:0:0:
267,208,91780,1,8,0:0:0:0:
267,208,91864,1,0,0:0:0:0:
267,208,91947,1,0,0:0:0:0:
263,204,92030,1,8,0:0:0:0:
270,208,92114,1,0,0:0:0:0:
271,207,92197,1,8,0:0:0:0:
273,208,92364,1,0,0:0:0:0:
269,216,92447,1,0,0:0:0:0:
273,208,92530,1,8,0:0:0:0:
279,204,92614,1,0,0:0:0:0:
284,205,92697,1,8,0:0:0:0:
284,205,92780,1,0,0:0:0:0:
284,205,92864,1,8,0:0:0:0:
285,203,92947,1,8,0:0:0:0:
285,203,93030,1,0,0:0:0:0:
288,202,93114,1,8,0:0:0:0:
288,202,93197,1,0,0:0:0:0:
249,201,93530,1,12,0:0:0:0:
244,211,93697,1,0,0:0:0:0:
243,211,93780,1,0,0:0:0:0:
243,211,93864,1,8,0:0:0:0:
245,211,94030,1,0,0:0:0:0:
248,210,94197,1,8,0:0:0:0:
248,208,94280,1,0,0:0:0:0:
248,208,94364,1,8,0:0:0:0:
251,207,94447,1,0,0:0:0:0:
251,207,94530,1,0,0:0:0:0:
255,201,94697,1,0,0:0:0:0:
257,199,94864,1,8,0:0:0:0:
262,197,95030,1,0,0:0:0:0:
244,261,95114,1,0,0:0:0:0:
257,205,95197,1,8,0:0:0:0:
257,205,95280,1,8,0:0:0:0:
257,205,95364,1,0,0:0:0:0:
257,205,95447,1,8,0:0:0:0:
257,205,95530,1,0,0:0:0:0:
257,205,95614,1,0,0:0:0:0:
257,205,95697,1,8,0:0:0:0:
257,205,95780,1,8,0:0:0:0:
257,205,95864,1,0,0:0:0:0:
283,216,96197,1,8,0:0:0:0:
266,218,96280,1,8,0:0:0:0:
291,218,96364,1,0,0:0:0:0:
283,212,96447,1,0,0:0:0:0:
281,211,96530,1,8,0:0:0:0:
281,211,96614,1,8,0:0:0:0:
280,209,96697,1,0,0:0:0:0:
280,209,96780,1,8,0:0:0:0:
280,209,96864,1,0,0:0:0:0:
280,209,96947,1,8,0:0:0:0:
280,209,97030,1,8,0:0:0:0:
280,209,97114,1,0,0:0:0:0:
276,211,97197,1,8,0:0:0:0:
271,212,97280,1,0,0:0:0:0:
276,211,97364,1,8,0:0:0:0:
283,212,97447,1,8,0:0:0:0:
271,212,97530,1,0,0:0:0:0:
277,217,97697,1,8,0:0:0:0:
278,217,97780,1,0,0:0:0:0:
277,217,97864,1,8,0:0:0:0:
269,217,97947,1,0,0:0:0:0:
270,217,98030,1,8,0:0:0:0:
271,220,98114,1,8,0:0:0:0:
271,220,98197,1,8,0:0:0:0:
270,216,98280,1,0,0:0:0:0:
271,220,98364,1,8,0:0:0:0:
271,220,98447,1,8,0:0:0:0:
271,220,98530,1,0,0:0:0:0:
269,223,98697,1,0,0:0:0:0:
285,229,98780,1,0,0:0:0:0:
279,225,98864,1,8,0:0:0:0:
273,232,99197,1,4,0:0:0:0:
274,232,99364,1,4,0:0:0:0:
274,231,99530,1,4,0:0:0:0:
260,235,99697,1,8,0:0:0:0:
266,238,99753,1,8,0:0:0:0:
266,241,99808,1,8,0:0:0:0:
251,238,99864,1,0,0:0:0:0:
259,238,100197,1,12,0:0:0:0:
254,240,100364,1,0,0:0:0:0:
252,239,100447,1,0,0:0:0:0:
252,238,100530,1,8,0:0:0:0:
260,235,100697,1,0,0:0:0:0:
261,232,100864,1,8,0:0:0:0:
257,238,100947,1,8,0:0:0:0:
258,235,101030,1,0,0:0:0:0:
259,238,101197,1,8,0:0:0:0:
258,235,101280,1,0,0:0:0:0:
268,233,101364,1,0,0:0:0:0:
258,234,101530,1,0,0:0:0:0:
260,235,101614,1,0,0:0:0:0:
260,235,101697,1,8,0:0:0:0:
246,221,101780,1,0,0:0:0:0:
261,232,101864,1,8,0:0:0:0:
258,235,102030,1,0,0:0:0:0:
262,235,102114,1,8,0:0:0:0:
263,235,102197,1,0,0:0:0:0:
263,235,102280,1,0,0:0:0:0:
269,240,102364,1,8,0:0:0:0:
286,238,102447,1,0,0:0:0:0:
285,245,102530,1,8,0:0:0:0:
269,239,102697,1,0,0:0:0:0:
266,236,102780,1,0,0:0:0:0:
266,236,102864,1,8,0:0:0:0:
268,230,103030,1,0,0:0:0:0:
293,249,103114,1,0,0:0:0:0:
285,245,103197,1,8,0:0:0:0:
287,242,103280,1,0,0:0:0:0:
287,242,103364,1,8,0:0:0:0:
296,243,103447,1,0,0:0:0:0:
296,243,103530,1,8,0:0:0:0:
286,245,103697,1,0,0:0:0:0:
287,241,103864,1,8,0:0:0:0:
287,240,103919,1,0,0:0:0:0:
287,240,103975,1,0,0:0:0:0:
287,240,104030,1,8,0:0:0:0:
295,241,104197,1,8,0:0:0:0:
271,237,104530,1,4,0:0:0:0:
268,237,104697,1,4,0:0:0:0:
257,236,104864,1,4,0:0:0:0:
264,231,105030,1,8,0:0:0:0:
263,231,105114,1,0,0:0:0:0:
253,240,105197,1,8,0:0:0:0:
258,233,105253,1,8,0:0:0:0:
259,230,105308,1,8,0:0:0:0:
260,227,105364,1,0,0:0:0:0:
263,231,105530,1,12,0:0:0:0:
252,229,105697,1,0,0:0:0:0:
254,229,105780,1,0,0:0:0:0:
253,229,105864,1,8,0:0:0:0:
245,228,106030,1,0,0:0:0:0:
245,228,106197,1,8,0:0:0:0:
245,228,106280,1,0,0:0:0:0:
252,228,106364,1,0,0:0:0:0:
248,221,106447,1,8,0:0:0:0:
241,222,106530,1,8,0:0:0:0:
268,214,106697,1,0,0:0:0:0:
264,217,106864,1,8,0:0:0:0:
257,220,106947,1,0,0:0:0:0:
260,228,107030,1,8,0:0:0:0:
261,228,107197,1,8,0:0:0:0:
261,228,107364,1,0,0:0:0:0:
261,228,107447,1,0,0:0:0:0:
260,229,107530,1,8,0:0:0:0:
261,229,107614,1,8,0:0:0:0:
261,229,107697,1,0,0:0:0:0:
261,229,107780,1,8,0:0:0:0:
261,230,107864,1,0,0:0:0:0:
261,229,107947,1,0,0:0:0:0:
260,228,108030,1,8,0:0:0:0:
261,228,108114,1,0,0:0:0:0:
256,192,108197,1,8,0:0:0:0:
256,192,108363,1,0,0:0:0:0:
257,205,108447,1,0,0:0:0:0:
256,192,108530,1,8,0:0:0:0:
256,192,108586,1,0,0:0:0:0:
252,195,108642,1,0,0:0:0:0:
256,192,108697,1,8,0:0:0:0:
256,192,108780,1,0,0:0:0:0:
256,192,108863,1,8,0:0:0:0:
265,222,108919,1,8,0:0:0:0:
266,222,108975,1,8,0:0:0:0:
256,192,109030,1,0,0:0:0:0:
256,192,109197,1,12,0:0:0:0:
258,223,109530,1,4,0:0:0:0:
