osu file format v14

[General]
AudioFilename: audio.mp3
AudioLeadIn: 0
PreviewTime: 76187
Countdown: 0
SampleSet: Soft
StackLeniency: 0.4
Mode: 0
LetterboxInBreaks: 0
WidescreenStoryboard: 0

[Editor]
Bookmarks: 36520
DistanceSpacing: 1
BeatDivisor: 4
GridSize: 32
TimelineZoom: 1

[Metadata]
Title:Ready For The Madness
TitleUnicode:Ready For The Madness
Artist:RiraN
ArtistUnicode:RiraN
Creator:Fall
Version:Left's Insane
Source:osu!
Tags:instrumental lose control electronic hardstyle mappers' guild mg featured artist fa Daycore Gordon123 Left Cris- _tranquility english
BeatmapID:2119076
BeatmapSetID:999054

[Difficulty]
HPDrainRate:5
CircleSize:3.8
OverallDifficulty:8
ApproachRate:9
SliderMultiplier:1.6
SliderTickRate:1

[Events]
//Background and Video events
0,0,"65604193_p0_waifu2x_art_noise1_scale_tta_1.jpg",0,0
//Break Periods
2,3054,7587
2,45720,50254
//Storyboard Layer 0 (Background)
//Storyboard Layer 1 (Fail)
//Storyboard Layer 2 (Pass)
//Storyboard Layer 3 (Foreground)
//Storyboard Layer 4 (Overlay)
//Storyboard Sound Samples

[TimingPoints]
1521,333.333333333333,4,2,0,80,1,0
1521,-90.9090909090909,4,2,0,80,0,0
2854,-100,4,2,0,55,0,0
12854,-111.111111111111,4,2,0,55,0,0
13520,-66.6666666666667,4,2,2,70,0,0
22854,-90.9090909090909,4,2,0,70,0,0
24187,-62.5,4,2,1,80,0,0
28187,-76.9230769230769,4,2,1,80,0,0
29520,-62.5,4,2,1,80,0,0
42520,-76.9230769230769,4,2,1,80,0,0
44187,-90.9090909090909,4,2,0,80,0,0
45187,-90.9090909090909,4,2,1,80,0,0
45520,-90.9090909090909,4,2,0,60,0,0
55520,-111.111111111111,4,2,0,60,0,0
57520,-133.333333333333,4,2,0,60,0,0
59187,-100,4,2,0,60,0,0
60187,-153.846153846154,4,2,0,60,0,0
61520,-111.111111111111,4,2,0,60,0,0
62854,-133.333333333333,4,2,0,60,0,0
64187,-100,4,2,0,60,0,0
66854,-100,4,2,2,60,0,0
76178,-90.9090909090909,4,2,2,60,0,0
76187,-90.9090909090909,4,2,0,60,0,0
77520,-90.9090909090909,4,2,1,90,0,0
77854,-80,4,2,1,90,0,0
78854,-100,4,2,1,90,0,0
80187,-74.0740740740741,4,2,1,90,0,0
81520,-111.111111111111,4,2,1,90,0,0
82854,-80,4,2,1,90,0,0
84187,-100,4,2,1,90,0,0
85854,-74.0740740740741,4,2,1,90,0,0
86187,-83.3333333333333,4,2,1,90,0,0
88520,-74.0740740740741,4,2,1,90,0,0
98770,-133.333333333333,4,2,1,90,0,0
99187,-74.0740740740741,4,2,1,90,0,0
99854,-111.111111111111,4,2,1,90,0,0
100187,-71.4285714285714,4,2,1,80,0,0
103854,-133.333333333333,4,2,1,80,0,0
105520,-71.4285714285714,4,2,1,80,0,0
108187,-71.4285714285714,4,2,0,80,0,0

[Colours]
Combo1 : 197,219,196
Combo2 : 132,132,255
Combo3 : 203,222,254
Combo4 : 129,207,120

[HitObjects]
198,111,1521,6,0,L|190:47,1,44.0000013427735,8|0,0:1|0:0,0:0:0:0:
46,136,1687,2,0,L|36:72,1,44.0000013427735,2|0,0:0|0:0,0:0:0:0:
110,44,1854,2,0,L|133:191,1,117.333336914063,8|0,0:1|0:0,0:0:0:0:
130,166,2187,2,0,L|142:246,2,58.6666684570313,8|0|0,0:1|0:0|0:0,0:0:0:0:
110,44,2520,5,6,0:0:0:0:
159,343,2854,5,2,0:0:0:0:
419,307,8187,5,8,0:1:0:0:
419,307,8520,1,8,0:1:0:0:
419,307,8854,1,8,0:1:0:0:
419,307,9187,1,8,0:1:0:0:
419,307,9520,1,8,0:1:0:0:
419,307,9854,1,8,0:1:0:0:
419,307,10188,1,8,0:1:0:0:
419,307,10521,1,8,0:1:0:0:
419,307,10854,1,8,0:1:0:0:
419,307,11187,1,8,0:1:0:0:
419,307,11521,1,8,0:1:0:0:
419,307,11854,1,8,0:1:0:0:
419,307,12187,1,8,0:1:0:0:
419,307,12520,1,8,0:1:0:0:
419,307,12854,2,0,L|408:230,1,71.9999978027344,8|0,0:1|0:0,0:0:0:0:
467,180,13187,2,0,L|450:67,1,107.999996704102,8|0,0:1|0:0,0:0:0:0:
448,68,13520,6,0,P|380:42|322:44,1,120.000004577637,10|2,3:1|2:0,0:0:0:0:
281,99,13854,2,0,P|217:130|150:133,1,120.000004577637,10|2,3:1|0:0,0:0:0:0:
96,108,14187,2,0,P|91:46|143:8,1,120.000004577637,10|2,3:1|0:0,0:0:0:0:
204,37,14520,2,0,P|209:99|157:137,1,120.000004577637,8|0,3:1|0:0,0:0:0:0:
110,187,14854,2,0,P|86:243|81:306,1,120.000004577637,10|2,3:1|0:0,0:0:0:0:
152,336,15187,2,0,P|208:316|275:314,1,120.000004577637,10|2,3:1|0:0,0:0:0:0:
335,355,15520,2,0,P|391:375|458:377,1,120.000004577637,10|0,3:1|0:0,0:0:0:0:
506,323,15854,2,0,P|501:250|451:230,1,120.000004577637,8|0,3:1|0:0,0:0:0:0:
295,155,16187,6,0,P|305:65|321:32,1,120.000004577637,10|2,3:1|0:0,0:0:0:0:
393,60,16520,2,0,P|383:150|367:183,1,120.000004577637,10|2,3:1|0:0,0:0:0:0:
316,234,16854,2,0,P|237:213|217:162,1,120.000004577637,10|2,3:1|0:0,0:0:0:0:
166,128,17187,2,0,P|97:105|39:106,1,120.000004577637,10|0,3:1|0:0,0:0:0:0:
6,172,17520,2,0,P|39:233|46:296,1,120.000004577637,10|2,3:1|0:0,0:0:0:0:
24,357,17854,2,0,P|101:338|120:305,1,120.000004577637,8|2,3:1|0:0,0:0:0:0:
188,267,18187,2,0,P|221:276|241:301,1,60.0000022888184,8|2,3:1|0:0,0:0:0:0:
310,324,18354,1,2,0:0:0:0:
295,352,18437,1,0,0:0:0:0:
270,366,18520,1,8,3:1:0:0:
436,298,18854,5,10,0:1:0:0:
357,311,19020,1,10,0:0:0:0:
344,233,19187,1,10,0:1:0:0:
422,220,19354,1,10,0:0:0:0:
408,141,19520,1,10,0:1:0:0:
330,154,19687,1,10,0:0:0:0:
316,73,19854,1,10,0:1:0:0:
394,60,20020,1,8,0:0:0:0:
118,60,20187,5,10,0:1:0:0:
196,73,20354,1,10,0:0:0:0:
182,154,20520,1,10,0:1:0:0:
104,141,20687,1,10,0:0:0:0:
90,220,20854,1,10,0:1:0:0:
168,233,21020,1,10,0:0:0:0:
155,311,21187,1,10,0:1:0:0:
76,298,21354,1,10,0:0:0:0:
90,220,21520,5,8,0:1:0:0:
256,192,21604,12,10,22687,1:0:0:0:
314,111,22854,6,0,L|322:47,1,44.0000013427735,8|0,0:0|0:0,0:0:0:0:
466,139,23020,2,0,L|476:75,1,44.0000013427735,2|0,0:0|0:0,0:0:0:0:
402,44,23187,2,0,L|379:191,1,117.333336914063,10|0,0:0|0:0,0:0:0:0:
382,166,23520,2,0,L|370:246,2,58.6666684570313,8|2|2,0:0|0:0|0:0,0:0:0:0:
402,44,23853,5,8,0:3:0:0:
353,343,24187,6,0,P|292:312|209:292,1,128,8|2,3:1|2:0,0:0:0:0:
234,295,24520,2,0,P|165:292|81:309,1,128,8|2,3:1|0:0,0:0:0:0:
107,302,24854,1,8,3:1:0:0:
52,361,25020,5,0,0:0:0:0:
52,361,25104,1,2,0:0:0:0:
52,361,25187,1,8,3:1:0:0:
80,226,25354,1,2,0:0:0:0:
188,316,25520,5,8,3:1:0:0:
118,290,25687,1,2,0:0:0:0:
80,226,25854,1,8,3:1:0:0:
72,151,26020,1,2,0:0:0:0:
106,84,26187,1,8,3:1:0:0:
106,84,26520,5,8,3:1:0:0:
107,76,26603,1,2,0:0:0:0:
108,68,26686,1,2,0:0:0:0:
109,60,26769,1,2,0:0:0:0:
110,52,26854,2,0,P|182:61|251:99,1,128,8|0,3:1|0:0,0:0:0:0:
231,84,27187,2,0,P|280:137|308:210,1,128,8|2,3:1|0:0,0:0:0:0:
303,187,27520,1,8,3:1:0:0:
439,259,27770,5,2,0:0:0:0:
439,259,27854,1,8,3:1:0:0:
381,202,28020,1,2,0:0:0:0:
303,187,28187,2,0,P|233:205|190:233,1,103.999995239258,8|2,3:1|0:0,0:0:0:0:
205,220,28520,2,0,P|162:278|148:327,1,103.999995239258,8|2,3:1|0:0,0:0:0:0:
152,308,28854,1,8,3:1:0:0:
93,359,29020,2,0,P|75:320|75:298,1,51.999997619629,2|2,0:0|0:0,0:0:0:0:
0,284,29187,5,8,3:1:0:0:
19,173,29354,1,8,0:0:0:0:
39,63,29520,2,0,P|99:23|177:8,1,128,8|2,3:1|2:0,0:0:0:0:
153,9,29853,2,0,P|224:18|292:56,1,128,8|2,3:1|0:0,0:0:0:0:
274,42,30187,1,8,3:1:0:0:
356,26,30354,5,0,0:0:0:0:
356,26,30437,1,2,0:0:0:0:
356,26,30520,1,8,3:1:0:0:
270,142,30687,1,2,0:0:0:0:
418,165,30854,5,8,3:1:0:0:
347,138,31020,1,2,0:0:0:0:
270,142,31187,1,8,3:1:0:0:
206,185,31354,1,2,0:0:0:0:
180,259,31520,1,8,3:1:0:0:
180,259,31854,5,8,3:1:0:0:
181,266,31937,1,2,0:0:0:0:
182,274,32020,1,2,0:0:0:0:
183,282,32103,1,2,0:0:0:0:
184,290,32187,2,0,P|248:297|322:328,1,128,8|0,3:1|0:0,0:0:0:0:
78,339,32520,5,8,3:1:0:0:
184,290,32687,1,2,0:0:0:0:
307,319,32854,2,0,P|371:312|445:281,1,128,8|2,3:1|0:0,0:0:0:0:
439,297,33104,1,2,0:0:0:0:
439,297,33187,2,0,P|483:250|515:175,1,128,8|2,3:1|0:0,0:0:0:0:
365,31,33520,5,8,3:1:0:0:
429,82,33687,1,2,0:0:0:0:
429,82,33770,1,0,0:0:0:0:
429,82,33854,1,8,3:1:0:0:
505,50,34020,1,2,0:0:0:0:
365,31,34187,5,8,3:1:0:0:
415,161,34354,1,10,0:0:0:0:
505,50,34520,1,8,3:1:0:0:
429,82,34854,1,2,3:1:0:0:
365,31,35187,6,0,P|332:19|284:14,1,64,8|0,3:1|0:0,0:0:0:0:
217,76,35354,2,0,P|184:88|144:115,1,64,10|0,0:0|0:0,0:0:0:0:
144,213,35520,2,0,P|116:271|105:340,1,128,8|0,3:1|0:0,0:0:0:0:
105,333,35770,1,2,0:0:0:0:
105,333,35854,1,8,3:1:0:0:
178,363,36020,1,2,0:0:0:0:
28,344,36187,5,8,3:1:0:0:
105,333,36354,1,2,0:0:0:0:
167,287,36520,1,8,3:1:0:0:
190,213,36687,1,2,0:0:0:0:
169,140,36854,1,8,3:1:0:0:
169,140,37187,5,8,3:1:0:0:
170,132,37270,1,2,0:0:0:0:
171,124,37353,1,10,0:0:0:0:
173,116,37437,1,2,0:0:0:0:
174,108,37520,2,0,P|231:144|310:152,1,128,8|0,3:1|0:0,0:0:0:0:
289,154,37854,2,0,P|356:145|422:100,1,128,8|2,3:1|0:0,0:0:0:0:
407,115,38187,1,8,3:1:0:0:
488,3,38437,5,10,0:0:0:0:
488,3,38520,1,8,3:1:0:0:
415,35,38687,1,10,0:0:0:0:
479,83,38854,1,8,3:1:0:0:
407,115,39021,1,10,0:0:0:0:
469,163,39187,1,8,3:1:0:0:
396,195,39354,1,10,0:0:0:0:
463,243,39520,1,8,3:1:0:0:
390,275,39687,1,10,0:0:0:0:
389,281,39770,1,10,0:0:0:0:
388,287,39854,1,2,3:1:0:0:
65,348,40187,6,0,P|110:298|131:221,1,128,8|2,3:1|2:0,0:0:0:0:
130,242,40521,2,0,P|132:174|99:101,1,128,8|2,3:1|0:0,0:0:0:0:
112,119,40854,1,8,3:1:0:0:
51,65,41020,5,0,0:0:0:0:
51,65,41104,1,2,0:0:0:0:
51,65,41187,1,8,3:1:0:0:
188,99,41354,1,2,0:0:0:0:
91,198,41520,5,8,3:1:0:0:
120,130,41687,1,2,0:0:0:0:
188,99,41854,1,8,3:1:0:0:
264,105,42020,1,2,0:0:0:0:
320,157,42187,1,8,3:1:0:0:
414,25,42437,5,8,0:0:0:0:
414,25,42520,2,0,P|397:80|395:151,1,103.999995239258,8|10,3:1|0:0,0:0:0:0:
503,272,42854,5,8,3:1:0:0:
397,310,43020,1,10,0:0:0:0:
328,220,43187,1,10,0:0:0:0:
393,126,43354,1,10,0:0:0:0:
500,159,43520,5,10,0:0:0:0:
501,166,43603,1,10,0:0:0:0:
502,173,43686,1,10,0:0:0:0:
503,180,43770,1,10,0:0:0:0:
504,188,43853,1,10,0:0:0:0:
506,195,43936,1,10,0:0:0:0:
507,202,44020,1,10,0:0:0:0:
508,210,44103,1,10,0:0:0:0:
509,217,44187,6,0,P|488:236|452:263,1,44.0000013427735,10|0,0:0|0:0,0:0:0:0:
399,226,44354,2,0,P|369:228|325:225,1,44.0000013427735,10|0,0:0|0:0,0:0:0:0:
318,159,44520,2,0,P|263:127|216:84,1,117.333336914063,2|0,0:0|0:0,0:0:0:0:
223,85,44854,2,0,L|192:4,2,58.6666684570313,8|0|0,0:0|0:0|0:0,0:0:0:0:
164,147,45187,5,10,0:0:0:0:
202,30,45520,5,4,0:0:0:0:
419,307,50854,5,8,0:1:0:0:
419,307,51187,1,8,0:1:0:0:
419,307,51521,1,8,0:1:0:0:
419,307,51854,1,8,0:1:0:0:
419,307,52187,1,8,0:1:0:0:
419,307,52521,1,8,0:1:0:0:
419,307,52855,1,8,0:1:0:0:
419,307,53188,1,8,0:1:0:0:
419,307,53521,1,8,0:1:0:0:
419,307,53854,1,8,0:1:0:0:
419,307,54188,1,8,0:1:0:0:
419,307,54521,1,8,0:1:0:0:
419,307,54854,1,8,0:1:0:0:
419,307,55187,1,8,0:1:0:0:
419,307,55520,2,0,L|408:230,1,71.9999978027344,8|0,0:1|0:0,0:0:0:0:
467,180,55853,2,0,L|450:67,1,107.999996704102,8|0,0:1|0:0,0:0:0:0:
447,68,56187,6,0,P|388:41|358:38,1,71.9999978027344,8|2,0:1|0:2,0:0:0:0:
317,99,56520,2,0,P|283:117|239:123,1,71.9999978027344,8|2,0:1|0:2,0:0:0:0:
166,112,56854,2,0,L|5:87,1,143.999995605469,8|8,0:1|0:1,0:0:0:0:
23,89,57354,1,2,0:2:0:0:
235,65,57520,6,0,P|247:102|249:141,1,60.0000022888184,8|2,0:1|0:2,0:0:0:0:
201,181,57854,2,0,P|184:229|182:255,1,60.0000022888184,8|2,0:1|0:2,0:0:0:0:
254,266,58187,2,0,L|274:390,2,120.000004577637,8|8|8,0:1|0:1|0:1,0:0:0:0:
161,342,59020,5,2,0:2:0:0:
182,237,59187,2,0,P|149:221|92:215,1,80,8|2,0:1|0:2,0:0:0:0:
37,132,59520,2,0,P|24:86|22:53,1,80,8|2,0:1|0:2,0:0:0:0:
116,6,59854,1,8,0:1:0:0:
21,54,60187,6,0,P|56:67|92:74,1,51.999997619629,8|2,0:1|0:2,0:0:0:0:
118,91,60520,2,0,P|153:78|185:60,1,51.999997619629,8|2,0:1|0:2,0:0:0:0:
194,33,60854,2,0,L|257:47,2,51.999997619629,8|2|8,0:1|0:2|0:1,0:0:0:0:
287,112,61520,6,0,P|334:101|391:102,1,71.9999978027344,8|2,0:1|0:2,0:0:0:0:
444,137,61854,2,0,P|466:179|480:234,1,71.9999978027344,8|2,0:1|0:2,0:0:0:0:
386,238,62187,2,0,L|364:385,1,143.999995605469,8|8,0:1|0:1,0:0:0:0:
364,380,62687,1,2,0:2:0:0:
475,203,62854,6,0,P|445:179|405:164,1,60.0000022888184,8|2,0:1|0:2,0:0:0:0:
393,99,63187,2,0,P|355:93|312:100,1,60.0000022888184,8|2,0:1|0:2,0:0:0:0:
251,139,63520,2,0,L|225:20,2,120.000004577637,8|8|8,0:1|0:1|0:1,0:0:0:0:
184,280,64354,5,2,0:2:0:0:
184,280,64520,2,0,L|286:294,1,80,8|2,0:1|0:2,0:0:0:0:
311,364,64854,2,0,L|481:341,1,160,8|8,0:1|0:1,0:0:0:0:
469,342,65354,1,2,0:2:0:0:
311,364,65520,5,8,0:1:0:0:
393,325,65854,1,8,0:1:0:0:
445,265,66187,1,8,0:1:0:0:
454,234,66520,1,8,0:1:0:0:
349,137,66854,5,10,1:0:0:0:
494,163,67187,1,10,1:0:0:0:
428,107,67520,1,10,1:0:0:0:
444,23,67854,1,10,1:0:0:0:
364,131,68187,5,10,1:0:0:0:
480,152,68520,1,10,1:0:0:0:
427,107,68853,1,10,1:0:0:0:
440,40,69187,1,10,1:0:0:0:
380,125,69520,5,8,1:0:0:0:
467,141,69853,1,10,1:0:0:0:
427,107,70186,1,10,1:0:0:0:
437,57,70520,1,10,1:0:0:0:
388,122,70854,5,8,1:0:0:0:
460,135,71187,1,10,1:0:0:0:
427,107,71520,1,10,1:0:0:0:
435,65,71854,5,10,1:0:0:0:
435,65,72187,5,14,1:0:0:0:
460,135,72354,1,2,0:0:0:0:
427,107,72520,1,10,1:0:0:0:
388,122,72687,1,2,0:0:0:0:
437,57,72854,5,10,1:0:0:0:
467,141,73020,1,2,0:0:0:0:
427,107,73188,1,10,1:0:0:0:
380,125,73354,1,0,0:0:0:0:
440,40,73520,5,12,1:0:0:0:
480,152,73687,1,2,0:0:0:0:
427,107,73854,1,10,1:0:0:0:
364,131,74020,1,2,0:0:0:0:
444,23,74187,5,8,1:0:0:0:
494,163,74354,1,2,0:0:0:0:
428,107,74521,1,10,1:0:0:0:
349,137,74687,1,0,0:0:0:0:
273,127,74854,5,10,1:0:0:0:
256,192,74937,12,10,76020,1:0:0:0:
4,216,76187,6,0,P|0:188|-2:143,1,44.0000013427735,8|0,1:0|0:0,0:0:0:0:
58,121,76354,2,0,P|73:96|101:61,1,44.0000013427735,2|0,0:0|0:0,0:0:0:0:
160,94,76520,2,0,P|217:67|279:54,1,117.333336914063,8|0,1:0|0:0,0:0:0:0:
275,58,76854,2,0,L|358:79,2,58.6666684570313,8|0|0,1:0|0:0|0:0,0:0:0:0:
160,94,77187,5,8,0:3:0:0:
442,43,77520,5,8,3:2:0:0:
363,76,77687,1,2,3:2:0:0:
363,76,77770,1,0,0:0:0:0:
363,76,77854,2,0,P|348:135|344:191,1,100,8|2,3:2|3:2,0:0:0:0:
285,245,78187,2,0,P|311:299|344:345,1,100,8|2,3:2|3:2,0:0:0:0:
341,340,78437,1,2,0:0:0:0:
341,340,78520,2,0,L|453:346,1,100,8|2,3:2|3:2,0:0:0:0:
285,245,78854,6,0,P|236:255|204:268,1,80,8|2,3:2|3:2,0:0:0:0:
134,228,79187,2,0,P|102:267|86:297,1,80,8|2,3:2|3:2,0:0:0:0:
9,273,79520,5,8,3:2:0:0:
94,301,79687,1,2,3:2:0:0:
94,301,79770,1,2,0:0:0:0:
94,301,79854,2,0,L|111:381,1,80,8|2,3:2|3:2,0:0:0:0:
264,238,80187,5,8,3:2:0:0:
189,201,80354,1,2,3:2:0:0:
189,201,80437,1,2,0:0:0:0:
189,201,80520,2,0,P|224:151|280:120,1,108.000000411987,8|2,3:2|3:2,0:0:0:0:
279,25,80854,2,0,P|337:9|400:21,1,108.000000411987,8|2,3:2|3:2,0:0:0:0:
391,22,81104,1,2,0:0:0:0:
391,22,81187,2,0,L|418:147,1,108.000000411987,8|2,3:2|3:2,0:0:0:0:
279,25,81520,6,0,P|224:57|209:61,1,71.9999978027344,8|2,3:2|3:2,0:0:0:0:
189,100,81854,2,0,P|126:89|112:82,1,71.9999978027344,8|2,3:2|3:2,0:0:0:0:
41,170,82187,1,8,3:2:0:0:
72,97,82354,1,2,3:2:0:0:
72,97,82437,1,2,0:0:0:0:
72,97,82520,2,0,P|30:48|24:34,1,71.9999978027344,8|0,3:2|0:0,0:0:0:0:
27,41,82854,1,8,3:2:0:0:
41,170,83020,5,2,3:2:0:0:
41,170,83104,1,2,0:0:0:0:
41,170,83187,2,0,P|112:145|159:140,1,100,8|2,3:2|3:2,0:0:0:0:
196,68,83520,2,0,P|266:94|305:120,1,100,8|2,3:2|3:2,0:0:0:0:
294,115,83770,1,2,0:0:0:0:
294,115,83854,2,0,L|313:225,1,100,8|2,3:2|3:2,0:0:0:0:
196,68,84187,6,0,P|181:106|177:152,1,80,8|2,3:2|3:2,0:0:0:0:
112,189,84520,2,0,P|124:227|151:265,1,80,8|2,3:2|3:2,0:0:0:0:
221,312,84854,1,8,3:2:0:0:
154,267,85020,1,2,3:2:0:0:
154,267,85104,1,2,0:0:0:0:
154,267,85187,2,0,L|75:274,1,80,8|0,3:2|0:0,0:0:0:0:
285,377,85520,5,8,3:2:0:0:
417,348,85687,1,2,3:2:0:0:
417,348,85770,1,2,0:0:0:0:
417,348,85854,2,0,P|432:297|437:236,1,108.000000411987,8|2,3:2|3:2,0:0:0:0:
317,44,86187,6,0,P|367:9|423:13,1,95.9999970703126,8|2,3:2|3:2,0:0:0:0:
464,138,86520,2,0,P|414:173|358:169,1,95.9999970703126,8|2,3:2|3:2,0:0:0:0:
391,89,86854,5,8,3:2:0:0:
469,55,87020,1,2,3:2:0:0:
313,124,87187,1,8,3:2:0:0:
244,92,87354,1,2,3:2:0:0:
177,56,87520,1,8,3:2:0:0:
98,115,87687,1,2,3:2:0:0:
98,115,87770,1,2,0:0:0:0:
98,115,87854,5,8,3:2:0:0:
136,84,88020,1,8,3:2:0:0:
70,35,88187,5,8,3:2:0:0:
170,159,88354,1,2,3:2:0:0:
209,131,88437,1,2,3:2:0:0:
219,87,88520,2,0,P|282:64|337:65,1,108.000000411987,8|2,3:2|3:2,0:0:0:0:
143,237,88854,5,8,3:2:0:0:
107,217,88937,1,2,3:2:0:0:
90,180,89020,2,0,P|52:166|23:163,2,54.0000002059937,2|2|8,3:2|3:2|3:2,0:0:0:0:
170,159,89354,5,2,3:2:0:0:
115,316,89520,2,0,L|1:330,1,108.000000411987,8|2,3:2|3:2,0:0:0:0:
195,300,89854,5,8,3:2:0:0:
225,223,90020,1,8,3:2:0:0:
259,243,90104,1,8,3:2:0:0:
273,280,90187,1,8,3:2:0:0:
255,353,90354,5,8,3:2:0:0:
276,319,90438,1,8,3:2:0:0:
273,280,90520,2,0,L|385:257,1,108.000000411987,8|2,3:2|3:2,0:0:0:0:
458,242,90854,5,8,3:2:0:0:
354,100,91020,1,2,3:2:0:0:
369,58,91104,1,2,3:2:0:0:
410,43,91187,2,0,P|466:68|524:71,1,108.000000411987,8|2,3:2|3:2,0:0:0:0:
384,177,91520,5,8,3:2:0:0:
304,166,91687,1,2,3:2:0:0:
281,145,91770,1,2,3:2:0:0:
273,114,91854,2,0,P|231:134|208:137,3,54.0000002059937,8|2|2|2,3:2|3:2|3:2|3:2,0:0:0:0:
154,96,92187,5,8,3:2:0:0:
154,96,92520,2,0,L|144:23,1,54.0000002059937,8|2,3:2|3:2,0:0:0:0:
51,169,92687,2,0,L|124:159,1,54.0000002059937,8|8,3:2|3:2,0:0:0:0:
183,255,92854,2,0,L|176:202,1,54.0000002059937,8|0,3:2|0:0,0:0:0:0:
70,324,93020,2,0,L|124:317,1,54.0000002059937,8|8,3:2|3:2,0:0:0:0:
199,361,93187,2,0,L|325:344,1,108.000000411987,8|2,3:2|3:2,0:0:0:0:
387,333,93520,5,8,3:2:0:0:
370,190,93687,1,2,3:2:0:0:
339,221,93770,1,2,3:2:0:0:
333,266,93854,2,0,P|267:256|213:235,1,108.000000411987,8|2,3:2|3:2,0:0:0:0:
455,290,94187,5,8,3:2:0:0:
437,262,94270,1,2,3:2:0:0:
413,255,94354,2,0,P|401:218|398:189,2,54.0000002059937,2|2|8,3:2|3:2|3:2,0:0:0:0:
452,71,94687,5,10,3:2:0:0:
386,120,94854,2,0,P|310:89|259:88,1,108.000000411987,8|10,3:2|3:2,0:0:0:0:
161,19,95187,1,8,3:2:0:0:
161,19,95270,2,0,P|82:44|43:76,1,108.000000411987,10|10,3:2|3:2,0:0:0:0:
57,64,95520,1,8,3:2:0:0:
18,139,95687,1,10,3:2:0:0:
18,139,95770,1,10,3:2:0:0:
18,139,95854,2,0,L|38:271,1,108.000000411987,8|2,3:2|3:2,0:0:0:0:
50,328,96187,5,8,3:2:0:0:
92,310,96270,1,2,3:2:0:0:
112,270,96354,1,2,3:2:0:0:
137,305,96437,1,2,3:2:0:0:
180,317,96520,2,0,L|255:301,3,54.0000002059937,10|2|8|8,3:2|3:2|3:2|3:2,0:0:0:0:
292,360,96854,5,8,3:2:0:0:
314,321,96937,1,2,3:2:0:0:
308,279,97020,1,2,3:2:0:0:
331,242,97104,1,2,3:2:0:0:
318,201,97187,2,0,L|308:142,3,54.0000002059937,10|2|8|8,3:2|3:2|3:2|3:2,0:0:0:0:
276,73,97520,5,8,3:2:0:0:
354,81,97687,1,10,3:2:0:0:
433,89,97854,1,8,3:2:0:0:
512,97,98021,1,10,3:2:0:0:
512,97,98104,1,8,3:2:0:0:
512,97,98187,1,8,3:2:0:0:
276,73,98354,1,10,3:2:0:0:
276,73,98437,1,8,3:2:0:0:
276,73,98520,1,8,3:2:0:0:
191,20,98687,5,10,3:2:0:0:
191,20,98770,2,0,L|50:37,1,120.000004577637,0|2,0:0|3:2,0:0:0:0:
66,37,99187,6,0,P|18:72|9:161,2,108.000000411987,8|8|8,3:2|3:2|3:2,0:0:0:0:
40,195,99687,5,2,3:2:0:0:
40,195,99770,1,2,3:2:0:0:
40,195,99854,2,0,P|83:231|94:271,1,71.9999978027344,0|2,3:2|3:2,0:0:0:0:
176,367,100187,6,0,L|211:226,1,111.999996582031,8|2,3:2|3:2,0:0:0:0:
238,239,100437,1,2,3:2:0:0:
275,222,100520,2,0,L|310:81,1,111.999996582031,8|2,3:2|3:2,0:0:0:0:
345,336,100854,6,0,L|380:195,1,111.999996582031,8|2,3:2|3:2,0:0:0:0:
202,119,101187,2,0,L|237:-22,1,111.999996582031,8|2,3:2|3:2,0:0:0:0:
106,117,101520,5,8,3:2:0:0:
106,117,101604,1,2,3:2:0:0:
106,117,101687,2,0,L|141:-24,2,111.999996582031,2|8|2,3:2|3:2|3:2,0:0:0:0:
127,154,102104,1,2,3:2:0:0:
148,189,102187,2,0,L|121:297,1,111.999996582031,8|2,3:2|3:2,0:0:0:0:
301,113,102520,2,0,L|274:221,1,111.999996582031,8|2,3:2|3:2,0:0:0:0:
439,339,102854,6,0,L|465:230,1,111.999996582031,8|2,3:2|3:2,0:0:0:0:
440,195,103104,1,2,3:2:0:0:
416,162,103187,2,0,L|442:53,2,111.999996582031,8|2|8,3:2|3:2|3:2,0:0:0:0:
328,198,103687,5,2,3:2:0:0:
267,147,103854,2,0,P|210:130|133:128,1,120.000004577637,2|0,3:2|3:2,0:0:0:0:
59,147,104520,5,8,3:2:0:0:
149,126,104687,1,10,3:2:0:0:
267,147,104854,1,8,3:2:0:0:
373,239,105020,1,10,3:2:0:0:
373,239,105104,1,10,3:2:0:0:
373,239,105187,2,0,L|393:321,1,60.0000022888184,2|2,3:2|3:2,0:0:0:0:
474,302,105520,6,0,L|448:193,1,111.999996582031,8|2,3:2|3:2,0:0:0:0:
410,175,105770,1,2,3:2:0:0:
374,154,105854,2,0,L|348:45,1,111.999996582031,8|10,3:2|3:2,0:0:0:0:
269,356,106187,6,0,L|242:247,1,111.999996582031,8|10,3:2|3:2,0:0:0:0:
267,213,106437,1,8,3:2:0:0:
290,177,106521,2,0,L|263:68,1,111.999996582031,8|2,3:2|3:2,0:0:0:0:
89,28,106854,5,8,3:2:0:0:
135,29,106937,1,10,3:2:0:0:
166,56,107020,2,0,L|192:164,1,111.999996582031,10|8,3:2|3:2,0:0:0:0:
0,301,107354,5,10,3:2:0:0:
46,302,107437,1,8,0:0:0:0:
77,329,107520,2,0,L|92:394,1,55.9999982910157,8|10,3:2|3:2,0:0:0:0:
119,207,107687,2,0,L|134:272,1,55.9999982910157,10|10,3:2|3:2,0:0:0:0:
207,303,107854,2,0,L|222:368,1,55.9999982910157,8|10,3:2|3:2,0:0:0:0:
249,181,108021,2,0,L|264:246,1,55.9999982910157,10|10,3:2|3:2,0:0:0:0:
328,284,108187,6,0,P|341:217|337:204,1,55.9999982910157,8|0,3:2|0:0,0:0:0:0:
501,276,108354,2,0,P|489:301|486:328,1,55.9999982910157,2|0,3:2|0:0,0:0:0:0:
397,353,108520,2,0,L|431:203,1,149.333328776042,8|0,3:2|0:0,0:0:0:0:
433,198,108854,2,0,L|460:80,1,111.999996582031,8|0,3:2|0:0,0:0:0:0:
480,11,109187,1,12,3:2:0:0:
397,353,109520,5,4,3:2:0:0:
