osu file format v14

[General]
AudioFilename: audio.mp3
AudioLeadIn: 0
PreviewTime: 76187
Countdown: 0
SampleSet: Soft
StackLeniency: 0.4
Mode: 0
LetterboxInBreaks: 0
WidescreenStoryboard: 0

[Editor]
Bookmarks: 36520,45520,56187,77520,96187,98854,104187,109520
DistanceSpacing: 1.5
BeatDivisor: 4
GridSize: 4
TimelineZoom: 2.1

[Metadata]
Title:Ready For The Madness
TitleUnicode:Ready For The Madness
Artist:RiraN
ArtistUnicode:RiraN
Creator:Fall
Version:Gordon's Hard
Source:osu!
Tags:instrumental lose control electronic hardstyle mappers' guild mg featured artist fa Daycore Gordon123 Left Cris- _tranquility english
BeatmapID:2123342
BeatmapSetID:999054

[Difficulty]
HPDrainRate:4.2
CircleSize:3.5
OverallDifficulty:6
ApproachRate:8
SliderMultiplier:1.35
SliderTickRate:1

[Events]
//Background and Video events
0,0,"65604193_p0_waifu2x_art_noise1_scale_tta_1.jpg",0,0
//Break Periods
2,3054,7437
2,45720,50104
//Storyboard Layer 0 (Background)
//Storyboard Layer 1 (Fail)
//Storyboard Layer 2 (Pass)
//Storyboard Layer 3 (Foreground)
//Storyboard Layer 4 (Overlay)
//Storyboard Sound Samples

[TimingPoints]
1521,333.333333333333,4,2,0,80,1,0
1521,-100,4,2,0,80,0,0
2854,-100,4,2,0,55,0,0
12854,-100,4,2,0,55,0,0
13520,-100,4,2,2,70,0,0
22854,-100,4,2,0,70,0,0
24187,-90.9090909090909,4,2,1,80,0,0
28187,-100,4,2,1,80,0,0
29520,-100,4,2,1,80,0,0
42520,-100,4,2,1,80,0,0
44187,-100,4,2,0,80,0,0
45187,-100,4,2,1,80,0,0
45520,-100,4,2,0,60,0,0
50854,-111.111111111111,4,2,0,60,0,0
55520,-111.111111111111,4,2,0,60,0,0
56187,-100,4,2,0,60,0,0
57520,-100,4,2,0,60,0,0
59187,-100,4,2,0,60,0,0
60187,-100,4,2,0,60,0,0
61520,-100,4,2,0,60,0,0
62854,-100,4,2,0,60,0,0
64187,-100,4,2,0,60,0,0
66854,-111.111111111111,4,2,2,60,0,0
76187,-100,4,2,0,60,0,0
77520,-90.9090909090909,4,2,1,90,0,1
77604,-90.9090909090909,4,2,1,90,0,1
78854,-90.9090909090909,4,2,1,90,0,1
80187,-90.9090909090909,4,2,1,90,0,1
81520,-90.9090909090909,4,2,1,90,0,1
82854,-90.9090909090909,4,2,1,90,0,1
84187,-90.9090909090909,4,2,1,90,0,1
85854,-90.9090909090909,4,2,1,90,0,1
86187,-90.9090909090909,4,2,1,90,0,1
88187,-100,4,2,1,90,0,1
98770,-100,4,2,1,90,0,0
99187,-100,4,2,1,90,0,0
99854,-100,4,2,1,90,0,0
100187,-100,4,2,1,80,0,0
103854,-100,4,2,1,80,0,0
105520,-100,4,2,1,80,0,0
108187,-100,4,2,0,80,0,0

[Colours]
Combo1 : 197,219,196
Combo2 : 132,132,255
Combo3 : 203,222,254
Combo4 : 129,207,120

[HitObjects]
52,108,1521,6,0,P|88:106|138:82,1,67.5,8|2,0:1|0:0,0:0:0:0:
194,53,1854,1,8,0:1:0:0:
288,130,2076,1,2,0:0:0:0:
288,130,2187,2,0,L|376:140,1,67.5,8|2,0:1|0:0,0:0:0:0:
435,102,2520,2,0,P|416:146|424:212,1,101.25,6|0,0:0|0:0,0:0:0:0:
439,237,2854,5,2,0:0:0:0:
423,200,8187,5,8,0:1:0:0:
428,228,8520,1,8,0:1:0:0:
436,256,8854,1,8,0:1:0:0:
444,284,9187,1,8,0:1:0:0:
348,360,9520,5,8,0:1:0:0:
236,312,9854,1,8,0:1:0:0:
136,376,10187,1,8,0:1:0:0:
32,316,10520,1,8,0:1:0:0:
76,204,10854,5,8,0:1:0:0:
68,180,11187,1,8,0:1:0:0:
156,96,11520,1,8,0:1:0:0:
164,120,11853,1,8,0:1:0:0:
284,132,12187,5,8,0:1:0:0:
276,108,12520,1,8,0:1:0:0:
388,60,12854,1,8,0:1:0:0:
468,152,13187,1,8,0:1:0:0:
404,252,13520,6,0,P|340:258|272:312,1,135,10|10,3:1|3:1,0:0:0:0:
208,344,14020,1,2,0:0:0:0:
208,344,14104,1,2,0:0:0:0:
208,344,14187,2,0,L|116:336,1,67.5,10|2,3:1|0:0,0:0:0:0:
115,253,14520,2,0,L|182:258,1,67.5,8|0,3:1|0:0,0:0:0:0:
174,170,14854,5,10,3:1:0:0:
157,84,15020,1,2,0:0:0:0:
240,110,15187,1,10,3:1:0:0:
318,71,15354,1,2,0:0:0:0:
412,69,15520,2,0,L|420:11,2,45,10|2|2,3:1|0:0|0:0,0:0:0:0:
403,131,15854,1,8,3:1:0:0:
473,291,16187,6,0,P|407:285|332:311,1,135,10|10,3:1|3:1,0:0:0:0:
267,347,16687,1,2,0:0:0:0:
266,347,16854,2,0,P|224:371|150:374,2,101.25,10|0|0,3:1|0:0|0:0,0:0:0:0:
235,265,17520,5,10,3:1:0:0:
272,185,17687,1,2,0:0:0:0:
257,98,17854,2,0,L|188:68,1,67.5,8|2,3:1|0:0,0:0:0:0:
122,21,18187,1,8,3:1:0:0:
74,94,18354,1,2,0:0:0:0:
74,94,18437,1,0,0:0:0:0:
74,94,18520,2,0,P|77:147|58:206,1,101.25,8|0,3:1|0:0,0:0:0:0:
41,234,18854,6,0,L|45:327,1,67.5,10|10,0:1|0:0,0:0:0:0:
155,371,19187,2,0,L|157:303,1,67.5,10|10,0:1|0:0,0:0:0:0:
190,221,19520,2,0,P|228:248|243:274,1,67.5,10|10,0:1|0:0,0:0:0:0:
280,343,19854,2,0,L|356:354,1,67.5,10|8,0:1|0:0,0:0:0:0:
434,363,20187,5,10,0:1:0:0:
449,276,20354,1,10,0:0:0:0:
363,260,20520,2,0,L|296:250,1,67.5,10|10,0:1|0:0,0:0:0:0:
229,192,20854,2,0,P|207:217|173:234,2,45,10|0|0,0:1|0:0|0:0,0:0:0:0:
260,142,21187,1,10,0:1:0:0:
281,56,21354,1,10,0:0:0:0:
367,70,21520,6,0,L|421:56,15,33.75,8|10|10|10|8|10|10|10|8|10|10|10|8|10|10|10,0:1|1:0|1:0|1:0|1:0|1:0|1:0|1:0|1:0|1:0|1:0|1:0|1:0|1:0|1:0|1:0,0:0:0:0:
437,38,22854,6,0,L|431:153,1,101.25,8|0,1:0|0:0,0:0:0:0:
408,176,23187,1,10,0:0:0:0:
443,292,23409,1,2,0:0:0:0:
443,292,23520,2,0,L|363:305,1,67.5,8|0,0:0|0:0,0:0:0:0:
230,357,23854,2,0,L|310:370,1,67.5,8|0,0:3|0:0,0:0:0:0:
191,237,24187,6,0,P|193:208|178:136,1,74.2500022659302,8|2,3:1|2:0,0:0:0:0:
54,60,24520,2,0,P|49:96|51:134,1,74.2500022659302,8|2,3:1|0:0,0:0:0:0:
87,239,24854,2,0,L|38:344,2,111.375003398895,8|2|2,3:1|0:0|0:0,0:0:0:0:
191,237,25520,5,8,3:1:0:0:
252,152,25687,1,2,0:0:0:0:
230,50,25854,1,8,3:1:0:0:
331,58,26021,1,2,0:0:0:0:
437,27,26187,2,0,P|417:71|416:126,1,74.2500022659302,8|0,3:1|0:0,0:0:0:0:
446,203,26520,2,0,L|442:247,3,37.1250011329651,8|2|2|2,3:1|0:0|0:0|0:0,0:0:0:0:
465,291,26854,6,0,P|416:281|362:286,1,74.2500022659302,8|0,3:1|0:0,0:0:0:0:
312,202,27187,2,0,P|276:212|243:230,1,74.2500022659302,8|2,3:1|0:0,0:0:0:0:
169,313,27520,2,0,L|42:326,2,111.375003398895,8|2|2,3:1|0:0|0:0,0:0:0:0:
234,234,28187,6,0,P|246:198|249:155,1,67.5,8|2,3:1|0:0,0:0:0:0:
336,116,28520,2,0,P|320:81|293:47,1,67.5,8|2,3:1|0:0,0:0:0:0:
200,65,28854,1,8,3:1:0:0:
131,139,29020,2,0,P|91:141|74:145,2,33.75,2|2|8,0:0|0:0|3:1,0:0:0:0:
159,236,29354,1,8,0:0:0:0:
104,320,29520,6,0,L|192:332,1,67.5,8|2,3:1|2:0,0:0:0:0:
269,303,29854,2,0,L|357:291,1,67.5,8|2,3:1|0:0,0:0:0:0:
425,245,30187,2,0,P|415:299|428:346,2,101.25,8|2|2,3:1|0:0|0:0,0:0:0:0:
476,157,30854,5,8,3:1:0:0:
410,80,31020,2,0,P|366:89|337:90,1,67.5,2|8,0:0|3:1,0:0:0:0:
248,52,31354,1,2,0:0:0:0:
158,99,31520,2,0,L|181:176,1,67.5,8|0,3:1|0:0,0:0:0:0:
225,253,31854,2,0,L|215:298,3,33.75,8|2|2|2,3:1|0:0|0:0|0:0,0:0:0:0:
234,333,32187,6,0,P|189:327|141:335,1,67.5,8|0,3:1|0:0,0:0:0:0:
70,360,32520,1,8,3:1:0:0:
88,260,32687,1,2,0:0:0:0:
49,166,32854,1,8,3:1:0:0:
86,77,33020,1,2,0:0:0:0:
86,77,33104,1,2,0:0:0:0:
86,77,33187,2,0,L|161:87,1,67.5,8|2,3:1|0:0,0:0:0:0:
247,49,33520,6,0,L|313:40,1,67.5,8|2,3:1|0:0,0:0:0:0:
365,127,33854,2,0,L|298:135,1,67.5,8|2,3:1|0:0,0:0:0:0:
199,159,34187,2,0,P|176:192|163:237,1,67.5,8|10,3:1|0:0,0:0:0:0:
161,254,34437,1,2,0:0:0:0:
175,287,34520,2,0,P|218:298|258:320,1,67.5,8|0,3:1|0:0,0:0:0:0:
324,363,34854,6,0,P|347:300|428:264,1,135,2|8,3:1|3:1,0:0:0:0:
424,365,35354,1,10,0:0:0:0:
403,266,35520,2,0,L|411:159,2,101.25,8|2|2,3:1|0:0|0:0,0:0:0:0:
314,217,36187,5,8,3:1:0:0:
215,240,36354,1,2,0:0:0:0:
241,142,36520,1,8,3:1:0:0:
200,49,36687,1,2,0:0:0:0:
102,81,36854,2,0,P|67:90|14:90,1,67.5,8|0,3:1|0:0,0:0:0:0:
56,191,37187,2,0,L|72:230,3,33.75,8|2|10|2,3:1|0:0|0:0|0:0,0:0:0:0:
38,262,37520,6,0,L|134:279,1,67.5,8|0,3:1|0:0,0:0:0:0:
182,339,37854,2,0,P|218:321|266:312,1,67.5,8|2,3:1|0:0,0:0:0:0:
344,331,38187,2,0,L|385:207,2,101.25,8|10|10,3:1|0:0|0:0,0:0:0:0:
244,314,38854,5,8,3:1:0:0:
176,238,39020,1,10,0:0:0:0:
211,143,39187,2,0,P|247:134|286:110,1,67.5,8|10,3:1|0:0,0:0:0:0:
338,41,39520,1,8,3:1:0:0:
435,68,39687,1,10,0:0:0:0:
435,68,39770,1,10,0:0:0:0:
435,68,39854,2,0,L|413:178,1,101.25,2|0,3:1|0:0,0:0:0:0:
429,215,40187,6,0,L|413:286,1,67.5,8|2,3:1|2:0,0:0:0:0:
315,305,40520,2,0,L|329:239,1,67.5,8|2,3:1|0:0,0:0:0:0:
247,178,40854,2,0,P|277:134|282:60,2,101.25,8|2|2,3:1|0:0|0:0,0:0:0:0:
151,211,41520,5,8,3:1:0:0:
226,278,41687,1,2,0:0:0:0:
130,311,41854,1,8,3:1:0:0:
52,245,42020,1,2,0:0:0:0:
73,145,42187,2,0,L|52:70,1,67.5,8|0,3:1|0:0,0:0:0:0:
33,33,42437,1,8,0:0:0:0:
33,33,42520,2,0,P|75:42|125:37,1,67.5,8|10,3:1|0:0,0:0:0:0:
200,26,42854,5,8,3:1:0:0:
200,26,43020,1,10,0:0:0:0:
292,66,43187,1,10,0:0:0:0:
292,66,43354,1,10,0:0:0:0:
392,62,43520,2,0,L|418:97,7,33.75,10|10|10|10|10|10|10|10,0:0|0:0|0:0|0:0|0:0|0:0|0:0|0:0,0:0:0:0:
455,116,44187,6,0,P|407:131|377:164,1,67.5,10|10,0:0|0:0,0:0:0:0:
331,221,44520,1,2,0:0:0:0:
209,212,44743,1,0,0:0:0:0:
209,212,44854,2,0,L|185:122,1,67.5,8|8,0:0|0:0,0:0:0:0:
238,64,45187,2,0,P|200:88|130:86,1,101.25,10|0,0:0|0:0,0:0:0:0:
96,77,45520,5,4,0:0:0:0:
435,217,50854,5,8,0:1:0:0:
477,283,51020,1,0,0:0:0:0:
398,287,51187,2,0,L|315:299,1,60.7499981460572,8|0,0:1|0:0,0:0:0:0:
270,337,51520,2,0,L|187:349,1,60.7499981460572,8|0,0:1|0:0,0:1:0:0:
134,315,51854,1,8,0:1:0:0:
82,255,52020,1,0,0:0:0:0:
86,175,52187,5,8,0:1:0:0:
175,25,52520,1,8,0:1:0:0:
260,186,52854,1,8,0:1:0:0:
349,36,53187,1,8,0:1:0:0:
485,125,53520,5,8,0:1:0:0:
485,125,53687,1,0,0:0:0:0:
446,193,53854,2,0,L|467:272,1,60.7499981460572,8|0,0:1|0:0,0:0:0:0:
414,315,54187,2,0,P|381:339|343:348,2,60.7499981460572,8|0|8,0:1|0:0|0:1,0:0:0:0:
353,264,54687,1,0,0:0:0:0:
372,187,54854,5,8,0:1:0:0:
456,53,55187,1,8,0:1:0:0:
298,48,55520,1,8,0:1:0:0:
372,187,55854,1,8,0:1:0:0:
209,120,56187,5,8,0:1:0:0:
127,85,56354,1,2,0:2:0:0:
51,128,56520,2,0,L|59:212,1,67.5,8|2,0:1|0:2,0:0:0:0:
131,243,56854,1,8,0:1:0:0:
156,326,57020,1,2,0:2:0:0:
156,326,57187,2,0,L|222:316,1,67.5,8|2,0:1|0:2,0:0:0:0:
360,374,57520,6,0,L|280:363,1,67.5,8|2,0:1|0:2,0:0:0:0:
379,260,57854,2,0,L|445:250,2,67.5,8|2|8,0:1|0:2|0:1,0:0:0:0:
306,210,58354,1,2,0:2:0:0:
306,210,58520,2,0,P|246:203|227:154,1,101.25,8|0,0:1|0:0,0:0:0:0:
240,128,58854,6,0,L|155:136,1,67.5,8|2,0:1|0:2,0:0:0:0:
91,100,59187,2,0,P|55:117|5:122,2,67.5,8|2|8,0:1|0:2|0:1,0:0:0:0:
149,34,59687,1,2,0:2:0:0:
149,34,59854,2,0,P|211:45|233:42,1,67.5,8|2,0:1|0:2,0:0:0:0:
302,42,60187,6,0,P|335:40|367:31,1,67.5,8|2,0:1|0:2,0:0:0:0:
450,61,60520,1,8,0:1:0:0:
485,141,60687,1,2,0:2:0:0:
485,141,60854,1,8,0:1:0:0:
430,209,61020,1,2,0:2:0:0:
430,209,61187,2,0,P|383:194|340:239,1,101.25,8|0,0:1|0:0,0:0:0:0:
348,266,61520,6,0,L|255:263,1,67.5,8|2,0:1|0:2,0:0:0:0:
204,309,61854,2,0,L|111:306,1,67.5,8|2,0:1|0:2,0:0:0:0:
50,326,62187,2,0,P|62:283|56:233,1,67.5,8|2,0:1|0:2,0:0:0:0:
120,194,62520,2,0,P|108:151|114:101,1,67.5,8|2,0:1|0:2,0:0:0:0:
232,60,62854,6,0,P|195:54|169:36,1,67.5,8|2,0:1|0:2,0:0:0:0:
327,21,63187,1,8,0:1:0:0:
327,21,63354,1,2,0:2:0:0:
415,46,63520,1,8,0:1:0:0:
415,46,63687,1,2,0:2:0:0:
452,125,63854,2,0,P|418:171|448:209,1,101.25,8|0,0:1|0:0,0:0:0:0:
479,214,64187,6,0,L|465:287,1,67.5,8|2,0:1|0:2,0:0:0:0:
396,333,64520,1,8,0:1:0:0:
332,272,64687,1,2,0:2:0:0:
265,329,64854,2,0,P|222:320|182:325,1,67.5,8|2,0:1|0:2,0:0:0:0:
113,344,65187,1,8,0:1:0:0:
40,300,65354,1,2,0:2:0:0:
73,219,65520,6,0,P|86:182|88:135,1,67.5,8|2,0:1|0:2,0:0:0:0:
151,73,65854,2,0,P|155:106|167:137,1,67.5,8|2,0:1|0:2,0:0:0:0:
245,198,66187,1,8,0:1:0:0:
245,198,66354,1,2,0:2:0:0:
245,198,66520,2,0,L|225:311,1,101.25,8|0,0:1|0:0,0:0:0:0:
206,331,66854,6,0,P|244:335|285:353,1,60.7499981460572,10|2,1:0|2:0,0:0:0:0:
346,360,67187,1,10,1:0:0:0:
346,360,67354,1,2,2:0:0:0:
400,302,67520,2,0,L|474:296,2,60.7499981460572,10|2|10,1:0|2:0|1:0,0:0:0:0:
247,260,68187,6,0,P|240:225|250:179,1,60.7499981460572,10|2,1:0|2:0,0:0:0:0:
275,128,68520,2,0,L|196:119,1,60.7499981460572,10|2,1:0|2:0,0:0:0:0:
142,88,68854,2,0,P|154:67|163:38,2,40.4999987640381,10|2|2,1:0|0:0|0:0,0:0:0:0:
104,124,69187,1,10,1:0:0:0:
64,276,69520,6,0,P|81:311|81:349,1,60.7499981460572,8|2,1:0|2:0,0:0:0:0:
156,363,69854,2,0,P|183:350|213:349,1,60.7499981460572,10|2,1:0|2:0,0:0:0:0:
292,353,70187,1,10,1:0:0:0:
356,306,70354,1,2,2:0:0:0:
341,228,70520,1,10,1:0:0:0:
202,151,70854,6,0,L|188:81,1,60.7499981460572,8|2,1:0|2:0,0:0:0:0:
260,57,71187,2,0,L|271:116,1,60.7499981460572,10|2,1:0|2:0,0:0:0:0:
336,161,71520,2,0,P|381:179|414:173,1,60.7499981460572,10|2,1:0|2:0,0:0:0:0:
431,169,71770,1,0,0:0:0:0:
431,169,71854,2,0,L|426:248,1,60.7499981460572,10|0,1:0|0:0,0:0:0:0:
382,294,72187,6,0,P|311:296|245:313,1,121.499996292114,14|10,1:0|1:0,0:0:0:0:
191,343,72687,1,2,0:0:0:0:
83,294,72854,2,0,L|99:231,1,60.7499981460572,10|2,1:0|0:0,0:0:0:0:
162,188,73187,2,0,L|147:129,1,60.7499981460572,10|0,1:0|0:0,0:0:0:0:
66,42,73520,6,0,P|123:50|198:46,1,121.499996292114,12|10,1:0|1:0,0:0:0:0:
260,19,74020,1,2,0:0:0:0:
350,95,74187,2,0,P|374:89|414:87,2,40.4999987640381,8|0|0,1:0|0:0|0:0,0:0:0:0:
302,116,74520,1,10,1:0:0:0:
247,173,74687,1,0,0:0:0:0:
256,192,74854,12,8,76187,1:0:0:0:
166,214,77520,5,8,3:2:0:0:
247,289,77687,1,2,3:2:0:0:
247,289,77854,2,0,P|303:283|334:289,1,74.2500022659302,8|2,3:2|3:2,0:0:0:0:
472,203,78187,2,0,P|435:209|399:207,1,74.2500022659302,8|2,3:2|3:2,0:0:0:0:
232,140,78520,2,0,P|269:146|306:144,1,74.2500022659302,8|2,3:2|3:2,0:0:0:0:
398,80,78854,6,0,L|420:2,2,74.2500022659302,8|2|8,3:2|3:2|3:2,0:0:0:0:
305,144,79354,1,2,3:2:0:0:
206,92,79520,1,8,3:2:0:0:
96,113,79687,1,2,3:2:0:0:
96,113,79770,1,2,0:0:0:0:
96,113,79854,2,0,P|106:156|96:201,1,74.2500022659302,8|2,3:2|3:2,0:0:0:0:
35,274,80187,5,8,3:2:0:0:
114,352,80354,1,2,3:2:0:0:
114,352,80520,2,0,L|203:346,1,74.2500022659302,8|2,3:2|3:2,0:0:0:0:
312,241,80854,2,0,L|238:246,1,74.2500022659302,8|2,3:2|3:2,0:0:0:0:
89,165,81187,2,0,L|164:161,1,74.2500022659302,8|2,3:2|3:2,0:0:0:0:
248,88,81520,6,0,P|236:52|238:12,2,74.2500022659302,8|2|8,3:2|3:2|3:2,0:0:0:0:
333,159,82020,1,2,3:2:0:0:
444,162,82187,1,8,3:2:0:0:
391,260,82354,1,2,3:2:0:0:
391,260,82437,1,2,0:0:0:0:
391,260,82520,2,0,L|375:338,1,74.2500022659302,8|0,3:2|0:0,0:0:0:0:
269,296,82854,5,8,3:2:0:0:
162,325,83020,1,2,3:2:0:0:
162,325,83187,2,0,P|113:337|71:331,1,74.2500022659302,8|2,3:2|3:2,0:0:0:0:
11,255,83520,2,0,L|31:165,1,74.2500022659302,8|2,3:2|3:2,0:0:0:0:
21,70,83854,2,0,P|61:92|95:96,1,74.2500022659302,8|2,3:2|3:2,0:0:0:0:
188,46,84187,6,0,P|202:80|227:107,1,74.2500022659302,8|2,3:2|3:2,0:0:0:0:
316,174,84520,2,0,L|305:272,1,74.2500022659302,8|2,3:2|3:2,0:0:0:0:
332,357,84854,1,8,3:2:0:0:
447,337,85020,1,2,3:2:0:0:
447,337,85104,1,2,0:0:0:0:
447,337,85187,2,0,P|425:288|424:253,1,74.2500022659302,8|0,3:2|0:0,0:0:0:0:
456,161,85520,5,8,3:2:0:0:
414,62,85687,1,2,3:2:0:0:
414,62,85854,2,0,L|324:54,1,74.2500022659302,8|2,3:2|3:2,0:0:0:0:
235,93,86187,2,0,L|145:101,1,74.2500022659302,8|2,3:2|3:2,0:0:0:0:
61,48,86520,2,0,P|63:93|48:139,1,74.2500022659302,8|2,3:2|3:2,0:0:0:0:
17,226,86854,6,0,P|18:262|37:304,1,74.2500022659302,8|2,3:2|3:2,0:0:0:0:
127,354,87187,2,0,L|213:360,1,74.2500022659302,8|2,3:2|3:2,0:0:0:0:
298,304,87520,1,8,3:2:0:0:
223,220,87687,2,0,L|181:233,2,37.1250011329651,2|2|8,3:2|0:0|3:2,0:0:0:0:
285,127,88020,1,8,3:2:0:0:
238,36,88187,5,8,3:2:0:0:
343,46,88354,1,2,3:2:0:0:
343,46,88520,2,0,L|432:53,1,67.5,8|2,3:2|3:2,0:0:0:0:
489,115,88854,2,0,P|501:162|498:204,1,67.5,8|2,3:2|3:2,0:0:0:0:
442,263,89187,2,0,L|457:358,1,67.5,8|2,3:2|3:2,0:0:0:0:
362,376,89520,6,0,L|351:309,1,67.5,8|2,3:2|3:2,0:0:0:0:
350,207,89854,1,8,3:2:0:0:
252,180,90020,1,8,3:2:0:0:
178,249,90187,2,0,P|136:254|95:283,1,67.5,8|8,3:2|3:2,0:0:0:0:
83,287,90437,1,8,3:2:0:0:
59,315,90520,2,0,P|56:281|42:250,1,67.5,8|2,3:2|3:2,0:0:0:0:
68,152,90854,6,0,P|53:121|51:87,1,67.5,8|2,3:2|3:2,0:0:0:0:
127,22,91187,2,0,L|214:10,1,67.5,8|2,3:2|3:2,0:0:0:0:
260,96,91520,1,8,3:2:0:0:
260,96,91687,1,2,3:2:0:0:
350,49,91854,2,0,L|401:46,3,33.75,8|2|2|2,3:2|3:2|3:2|3:2,0:0:0:0:
431,29,92187,6,0,P|427:77|446:123,1,67.5,8|2,3:2|3:2,0:0:0:0:
500,169,92520,2,0,P|505:202|500:235,1,67.5,8|8,3:2|3:2,0:0:0:0:
450,324,92854,2,0,L|361:333,1,67.5,8|8,3:2|3:2,0:0:0:0:
347,317,93104,1,8,3:2:0:0:
311,306,93187,2,0,L|243:312,1,67.5,8|2,3:2|3:2,0:0:0:0:
144,291,93520,5,8,3:2:0:0:
164,194,93687,1,2,3:2:0:0:
164,194,93854,2,0,P|206:204|259:196,1,67.5,8|2,3:2|3:2,0:0:0:0:
327,174,94187,1,8,3:2:0:0:
428,204,94354,1,2,3:2:0:0:
428,204,94520,2,0,L|443:109,1,67.5,8|10,3:2|3:2,0:0:0:0:
479,43,94854,6,0,P|446:52|384:46,1,67.5,8|10,3:2|3:2,0:0:0:0:
317,35,95187,1,8,3:2:0:0:
317,35,95270,2,0,L|237:42,1,67.5,10|10,3:2|3:2,0:0:0:0:
198,46,95520,1,8,3:2:0:0:
99,19,95687,1,10,3:2:0:0:
18,80,95854,2,0,L|27:169,1,67.5,8|2,3:2|3:2,0:0:0:0:
84,229,96187,6,0,L|75:318,1,67.5,8|2,3:2|3:2,0:0:0:0:
102,340,96437,1,2,3:2:0:0:
102,340,96520,2,0,P|161:362|183:360,1,67.5,10|8,3:2|3:2,0:0:0:0:
261,332,96854,1,8,3:2:0:0:
284,233,97020,1,2,3:2:0:0:
292,196,97104,1,2,3:2:0:0:
305,161,97187,2,0,L|341:156,3,33.75,10|2|8|8,3:2|3:2|3:2|3:2,0:0:0:0:
389,163,97520,6,0,L|381:75,1,67.5,8|10,3:2|3:2,0:0:0:0:
472,46,97854,2,0,L|478:113,1,67.5,8|10,3:2|3:2,0:0:0:0:
499,212,98187,1,8,3:2:0:0:
436,292,98354,2,0,L|464:320,2,33.75,10|8|8,3:2|3:2|3:2,0:0:0:0:
371,228,98687,1,10,3:2:0:0:
371,228,98770,1,0,0:0:0:0:
371,228,98854,6,0,P|303:210|240:249,1,135,0|8,3:2|3:2,0:0:0:0:
174,307,99354,1,8,3:2:0:0:
76,280,99520,2,0,L|64:190,1,67.5,8|2,3:2|3:2,0:0:0:0:
109,120,99854,2,0,L|97:30,1,67.5,0|2,3:2|3:2,0:0:0:0:
197,24,100187,5,8,3:2:0:0:
286,71,100354,2,0,L|290:36,2,33.75,2|2|8,3:2|3:2|3:2,0:0:0:0:
386,54,100687,1,2,3:2:0:0:
469,111,100854,2,0,P|465:161|480:199,1,67.5,8|2,3:2|3:2,0:0:0:0:
395,246,101187,2,0,P|399:296|384:334,1,67.5,8|2,3:2|3:2,0:0:0:0:
308,365,101520,5,8,3:2:0:0:
229,319,101687,1,2,3:2:0:0:
229,319,101770,1,0,0:0:0:0:
229,319,101854,2,0,L|149:307,1,67.5,8|2,3:2|3:2,0:0:0:0:
118,217,102187,2,0,L|184:227,1,67.5,8|2,3:2|3:2,0:0:0:0:
261,160,102520,2,0,P|293:145|342:138,1,67.5,8|2,3:2|3:2,0:0:0:0:
422,165,102854,5,8,3:2:0:0:
393,68,103020,2,0,L|432:54,2,33.75,2|2|8,3:2|3:2|3:2,0:0:0:0:
297,31,103354,1,2,3:2:0:0:
197,48,103520,2,0,L|103:62,1,67.5,8|2,3:2|3:2,0:0:0:0:
101,155,103854,2,0,L|167:145,1,67.5,2|0,3:2|0:0,0:0:0:0:
201,242,104187,6,0,P|227:298|309:305,1,135,0|8,3:2|3:2,0:0:0:0:
390,281,104687,1,10,3:2:0:0:
483,319,104854,2,0,L|497:223,1,67.5,8|10,3:2|3:2,0:0:0:0:
437,167,105187,2,0,L|423:71,1,67.5,2|2,3:2|3:2,0:0:0:0:
334,58,105520,5,8,3:2:0:0:
235,84,105687,2,0,L|238:43,2,33.75,2|2|8,3:2|3:2|3:2,0:0:0:0:
137,54,106020,1,10,3:2:0:0:
64,125,106187,2,0,P|77:159|75:220,1,67.5,8|10,3:2|3:2,0:0:0:0:
79,244,106437,1,8,3:2:0:0:
79,244,106520,2,0,L|66:335,1,67.5,8|2,3:2|3:2,0:0:0:0:
148,375,106854,5,8,3:2:0:0:
246,339,107020,1,10,3:2:0:0:
246,339,107104,1,0,0:0:0:0:
246,339,107187,2,0,P|282:351|339:346,1,67.5,8|10,3:2|3:2,0:0:0:0:
410,373,107520,2,0,L|400:281,1,67.5,8|10,3:2|3:2,0:0:0:0:
424,206,107854,1,8,3:2:0:0:
494,134,108020,1,10,3:2:0:0:
445,44,108187,6,0,P|408:55|359:52,1,67.5,8|2,3:2|3:2,0:0:0:0:
278,42,108520,1,8,3:2:0:0:
199,141,108743,1,0,0:0:0:0:
199,141,108853,2,0,L|111:151,1,67.5,8|0,3:2|0:0,0:0:0:0:
46,107,109187,2,0,P|70:151|59:217,1,101.25,12|0,3:2|0:0,0:0:0:0:
51,242,109520,5,4,3:2:0:0:
