osu file format v14

[General]
AudioFilename: audio.mp3
AudioLeadIn: 0
PreviewTime: 76187
Countdown: 0
SampleSet: Soft
StackLeniency: 0
Mode: 0
LetterboxInBreaks: 0
WidescreenStoryboard: 0

[Editor]
Bookmarks: 87354,88187
DistanceSpacing: 0.4
BeatDivisor: 3
GridSize: 8
TimelineZoom: 2.5

[Metadata]
Title:Ready For The Madness
TitleUnicode:Ready For The Madness
Artist:RiraN
ArtistUnicode:RiraN
Creator:Fall
Version:Daycore's Expert
Source:osu!
Tags:instrumental lose control electronic hardstyle mappers' guild mg featured artist fa Daycore Gordon123 Left Cris- _tranquility english
BeatmapID:2119075
BeatmapSetID:999054

[Difficulty]
HPDrainRate:5.5
CircleSize:3.8
OverallDifficulty:8.7
ApproachRate:9.3
SliderMultiplier:2.2
SliderTickRate:1

[Events]
//Background and Video events
0,0,"65604193_p0_waifu2x_art_noise1_scale_tta_1.jpg",0,0
//Break Periods
2,3054,7633
2,45720,50300
//Storyboard Layer 0 (Background)
//Storyboard Layer 1 (Fail)
//Storyboard Layer 2 (Pass)
//Storyboard Layer 3 (Foreground)
//Storyboard Layer 4 (Overlay)
//Storyboard Sound Samples

[TimingPoints]
1521,333.333333333333,4,2,0,80,1,0
2187,-100,4,2,0,80,0,0
2520,-66.6666666666667,4,2,0,80,0,0
2854,-133.333333333333,4,2,0,55,0,0
13520,-100,4,2,2,70,0,0
18854,-86.9565217391304,4,2,2,70,0,0
22854,-86.9565217391304,4,2,0,70,0,0
24104,-86.9565217391304,4,2,2,70,0,0
24187,-76.9230769230769,4,2,1,80,0,1
24437,-76.9230769230769,4,2,1,80,0,1
24520,-76.9230769230769,4,2,1,80,0,1
25854,-55.5555555555556,4,2,1,80,0,1
26020,-76.9230769230769,4,2,1,80,0,1
26437,-76.9230769230769,4,2,1,80,0,1
26520,-76.9230769230769,4,2,1,80,0,1
27104,-76.9230769230769,4,2,1,80,0,1
27187,-76.9230769230769,4,2,1,80,0,1
28354,-62.5,4,2,1,80,0,1
28520,-52.6315789473684,4,2,1,80,0,1
28687,-45.4545454545455,4,2,1,80,0,1
29187,-100,4,2,1,80,0,1
29520,-76.9230769230769,4,2,1,80,0,1
29770,-76.9230769230769,4,2,1,80,0,1
29854,-76.9230769230769,4,2,1,80,0,1
31187,-55.5555555555556,4,2,1,80,0,1
31354,-76.9230769230769,4,2,1,80,0,1
31770,-76.9230769230769,4,2,1,80,0,1
31854,-76.9230769230769,4,2,1,80,0,1
32437,-76.9230769230769,4,2,1,80,0,1
32520,-76.9230769230769,4,2,1,80,0,1
34520,-500,4,2,1,80,0,0
34854,-125,4,2,1,80,0,0
35187,-125,4,2,1,80,0,1
35520,-76.9230769230769,4,2,1,80,0,1
35687,-76.9230769230769,4,2,1,80,0,1
35770,-76.9230769230769,4,2,1,80,0,1
35937,-76.9230769230769,4,2,1,80,0,1
36020,-76.9230769230769,4,2,1,80,0,1
36104,-76.9230769230769,4,2,1,80,0,1
36187,-76.9230769230769,4,2,1,80,0,1
36520,-55.5555555555556,4,2,1,80,0,1
36687,-76.9230769230769,4,2,1,80,0,1
37104,-76.9230769230769,4,2,1,80,0,1
37187,-76.9230769230769,4,2,1,80,0,1
37770,-76.9230769230769,4,2,1,80,0,1
37854,-76.9230769230769,4,2,1,80,0,1
39854,-114.285714285714,4,2,1,80,0,0
40104,-114.285714285714,4,2,1,80,0,0
40187,-76.9230769230769,4,2,1,80,0,1
40437,-76.9230769230769,4,2,1,80,0,1
40520,-76.9230769230769,4,2,1,80,0,1
41020,-76.9230769230769,4,2,1,80,0,1
41104,-76.9230769230769,4,2,1,80,0,1
41270,-76.9230769230769,4,2,1,80,0,1
41354,-76.9230769230769,4,2,1,80,0,1
41437,-76.9230769230769,4,2,1,80,0,1
41520,-76.9230769230769,4,2,1,80,0,1
41854,-55.5555555555556,4,2,1,80,0,1
42020,-76.9230769230769,4,2,1,80,0,1
43520,-38.4615384615385,4,2,1,80,0,1
44187,-76.9230769230769,4,2,0,80,0,1
45187,-100,4,2,1,80,0,0
45520,-100,4,2,0,60,0,0
50854,-111.111111111111,4,2,0,60,0,0
58770,-111.111111111111,4,2,0,60,0,0
58854,-111.111111111111,4,2,0,60,0,0
61437,-111.111111111111,4,2,0,60,0,0
61520,-111.111111111111,4,2,0,60,0,0
64104,-111.111111111111,4,2,0,60,0,0
64187,-111.111111111111,4,2,0,60,0,0
66854,-100,4,2,2,60,0,0
71020,-333.333333333333,4,2,2,60,0,0
71520,-100,4,2,2,60,0,0
76187,-100,4,2,0,60,0,0
77520,-76.9230769230769,4,2,1,90,0,0
78020,-57.1428571428571,4,2,1,90,0,0
78854,-76.9230769230769,4,2,1,90,0,0
85520,-76.9230769230769,4,2,1,90,0,0
88187,-76.9230769230769,4,2,1,90,0,0
100187,-76.9230769230769,4,2,1,80,0,0
103854,-76.9230769230769,4,2,1,80,0,0
104187,-76.9230769230769,4,2,1,80,0,0
108187,-76.9230769230769,4,2,0,80,0,0
108520,-76.9230769230769,4,2,0,80,0,0
108854,-76.9230769230769,4,2,0,80,0,0
109187,-55.5555555555556,4,2,0,80,0,0

[Colours]
Combo1 : 197,219,196
Combo2 : 132,132,255
Combo3 : 203,222,254
Combo4 : 129,207,120

[HitObjects]
299,233,1520,6,0,L|180:218,2,73.3333333333333,8|2|2,0:1|0:0|0:0,0:0:0:0:
117,311,1854,2,0,L|236:296,2,73.3333333333333,8|2|2,0:1|0:0|0:0,0:0:0:0:
74,217,2187,5,8,0:1:0:0:
79,195,2298,1,2,0:0:0:0:
84,173,2409,1,2,0:0:0:0:
30,100,2520,6,0,L|12:31,1,55.0000020980836,6|0,0:0|0:0,0:0:0:0:
467,305,2854,5,2,0:0:0:0:
178,42,8187,6,0,P|174:69|211:128,1,82.5000031471254,8|0,0:1|0:0,0:0:0:0:
256,192,8520,1,8,0:1:0:0:
256,192,8687,1,0,0:0:0:0:
97,263,8854,6,0,P|124:267|183:230,1,82.5000031471254,8|0,0:1|0:0,0:0:0:0:
256,192,9187,1,8,0:1:0:0:
256,192,9354,1,0,0:0:0:0:
334,342,9520,6,0,P|338:315|301:256,1,82.5000031471254,8|0,0:1|0:0,0:0:0:0:
256,192,9853,1,8,0:1:0:0:
256,192,10020,1,0,0:0:0:0:
415,121,10187,6,0,P|388:117|329:154,1,82.5000031471254,8|0,0:1|0:0,0:0:0:0:
256,192,10520,1,8,0:1:0:0:
256,192,10687,1,0,0:0:0:0:
172,244,10854,6,0,P|137:265|97:263,1,82.5000031471254,8|0,0:1|0:0,0:0:0:0:
21,198,11187,1,8,0:1:0:0:
53,104,11354,1,0,0:0:0:0:
339,139,11520,6,0,P|374:118|419:120,1,82.5000031471254,8|0,0:1|0:0,0:0:0:0:
491,186,11854,1,8,0:1:0:0:
459,280,12021,1,0,0:0:0:0:
362,297,12187,6,0,L|400:181,1,82.5000031471254,8|0,0:1|0:0,0:0:0:0:
289,230,12520,1,8,0:1:0:0:
257,324,12687,1,0,0:0:0:0:
152,297,12854,6,0,L|114:181,1,82.5000031471254,8|0,0:1|0:0,0:0:0:0:
225,230,13187,1,8,0:1:0:0:
257,324,13354,1,0,0:0:0:0:
81,103,13520,5,10,3:1:0:0:
87,96,13604,1,0,0:0:0:0:
91,89,13687,2,0,L|154:72,1,55,2|0,2:0|0:0,0:0:0:0:
218,121,13854,2,0,L|271:135,1,55,10|0,3:1|0:0,0:0:0:0:
334,44,14020,1,2,0:0:0:0:
340,51,14104,1,2,0:0:0:0:
348,60,14187,6,0,L|352:128,1,55,10|0,3:1|0:0,0:0:0:0:
358,192,14354,2,0,L|361:246,1,55,2|0,0:0|0:0,0:0:0:0:
381,326,14520,2,0,B|284:329|325:274|224:278,1,165,8|0,3:1|0:0,0:0:0:0:
157,335,14854,5,10,3:1:0:0:
149,314,14937,1,2,0:0:0:0:
148,292,15020,2,0,P|157:240|188:207,1,55,2|0,0:0|0:0,0:0:0:0:
94,174,15187,1,10,3:1:0:0:
102,153,15270,1,2,0:0:0:0:
103,131,15353,2,0,P|94:79|63:46,1,55,2|0,0:0|0:0,0:0:0:0:
214,36,15520,6,0,P|234:29|323:38,2,73.3333333333333,10|2|2,3:1|0:0|0:0,0:0:0:0:
358,50,15854,2,0,B|337:45|320:26|320:26|322:152,1,165,8|0,3:1|0:0,0:0:0:0:
318,225,16187,5,10,3:1:0:0:
318,225,16354,1,2,0:0:0:0:
434,300,16520,2,0,L|360:292,1,55,10|0,3:1|0:0,0:0:0:0:
241,308,16687,2,0,L|315:316,1,55,2|0,0:0|0:0,0:0:0:0:
434,300,16854,5,10,3:1:0:0:
428,273,16937,1,2,0:0:0:0:
422,246,17020,1,2,0:0:0:0:
434,221,17103,1,0,0:0:0:0:
447,197,17187,2,0,P|423:170|475:190,1,165,10|0,3:1|0:0,0:0:0:0:
353,291,17520,5,10,3:1:0:0:
342,287,17604,1,0,0:0:0:0:
331,287,17687,2,0,B|301:289|301:289|273:281,1,55,2|0,0:0|0:0,0:0:0:0:
283,190,17854,5,8,3:1:0:0:
272,195,17938,1,0,0:0:0:0:
261,195,18021,2,0,B|231:193|231:193|203:201,1,55,2|0,0:0|0:0,0:0:0:0:
134,251,18187,5,8,3:1:0:0:
151,272,18270,1,2,0:0:0:0:
168,293,18353,1,2,0:0:0:0:
164,320,18436,1,0,0:0:0:0:
157,347,18520,6,0,B|65:364|107:311|-8:318,1,165,8|0,3:1|0:0,0:0:0:0:
21,157,18854,6,0,L|30:63,1,63.250001206398,10|0,0:1|0:0,0:0:0:0:
131,24,19020,2,0,L|139:115,1,63.250001206398,10|0,0:0|0:0,0:0:0:0:
231,156,19187,6,0,L|242:63,1,63.250001206398,10|0,0:1|0:0,0:0:0:0:
320,0,19354,1,10,0:0:0:0:
333,9,19437,1,0,0:0:0:0:
341,23,19520,6,0,L|350:111,1,63.250001206398,10|0,0:1|0:0,0:0:0:0:
415,211,19687,2,0,L|426:118,1,63.250001206398,10|0,0:0|0:0,0:0:0:0:
299,287,19854,6,0,B|313:376,1,63.250001206398,10|0,0:1|0:0,0:0:0:0:
231,156,20020,1,8,0:0:0:0:
84,384,20187,5,10,0:1:0:0:
70,371,20270,1,0,0:0:0:0:
54,359,20354,2,0,P|47:320|53:293,1,63.250001206398,10|0,0:0|0:0,0:0:0:0:
101,151,20520,5,10,0:1:0:0:
115,164,20603,1,0,0:0:0:0:
131,176,20687,2,0,P|138:215|132:242,1,63.250001206398,10|0,0:0|0:0,0:0:0:0:
207,347,20854,6,0,P|232:337|328:343,2,84.3333349418641,10|0|0,0:1|0:0|0:0,0:0:0:0:
366,365,21187,6,0,P|371:310|348:269,1,63.250001206398,10|0,0:1|0:0,0:0:0:0:
446,161,21354,2,0,P|441:216|464:257,1,63.250001206398,10|0,0:0|0:0,0:0:0:0:
364,82,21520,5,8,0:1:0:0:
331,48,21603,1,10,1:0:0:0:
285,41,21686,1,10,1:0:0:0:
244,63,21769,1,10,1:0:0:0:
204,130,21854,5,8,1:0:0:0:
207,176,21937,1,10,1:0:0:0:
211,223,22020,1,10,1:0:0:0:
215,270,22103,1,10,1:0:0:0:
203,359,22187,5,8,1:0:0:0:
162,381,22270,1,10,1:0:0:0:
116,374,22353,1,10,1:0:0:0:
83,341,22436,1,10,1:0:0:0:
41,247,22520,5,8,1:0:0:0:
56,202,22603,1,10,1:0:0:0:
72,157,22686,1,10,1:0:0:0:
88,112,22769,1,10,1:0:0:0:
146,27,22854,6,0,B|104:27|104:27|72:-1,2,84.3333349418641,8|2|2,0:0|0:0|0:0,0:0:0:0:
298,56,23187,2,0,B|337:44|337:44|390:62,2,84.3333349418641,10|2|2,0:0|0:0|0:0,0:0:0:0:
243,162,23520,5,8,0:0:0:0:
339,129,23632,1,2,0:0:0:0:
431,169,23743,1,2,0:0:0:0:
392,261,23854,6,0,P|313:310|253:209,1,189.750003619194,8|0,0:3|0:0,0:0:0:0:
234,250,24187,6,0,P|284:318|407:263,1,214.49999018097,8|0,3:1|0:0,0:0:0:0:
247,166,24520,2,0,B|149:164|199:214|96:214,1,142.99999345398,8|2,3:1|0:0,0:0:0:0:
24,33,24854,2,0,P|92:74|111:109,1,71.4999967269899,8|0,3:1|0:0,0:0:0:0:
265,35,25020,1,0,0:0:0:0:
262,17,25104,2,0,P|192:55|152:54,1,71.4999967269899,2|8,0:0|3:1,0:0:0:0:
260,215,25270,1,0,0:0:0:0:
249,236,25354,2,0,P|250:155|270:121,1,71.4999967269899,2|0,0:0|0:0,0:0:0:0:
408,67,25520,6,0,P|401:95|400:171,1,71.4999967269899,8|0,3:1|0:0,0:0:0:0:
464,281,25687,2,0,P|457:253|456:177,1,71.4999967269899,2|0,0:0|0:0,0:0:0:0:
459,296,25854,2,0,P|448:264|451:168,1,98.9999969787599,8|0,3:1|0:0,0:0:0:0:
472,0,26020,1,2,0:0:0:0:
472,0,26104,1,0,0:0:0:0:
472,0,26187,6,0,B|335:-49|390:43|244:13,1,214.49999018097,8|0,3:1|0:0,0:0:0:0:
188,5,26520,6,0,L|183:92,1,71.4999967269899,8|2,3:1|0:0,0:0:0:0:
111,124,26687,2,0,L|106:52,1,71.4999967269899,2|2,0:0|0:0,0:0:0:0:
92,222,26854,6,0,B|157:228|188:178|188:178|230:222|303:205,1,214.49999018097,8|0,3:1|0:0,0:0:0:0:
266,16,27187,2,0,B|268:54|303:82|303:82|257:112|250:142,1,142.99999345398,8|2,3:1|0:0,0:0:0:0:
356,338,27520,2,0,B|357:301|329:276|329:276|367:250|365:200,1,142.99999345398,8|0,3:1|0:0,0:0:0:0:
390,50,27770,1,2,0:0:0:0:
394,128,27854,2,0,L|376:41,1,71.4999967269899,8|0,3:1|0:0,0:0:0:0:
256,126,28020,2,0,L|270:196,1,71.4999967269899,2|0,0:0|0:0,0:0:0:0:
433,275,28187,6,0,L|447:205,1,71.4999967269899,8|0,3:1|0:0,0:0:0:0:
452,188,28354,2,0,L|474:300,1,88,2|0,0:0|0:0,0:0:0:0:
228,353,28520,2,0,L|207:242,1,104.499997209549,8|0,3:1|0:0,0:0:0:0:
201,233,28687,2,0,L|171:356,1,121.000003692627,2|0,0:0|0:0,0:0:0:0:
86,99,28854,1,8,3:1:0:0:
79,352,29020,1,2,0:0:0:0:
79,352,29104,1,2,0:0:0:0:
79,352,29187,2,0,L|60:266,1,55,8|0,3:1|0:0,0:0:0:0:
39,225,29354,2,0,L|58:139,1,55,8|0,0:0|0:0,0:0:0:0:
68,5,29520,6,0,B|218:18|118:81|295:98,1,214.49999018097,8|0,3:1|0:0,0:0:0:0:
116,220,29854,2,0,P|123:135|64:91,1,142.99999345398,8|2,3:1|0:0,0:0:0:0:
342,64,30187,2,0,P|347:96|324:151,1,71.4999967269899,8|0,3:1|0:0,0:0:0:0:
357,312,30354,1,0,0:0:0:0:
360,332,30437,2,0,P|329:320|293:272,1,71.4999967269899,2|8,0:0|3:1,0:0:0:0:
136,221,30604,1,0,0:0:0:0:
116,220,30687,2,0,P|141:199|200:192,1,71.4999967269899,2|0,0:0|0:0,0:0:0:0:
405,146,30854,6,0,P|366:132|295:151,1,71.4999967269899,8|0,3:1|0:0,0:0:0:0:
150,295,31020,2,0,P|185:294|218:281,1,71.4999967269899,2|0,0:0|0:0,0:0:0:0:
142,305,31187,2,0,P|181:305|239:281,1,98.9999969787599,8|0,3:1|0:0,0:0:0:0:
46,113,31354,2,0,L|35:214,1,71.4999967269899,2|0,0:0|0:0,0:0:0:0:
13,323,31520,2,0,L|38:103,1,214.49999018097,8|0,3:1|0:0,0:0:0:0:
49,24,31854,5,8,3:1:0:0:
84,27,31937,1,2,0:0:0:0:
120,30,32020,1,2,0:0:0:0:
155,33,32103,1,2,0:0:0:0:
191,39,32187,6,0,B|240:31|255:2|255:2|252:57|252:57|254:59|254:59|245:156,1,214.49999018097,8|0,3:1|0:0,0:0:0:0:
230,287,32520,2,0,L|237:215,1,71.4999967269899,8|0,3:1|0:0,0:0:0:0:
330,64,32687,2,0,L|322:135,1,71.4999967269899,2|0,0:0|0:0,0:0:0:0:
447,228,32854,1,8,3:1:0:0:
306,321,33020,1,2,0:0:0:0:
294,343,33104,1,2,0:0:0:0:
271,352,33187,2,0,P|238:363|183:348,1,71.4999967269899,8|0,3:1|0:0,0:0:0:0:
81,307,33354,2,0,P|114:296|169:311,1,71.4999967269899,2|0,0:0|0:0,0:0:0:0:
8,341,33520,6,0,P|-1:308|26:244,1,71.4999967269899,8|0,3:1|0:0,0:0:0:0:
67,159,33687,2,0,P|76:192|49:256,1,71.4999967269899,2|0,0:0|0:0,0:0:0:0:
133,78,33854,2,0,L|206:80,1,71.4999967269899,8|0,3:1|0:0,0:0:0:0:
314,161,34020,2,0,L|241:163,1,71.4999967269899,2|0,0:0|0:0,0:0:0:0:
448,98,34188,1,8,3:1:0:0:
440,145,34271,1,2,0:0:0:0:
433,192,34354,1,10,0:0:0:0:
426,239,34438,1,2,0:0:0:0:
419,282,34520,6,0,L|466:287,1,44,8|2,3:1|3:1,0:0:0:0:
462,286,35187,6,0,L|394:279,1,44,8|0,3:1|0:0,0:0:0:0:
297,267,35354,2,0,L|340:271,1,44,10|0,0:0|0:0,0:0:0:0:
220,296,35520,6,0,B|208:268|221:234|221:234|223:224|223:224|227:227|227:227|231:220|231:220|254:187|242:141,1,142.99999345398,8|0,3:1|0:0,0:0:0:0:
122,50,35770,2,0,P|197:38|229:106,1,142.99999345398,2|0,0:0|0:0,0:0:0:0:
27,150,36020,2,0,P|21:119|54:53,1,71.4999967269899,2|0,0:0|0:0,0:0:0:0:
115,191,36187,2,0,P|121:222|88:288,1,71.4999967269899,8|0,3:1|0:0,0:0:0:0:
37,347,36354,2,0,L|130:341,1,71.4999967269899,2|0,0:0|0:0,0:0:0:0:
17,355,36520,2,0,L|134:347,1,98.9999969787599,8|0,3:1|0:0,0:0:0:0:
280,251,36687,2,0,L|204:256,1,71.4999967269899,2|0,0:0|0:0,0:0:0:0:
332,382,36854,2,0,L|310:162,1,214.49999018097,8|0,3:1|0:0,0:0:0:0:
414,381,37187,2,0,L|407:310,1,71.4999967269899,8|2,3:1|0:0,0:0:0:0:
392,157,37354,2,0,L|399:229,1,71.4999967269899,10|2,0:0|0:0,0:0:0:0:
479,125,37520,6,0,B|343:122|419:61|259:80,1,214.49999018097,8|0,3:1|0:0,0:0:0:0:
463,43,37854,2,0,P|432:36|471:37,1,142.99999345398,8|2,3:1|0:0,0:0:0:0:
323,161,38187,2,0,P|278:167|211:156,1,71.4999967269899,8|0,3:1|0:0,0:0:0:0:
97,204,38437,1,10,0:0:0:0:
86,126,38520,2,0,P|113:161|137:225,1,71.4999967269899,8|0,3:1|0:0,0:0:0:0:
227,39,38687,2,0,P|197:73|175:138,1,71.4999967269899,10|0,0:0|0:0,0:0:0:0:
167,324,38854,2,0,L|93:329,1,71.4999967269899,8|0,3:1|0:0,0:0:0:0:
246,305,39020,2,0,L|172:299,1,71.4999967269899,10|0,0:0|0:0,0:0:0:0:
424,363,39187,2,0,L|497:368,1,71.4999967269899,8|0,3:1|0:0,0:0:0:0:
345,344,39353,2,0,L|418:338,1,71.4999967269899,10|0,0:0|0:0,0:0:0:0:
474,239,39520,2,0,L|402:233,1,71.4999967269899,8|0,3:1|0:0,0:0:0:0:
330,228,39687,1,10,0:0:0:0:
402,233,39770,1,10,0:0:0:0:
474,239,39854,6,0,L|313:227,1,144.375001376867,2|0,3:1|0:0,0:0:0:0:
512,167,40187,6,0,L|264:149,1,214.49999018097,8|0,3:1|0:0,0:0:0:0:
512,94,40520,2,0,L|305:79,1,142.99999345398,8|2,3:1|0:0,0:0:0:0:
196,116,40854,2,0,B|203:93|236:98|236:98|197:144|241:229,1,142.99999345398,8|0,3:1|0:0,0:0:0:0:
441,161,41104,2,0,L|298:151,1,142.99999345398,2|0,0:0|0:0,0:0:0:0:
296,257,41354,2,0,L|428:249,1,71.4999967269899,2|0,0:0|0:0,0:0:0:0:
369,353,41520,2,0,L|282:348,1,71.4999967269899,8|0,3:1|0:0,0:0:0:0:
97,300,41687,2,0,P|119:291|174:298,1,71.4999967269899,2|0,0:0|0:0,0:0:0:0:
85,295,41854,2,0,P|130:279|202:302,1,98.9999969787599,8|0,3:1|0:0,0:0:0:0:
229,138,42020,2,0,L|220:238,1,71.4999967269899,2|0,0:0|0:0,0:0:0:0:
182,59,42187,2,0,P|231:46|314:96,1,142.99999345398,8|0,3:1|0:0,0:0:0:0:
116,102,42437,1,8,0:0:0:0:
116,102,42520,6,0,P|100:67|117:11,1,71.4999967269899,8|0,3:1|0:0,0:0:0:0:
136,237,42687,2,0,P|152:202|135:146,1,71.4999967269899,10|0,0:0|0:0,0:0:0:0:
308,87,42854,1,8,3:1:0:0:
393,172,43020,1,10,0:0:0:0:
307,258,43187,1,10,0:0:0:0:
222,172,43354,1,10,0:0:0:0:
488,86,43520,6,0,L|493:186,1,71.4999967269899,10|0,0:0|0:0,0:0:0:0:
498,121,43604,2,0,L|494:221,1,71.4999967269899,10|0,0:0|0:0,0:0:0:0:
507,158,43687,2,0,L|494:257,1,71.4999967269899,10|0,0:0|0:0,0:0:0:0:
511,194,43771,2,0,L|489:291,1,71.4999967269899,10|0,0:0|0:0,0:0:0:0:
495,344,43854,6,0,P|454:356|418:322,1,71.4999967269899,10|0,0:0|0:0,0:0:0:0:
441,377,43937,2,0,P|403:356|402:306,1,71.4999967269899,10|0,0:0|0:0,0:0:0:0:
386,365,44020,2,0,P|374:324|408:288,1,71.4999967269899,10|0,0:0|0:0,0:0:0:0:
353,311,44103,2,0,P|373:273|423:272,1,71.4999967269899,10|0,0:0|0:0,0:0:0:0:
271,248,44187,6,0,L|164:222,2,95.3333289693199,10|2|2,0:0|0:0|0:0,0:0:0:0:
164,319,44520,2,0,L|57:345,2,95.3333289693199,2|2|2,0:0|0:0|0:0,0:0:0:0:
77,248,44854,1,8,0:0:0:0:
61,223,44965,1,2,0:0:0:0:
45,198,45076,1,2,0:0:0:0:
102,135,45187,6,0,B|105:78|61:42|61:42|14:54|11:105|11:105|56:91|75:105,1,220,10|4,0:0|0:0,0:0:0:0:
432,97,50854,6,0,L|445:204,1,98.9999969787599,8|0,0:1|0:0,0:1:0:0:
349,226,51187,1,8,0:1:0:0:
337,127,51353,1,0,0:0:0:0:
425,106,51520,6,0,L|438:213,1,98.9999969787599,8|0,0:1|0:0,0:1:0:0:
342,235,51853,1,8,0:1:0:0:
330,136,52019,1,0,0:0:0:0:
417,113,52187,6,0,L|430:220,1,98.9999969787599,8|0,0:1|0:0,0:1:0:0:
322,143,52520,1,8,0:1:0:0:
334,242,52686,1,0,0:0:0:0:
410,122,52853,6,0,L|423:229,1,98.9999969787599,8|0,0:1|0:0,0:1:0:0:
315,152,53186,1,8,0:1:0:0:
327,251,53354,1,0,0:0:0:0:
234,297,53520,6,0,B|184:311|184:311|100:291,1,98.9999969787599,8|0,0:1|0:0,0:0:0:0:
79,219,53854,1,8,0:1:0:0:
79,219,54020,2,0,B|124:208|124:208|174:222,1,98.9999969787599,0|8,0:0|0:1,0:0:0:0:
28,278,54354,1,0,0:0:0:0:
28,278,54520,2,0,P|1:220|42:155,1,98.9999969787599,8|0,0:1|0:0,0:0:0:0:
22,89,54854,6,0,B|72:73|72:73|135:89,1,98.9999969787599,8|0,0:1|0:0,0:0:0:0:
206,128,55187,1,8,0:1:0:0:
206,128,55354,2,0,B|256:144|256:144|319:128,1,98.9999969787599,0|8,0:0|0:1,0:0:0:0:
385,80,55687,1,0,0:0:0:0:
385,80,55854,2,0,P|403:141|379:194,1,98.9999969787599,8|0,0:1|0:0,0:0:0:0:
422,319,56187,6,0,P|367:306|303:319,2,98.9999969787599,8|2|8,0:1|0:2|0:1,0:0:0:0:
252,318,56687,1,2,0:2:0:0:
252,318,56854,2,0,P|290:276|311:214,1,98.9999969787599,8|2,0:1|0:2,0:0:0:0:
153,144,57187,2,0,P|173:188|208:223,1,98.9999969787599,8|2,0:1|0:2,0:0:0:0:
354,138,57520,2,0,P|304:133|257:146,1,98.9999969787599,8|2,0:1|0:2,0:0:0:0:
407,204,57854,1,8,0:1:0:0:
473,60,58020,1,2,0:2:0:0:
253,48,58187,2,0,P|248:105|260:154,1,98.9999969787599,8|2,0:1|0:2,0:0:0:0:
276,289,58520,2,0,P|281:232|256:144,1,148.49999546814,8|0,0:1|0:0,0:0:0:0:
183,126,58854,5,8,0:1:0:0:
183,126,59020,2,0,P|145:146|114:218,1,98.9999969787599,2|8,0:2|0:1,0:0:0:0:
70,335,59354,1,2,0:2:0:0:
70,335,59520,2,0,B|118:319|118:319|185:328,1,98.9999969787599,8|2,0:1|0:2,0:0:0:0:
346,325,59854,2,0,B|394:319|394:319|442:335,1,98.9999969787599,8|2,0:1|0:2,0:0:0:0:
186,234,60187,2,0,B|157:286|157:286|170:345,1,98.9999969787599,8|2,0:1|0:2,0:0:0:0:
256,364,60520,1,8,0:1:0:0:
325,234,60687,2,0,B|354:286|354:286|341:345,1,98.9999969787599,2|8,0:2|0:1,0:0:0:0:
256,208,61020,1,2,0:2:0:0:
196,144,61187,2,0,B|231:144|256:184|256:184|286:134|342:141,1,148.49999546814,8|0,0:1|0:0,0:0:0:0:
305,67,61520,6,0,B|256:52|256:52|202:69,1,98.9999969787599,8|2,0:1|0:2,0:0:0:0:
121,160,61854,1,8,0:1:0:0:
210,66,62020,1,2,0:2:0:0:
121,160,62188,2,0,B|75:174|75:174|26:159,1,98.9999969787599,8|2,0:1|0:2,0:0:0:0:
195,143,62520,2,0,P|192:192|161:229,1,98.9999969787599,8|2,0:1|0:2,0:0:0:0:
120,302,62854,6,0,B|169:281|169:281|238:302,1,98.9999969787599,8|2,0:1|0:2,0:0:0:0:
369,321,63187,1,8,0:1:0:0:
458,223,63354,1,2,0:2:0:0:
276,328,63521,2,0,B|320:342|320:342|369:321,1,98.9999969787599,8|2,0:1|0:2,0:0:0:0:
373,207,63854,2,0,B|379:259|379:259|428:302|428:302|482:304,1,148.49999546814,8|0,0:1|0:0,0:0:0:0:
458,303,64187,5,8,0:1:0:0:
458,303,64354,2,0,P|477:241|457:223,1,98.9999969787599,2|8,0:2|0:1,0:0:0:0:
432,68,64687,1,2,0:2:0:0:
432,68,64854,2,0,P|406:107|431:147,1,98.9999969787599,8|2,0:1|0:2,0:0:0:0:
488,6,65187,2,0,P|435:-13|366:22,1,98.9999969787599,8|2,0:1|0:2,0:0:0:0:
255,73,65520,2,0,P|302:82|348:63,1,98.9999969787599,8|2,0:1|0:2,0:0:0:0:
184,18,65854,2,0,P|164:66|176:120,1,98.9999969787599,8|2,0:1|0:2,0:0:0:0:
251,166,66187,1,8,0:1:0:0:
242,161,66354,1,2,0:2:0:0:
234,167,66520,1,8,0:1:0:0:
234,176,66687,1,0,0:0:0:0:
243,181,66854,5,10,1:0:0:0:
253,184,66938,1,2,0:0:0:0:
262,189,67021,2,0,L|199:206,1,55,2|0,2:0|0:0,0:0:0:0:
160,268,67187,2,0,L|107:254,1,55,10|0,1:0|0:0,0:0:0:0:
245,343,67353,1,2,2:0:0:0:
255,340,67437,1,2,0:0:0:0:
264,336,67521,6,0,L|260:268,1,55,10|0,1:0|0:0,0:0:0:0:
364,187,67688,2,0,L|361:241,1,55,2|0,2:0|0:0,0:0:0:0:
495,280,67854,2,0,B|399:277|440:332|343:329,1,165,10|0,1:0|0:0,0:0:0:0:
260,281,68187,6,0,L|264:336,2,55,10|2|2,1:0|0:0|2:0,0:0:0:0:
360,241,68520,2,0,L|363:186,2,55,10|2|2,1:0|0:0|2:0,0:0:0:0:
276,115,68854,5,10,1:0:0:0:
196,102,68965,1,2,0:0:0:0:
116,92,69076,1,2,0:0:0:0:
271,94,69187,6,0,B|260:133|260:133|268:170|268:170|277:177|277:177|285:221|285:221|273:263,1,165,10|0,1:0|0:0,0:0:0:0:
260,281,69520,5,8,1:0:0:0:
353,131,69687,1,2,2:0:0:0:
364,297,69854,2,0,L|358:226,1,55,10|0,1:0|0:0,0:0:0:0:
244,116,70020,2,0,L|251:187,1,55,2|0,2:0|0:0,0:0:0:0:
150,291,70187,5,10,1:0:0:0:
177,288,70270,1,2,0:0:0:0:
204,285,70353,1,2,2:0:0:0:
232,283,70436,1,0,0:0:0:0:
259,280,70520,2,0,L|244:112,1,165,10|0,1:0|0:0,0:0:0:0:
237,39,70854,5,8,1:0:0:0:
240,77,70937,1,0,0:0:0:0:
244,116,71020,2,0,L|242:92,1,16.49999949646,2|0,2:0|0:0,0:0:0:0:
343,163,71187,5,10,1:0:0:0:
346,125,71270,1,0,0:0:0:0:
350,86,71353,2,0,L|348:110,1,16.49999949646,2|0,2:0|0:0,0:0:0:0:
454,39,71520,5,10,1:0:0:0:
458,77,71603,1,2,0:0:0:0:
462,115,71686,1,2,2:0:0:0:
466,153,71769,1,0,0:0:0:0:
449,188,71854,2,0,L|433:18,1,165,10|0,1:0|0:0,0:0:0:0:
416,15,72187,6,0,L|425:99,1,55,14|0,1:0|0:0,0:0:0:0:
368,134,72354,2,0,L|359:218,1,55,2|0,0:0|0:0,0:0:0:0:
353,195,72520,6,0,L|362:111,1,55,10|0,1:0|0:0,0:0:0:0:
291,50,72687,1,2,0:0:0:0:
275,54,72770,1,0,0:0:0:0:
287,64,72854,2,0,L|201:58,1,55,10|0,1:0|0:0,0:0:0:0:
93,25,73020,6,0,L|107:125,1,55,2|0,0:0|0:0,0:0:0:0:
114,155,73187,2,0,L|128:255,1,55,10|0,1:0|0:0,0:0:0:0:
140,284,73354,1,0,0:0:0:0:
296,250,73521,5,12,1:0:0:0:
311,255,73604,1,0,0:0:0:0:
297,264,73688,2,0,P|304:303|298:330,1,55,2|0,0:0|0:0,0:0:0:0:
449,241,73854,1,10,1:0:0:0:
459,228,73937,1,0,0:0:0:0:
442,226,74021,2,0,P|435:187|439:166,1,55,2|0,0:0|0:0,0:0:0:0:
501,317,74188,6,0,P|485:326|405:320,2,73.3333333333333,8|0|0,1:0|0:0|0:0,0:0:0:0:
329,176,74520,1,10,1:0:0:0:
329,176,74687,1,0,0:0:0:0:
96,338,74854,5,10,1:0:0:0:
148,328,74937,1,8,1:0:0:0:
178,283,75020,1,10,1:0:0:0:
169,231,75103,1,8,1:0:0:0:
125,200,75187,1,10,1:0:0:0:
91,157,75270,1,10,1:0:0:0:
87,103,75353,1,10,1:0:0:0:
116,57,75436,1,8,1:0:0:0:
166,36,75520,1,10,1:0:0:0:
218,48,75603,1,10,1:0:0:0:
255,88,75686,1,10,1:0:0:0:
261,142,75770,1,8,1:0:0:0:
235,189,75854,5,10,1:0:0:0:
283,155,75937,1,10,1:0:0:0:
339,173,76020,1,10,1:0:0:0:
358,228,76103,1,10,1:0:0:0:
325,276,76187,6,0,B|431:275|383:316|448:309,2,73.3333333333333,8|2|2,1:0|0:0|0:0,0:0:0:0:
218,314,76520,2,0,B|112:312|160:353|95:346,2,73.3333333333333,8|2|2,1:0|0:0|0:0,0:0:0:0:
328,356,76854,5,8,1:0:0:0:
325,276,76965,1,2,0:0:0:0:
321,195,77076,1,2,0:0:0:0:
393,233,77187,6,0,P|318:274|243:208,1,165,8|0,0:3|0:0,0:0:0:0:
207,149,77520,6,0,P|200:101|178:62,1,71.4999967269899,8|0,3:2|0:0,0:0:0:0:
335,23,77687,2,0,P|296:53|274:91,1,71.4999967269899,2|0,3:2|0:0,0:0:0:0:
125,136,77854,2,0,P|149:187|192:117,1,142.99999345398,8|2,3:2|3:2,0:0:0:0:
283,71,78104,1,0,0:0:0:0:
292,81,78187,6,0,P|312:126|321:185,1,96.2500009179115,8|0,3:2|0:0,0:0:0:0:
400,170,78354,2,0,P|382:215|346:264,1,96.2500009179115,2|2,3:2|0:0,0:0:0:0:
229,310,78520,6,0,L|106:279,1,96.2500009179115,8|0,3:2|0:0,0:0:0:0:
292,380,78687,2,0,L|415:349,1,96.2500009179115,2|0,3:2|0:0,0:0:0:0:
108,206,78854,6,0,P|69:234|83:346,1,142.99999345398,8|2,3:2|3:2,0:0:0:0:
73,333,79104,1,2,0:0:0:0:
192,219,79187,2,0,P|187:171|83:127,1,142.99999345398,8|2,3:2|3:2,0:0:0:0:
99,124,79437,1,0,0:0:0:0:
217,56,79520,6,0,L|308:49,1,71.4999967269899,8|0,3:2|0:0,0:0:0:0:
411,80,79687,1,2,3:2:0:0:
430,60,79770,1,2,0:0:0:0:
487,122,79854,2,0,B|464:119|444:105|444:105|423:170|459:228|459:228|450:198|457:170,1,214.49999018097,8|0,3:2|0:0,0:0:0:0:
499,302,80187,6,0,P|430:308|379:255,1,142.99999345398,8|2,3:2|3:2,0:0:0:0:
287,259,80437,1,2,0:0:0:0:
281,269,80520,2,0,P|270:302|237:329,1,71.4999967269899,8|0,3:2|0:0,0:0:0:0:
173,275,80687,2,0,P|184:242|217:215,1,71.4999967269899,2|0,3:2|0:0,0:0:0:0:
123,123,80854,6,0,L|300:154,1,142.99999345398,8|2,3:2|3:2,0:0:0:0:
273,138,81104,1,2,0:0:0:0:
348,102,81187,2,0,P|358:152|345:194,1,71.4999967269899,8|0,3:2|0:0,0:0:0:0:
421,298,81354,2,0,P|417:262|427:228,1,71.4999967269899,2|0,3:2|0:0,0:0:0:0:
494,43,81520,6,0,B|452:45|425:72|425:72|409:32|356:12,1,142.99999345398,8|2,3:2|3:2,0:0:0:0:
295,31,81770,1,0,0:0:0:0:
208,37,81854,2,0,L|96:46,1,71.4999967269899,8|0,3:2|0:0,0:0:0:0:
133,176,82020,2,0,L|179:121,1,71.4999967269899,2|0,3:2|0:0,0:0:0:0:
258,148,82187,2,0,L|263:219,1,71.4999967269899,8|0,3:2|0:0,0:0:0:0:
350,240,82354,1,2,3:2:0:0:
359,252,82437,1,2,0:0:0:0:
384,156,82520,2,0,B|332:113|332:113|354:105|354:105|457:194,1,214.49999018097,8|0,3:2|0:0,0:0:0:0:
469,179,82854,6,0,P|440:265|435:342,1,142.99999345398,8|2,3:2|3:2,0:0:0:0:
363,365,83104,1,2,0:0:0:0:
282,337,83187,2,0,P|237:328|206:346,1,71.4999967269899,8|0,3:2|0:0,0:0:0:0:
70,376,83354,2,0,P|115:385|149:367,1,71.4999967269899,2|0,3:2|0:0,0:0:0:0:
110,154,83520,6,0,L|94:325,1,142.99999345398,8|2,3:2|3:2,0:0:0:0:
101,304,83770,1,2,0:0:0:0:
32,223,83854,2,0,P|64:224|201:242,1,142.99999345398,8|2,3:2|3:2,0:0:0:0:
182,230,84104,1,0,0:0:0:0:
306,107,84187,6,0,P|273:210|280:238,1,71.4999967269899,8|0,3:2|0:0,0:0:0:0:
358,226,84354,1,2,3:2:0:0:
365,215,84437,1,2,0:0:0:0:
407,291,84520,2,0,P|358:307|313:292,1,71.4999967269899,8|0,3:2|0:0,0:0:0:0:
453,146,84687,2,0,L|446:232,1,71.4999967269899,2|0,3:2|0:0,0:0:0:0:
388,99,84854,6,0,P|362:44|339:31,1,71.4999967269899,8|0,3:2|0:0,0:0:0:0:
216,35,85020,1,2,3:2:0:0:
225,29,85104,1,2,0:0:0:0:
138,61,85187,2,0,B|162:55|172:39|172:39|149:172|149:172|161:145|199:126,1,214.49999018097,8|0,3:2|0:0,0:0:0:0:
268,260,85520,6,0,B|236:250|223:203|223:203|204:242|149:255,1,142.99999345398,8|2,3:2|3:2,0:0:0:0:
111,307,85770,1,2,0:0:0:0:
26,288,85854,2,0,L|5:188,1,71.4999967269899,8|0,3:2|0:0,0:0:0:0:
138,61,86021,2,0,L|152:130,1,71.4999967269899,2|0,3:2|0:0,0:0:0:0:
94,219,86187,6,0,L|61:76,1,142.99999345398,8|2,3:2|3:2,0:0:0:0:
82,0,86437,1,2,0:0:0:0:
138,61,86520,2,0,P|194:45|214:58,1,71.4999967269899,8|0,3:2|0:0,0:0:0:0:
262,111,86687,2,0,P|296:116|326:98,1,71.4999967269899,2|0,3:2|0:0,0:0:0:0:
408,72,86854,6,0,P|362:126|363:197,1,142.99999345398,8|2,3:2|3:2,0:0:0:0:
373,203,87104,1,2,0:0:0:0:
455,187,87187,2,0,P|444:250|426:269,1,71.4999967269899,8|0,3:2|0:0,0:0:0:0:
361,287,87354,2,0,P|346:319|346:354,1,71.4999967269899,2|0,3:2|0:0,0:0:0:0:
207,265,87520,2,0,L|290:255,1,71.4999967269899,8|0,3:2|0:0,0:0:0:0:
144,329,87687,1,2,3:2:0:0:
83,351,87770,1,2,0:0:0:0:
32,309,87854,6,0,P|53:273|105:245,1,71.4999967269899,8|0,3:2|0:0,0:0:0:0:
130,141,88020,2,0,P|171:141|221:172,1,71.4999967269899,8|0,3:2|0:0,0:0:0:0:
322,73,88187,5,8,3:2:0:0:
339,279,88354,5,2,3:2:0:0:
339,279,88437,1,2,3:2:0:0:
339,279,88520,2,0,P|301:268|246:297,1,71.4999967269899,8|0,3:2|0:0,0:0:0:0:
144,329,88687,2,0,P|182:340|237:311,1,71.4999967269899,2|0,3:2|0:0,0:0:0:0:
250,188,88854,1,8,3:2:0:0:
221,165,88937,1,2,3:2:0:0:
186,157,89020,1,2,3:2:0:0:
151,160,89103,1,2,3:2:0:0:
118,173,89187,6,0,P|159:169|191:152,1,71.4999967269899,8|0,3:2|0:0,0:0:0:0:
284,111,89354,2,0,P|325:114|357:131,1,71.4999967269899,2|0,3:2|0:0,0:0:0:0:
78,102,89520,2,0,L|86:288,1,142.99999345398,8|2,3:2|3:2,0:0:0:0:
63,322,89770,1,0,0:0:0:0:
63,322,89854,1,8,3:2:0:0:
214,56,90020,5,8,3:2:0:0:
146,79,90103,1,8,3:2:0:0:
78,102,90186,1,8,3:2:0:0:
187,197,90354,5,8,3:2:0:0:
200,126,90437,1,8,3:2:0:0:
214,56,90520,1,8,3:2:0:0:
78,102,90687,6,0,L|132:154,1,71.4999967269899,2|0,3:2|0:0,0:0:0:0:
187,197,90854,6,0,L|214:51,1,142.99999345398,8|2,3:2|3:2,0:0:0:0:
304,107,91104,1,2,3:2:0:0:
294,72,91187,2,0,L|267:212,1,142.99999345398,8|2,3:2|3:2,0:0:0:0:
500,238,91520,1,8,3:2:0:0:
491,196,91603,1,2,3:2:0:0:
469,159,91686,1,2,3:2:0:0:
435,133,91769,1,2,3:2:0:0:
395,120,91853,1,8,3:2:0:0:
352,124,91936,1,2,3:2:0:0:
313,141,92019,1,2,3:2:0:0:
284,172,92103,1,2,3:2:0:0:
267,212,92187,6,0,B|369:218|305:252|449:259,1,142.99999345398,8|2,3:2|3:2,0:0:0:0:
279,299,92437,1,0,0:0:0:0:
279,299,92520,1,8,3:2:0:0:
244,309,92603,1,2,3:2:0:0:
280,309,92687,1,8,3:2:0:0:
245,299,92770,1,8,3:2:0:0:
165,275,92854,6,0,P|142:277|70:269,1,71.4999967269899,8|0,3:2|0:0,0:0:0:0:
374,295,93020,1,8,3:2:0:0:
355,264,93104,1,8,3:2:0:0:
339,232,93187,2,0,P|411:211|366:293,1,214.49999018097,8|0,3:2|0:0,0:0:0:0:
402,132,93520,6,0,P|305:160|272:208,1,142.99999345398,8|2,3:2|3:2,0:0:0:0:
255,257,93770,1,2,3:2:0:0:
255,257,93854,1,8,3:2:0:0:
109,117,94020,1,2,3:2:0:0:
298,76,94187,5,8,3:2:0:0:
333,73,94270,1,2,3:2:0:0:
369,70,94353,1,2,3:2:0:0:
386,98,94436,1,2,3:2:0:0:
401,131,94520,2,0,L|305:146,1,71.4999967269899,8|0,3:2|0:0,0:0:0:0:
97,190,94687,2,0,L|193:204,1,71.4999967269899,10|0,3:2|0:0,0:0:0:0:
348,225,94854,6,0,L|418:214,1,71.4999967269899,8|0,3:2|0:0,0:0:0:0:
180,128,95020,2,0,L|109:117,1,71.4999967269899,10|0,3:2|0:0,0:0:0:0:
256,40,95187,1,8,3:2:0:0:
248,72,95270,1,10,3:2:0:0:
256,176,95437,1,10,3:2:0:0:
264,208,95520,1,8,3:2:0:0:
256,312,95687,1,10,3:2:0:0:
248,336,95770,1,10,3:2:0:0:
264,360,95854,6,0,B|122:365|211:307|58:312,1,214.49999018097,8|0,3:2|0:0,0:0:0:0:
59,232,96187,5,8,3:2:0:0:
61,211,96270,1,2,3:2:0:0:
63,191,96353,1,2,3:2:0:0:
66,171,96436,1,2,3:2:0:0:
32,88,96520,5,10,3:2:0:0:
57,113,96603,1,2,3:2:0:0:
89,127,96686,5,8,3:2:0:0:
161,129,96770,1,8,3:2:0:0:
232,132,96854,2,0,L|86:127,1,142.99999345398,8|2,3:2|3:2,0:0:0:0:
314,84,97104,1,2,3:2:0:0:
314,84,97187,2,0,B|272:112|272:112|276:239,1,142.99999345398,10|8,3:2|3:2,0:0:0:0:
272,288,97437,1,8,3:2:0:0:
344,249,97520,6,0,L|474:251,1,71.4999967269899,8|0,3:2|0:0,0:0:0:0:
163,309,97687,2,0,L|32:311,1,71.4999967269899,10|0,3:2|0:0,0:0:0:0:
370,331,97854,6,0,L|441:332,1,71.4999967269899,8|0,3:2|0:0,0:0:0:0:
163,225,98021,1,10,3:2:0:0:
91,228,98104,1,8,3:2:0:0:
20,231,98187,1,8,3:2:0:0:
97,98,98354,1,10,3:2:0:0:
130,161,98437,1,8,3:2:0:0:
163,225,98520,1,8,3:2:0:0:
20,231,98687,1,10,3:2:0:0:
57,162,98770,1,0,0:0:0:0:
97,98,98853,5,0,3:2:0:0:
97,98,99187,2,0,P|130:89|189:123,1,71.4999967269899,8|0,3:2|0:0,0:0:0:0:
190,0,99354,2,0,P|219:16|237:82,1,71.4999967269899,8|0,3:2|0:0,0:0:0:0:
295,116,99520,6,0,P|216:129|156:86,1,142.99999345398,8|2,3:2|3:2,0:0:0:0:
372,62,99770,1,2,3:2:0:0:
372,62,99854,1,0,3:2:0:0:
376,234,100020,1,2,3:2:0:0:
512,66,100187,6,0,B|440:51|440:51|346:66,1,142.99999345398,8|2,3:2|3:2,0:0:0:0:
292,30,100437,1,2,3:2:0:0:
295,116,100520,1,8,3:2:0:0:
512,66,100687,1,2,3:2:0:0:
225,76,100854,1,8,3:2:0:0:
437,131,101020,1,2,3:2:0:0:
167,10,101187,1,8,3:2:0:0:
203,204,101354,1,2,3:2:0:0:
492,253,101520,5,8,3:2:0:0:
434,243,101603,1,2,3:2:0:0:
376,234,101686,1,2,3:2:0:0:
368,241,101854,1,8,3:2:0:0:
419,343,102020,5,2,3:2:0:0:
455,298,102103,1,2,3:2:0:0:
492,253,102186,1,8,3:2:0:0:
469,205,102270,1,2,3:2:0:0:
433,159,102353,1,2,3:2:0:0:
359,248,102520,1,8,3:2:0:0:
283,336,102687,5,2,3:2:0:0:
225,327,102770,1,2,3:2:0:0:
168,318,102853,1,8,3:2:0:0:
234,238,103020,5,2,3:2:0:0:
291,247,103103,1,2,3:2:0:0:
349,256,103186,1,8,3:2:0:0:
492,253,103354,5,2,3:2:0:0:
433,159,103520,1,8,3:2:0:0:
419,343,103687,1,2,3:2:0:0:
277,165,103854,6,0,B|276:103|208:105|165:148|187:208|249:249,1,214.49999018097,2|0,3:2|0:0,0:0:0:0:
233,237,104187,5,0,3:2:0:0:
233,237,104520,2,0,L|149:240,1,71.4999967269899,8|0,3:2|0:0,0:0:0:0:
351,298,104687,2,0,L|435:301,1,71.4999967269899,10|0,3:2|0:0,0:0:0:0:
32,218,104854,2,0,B|104:204|104:204|186:256,1,142.99999345398,8|10,3:2|3:2,0:0:0:0:
182,325,105104,1,10,3:2:0:0:
182,325,105187,1,2,3:2:0:0:
383,113,105520,6,0,B|416:74|416:74|297:71,1,142.99999345398,8|2,3:2|3:2,0:0:0:0:
237,69,105770,1,2,3:2:0:0:
237,69,105854,1,8,3:2:0:0:
484,113,106020,2,0,L|418:190,1,71.4999967269899,10|0,3:2|0:0,0:0:0:0:
295,262,106187,2,0,L|341:207,1,71.4999967269899,8|0,3:2|0:0,0:0:0:0:
419,248,106354,1,10,3:2:0:0:
419,248,106437,1,8,3:2:0:0:
419,248,106520,1,8,3:2:0:0:
442,357,106687,1,2,3:2:0:0:
201,319,106854,5,8,3:2:0:0:
163,298,106937,1,10,3:2:0:0:
125,319,107020,1,10,3:2:0:0:
86,298,107104,1,0,0:0:0:0:
49,320,107187,6,0,B|70:245|70:245|57:152,1,142.99999345398,8|10,3:2|3:2,0:0:0:0:
119,42,107437,1,8,0:0:0:0:
119,42,107520,1,8,3:2:0:0:
182,34,107603,1,10,3:2:0:0:
238,64,107686,1,10,3:2:0:0:
268,120,107769,1,10,3:2:0:0:
261,184,107853,1,8,3:2:0:0:
220,232,107936,1,10,3:2:0:0:
159,250,108019,1,10,3:2:0:0:
100,231,108103,1,10,3:2:0:0:
60,180,108187,6,0,P|103:155|173:145,2,95.3333289693199,8|2|2,3:2|0:0|0:0,0:0:0:0:
159,250,108520,2,0,P|202:275|272:285,2,95.3333289693199,8|2|2,3:2|0:0|0:0,0:0:0:0:
327,244,108854,5,8,3:2:0:0:
361,259,108965,1,2,0:0:0:0:
380,291,109076,1,2,0:0:0:0:
421,365,109187,6,0,B|417:260|392:204|392:204|456:180|498:235|454:292|454:292|508:309|527:362,1,395.999987915039,12|4,3:2|3:2,0:0:0:0:
