osu file format v14

[General]
AudioFilename: audio.mp3
AudioLeadIn: 0
PreviewTime: 76187
Countdown: 0
SampleSet: Soft
StackLeniency: 0.4
Mode: 0
LetterboxInBreaks: 0
WidescreenStoryboard: 0

[Editor]
DistanceSpacing: 0.9
BeatDivisor: 4
GridSize: 4
TimelineZoom: 2.899999

[Metadata]
Title:Ready For The Madness
TitleUnicode:Ready For The Madness
Artist:RiraN
ArtistUnicode:RiraN
Creator:Fall
Version:Cris' Normal
Source:osu!
Tags:instrumental lose control electronic hardstyle mappers' guild mg featured artist fa Daycore Gordon123 Left Cris- _tranquility english
BeatmapID:2123341
BeatmapSetID:999054

[Difficulty]
HPDrainRate:4
CircleSize:3.5
OverallDifficulty:4
ApproachRate:5.5
SliderMultiplier:1.1
SliderTickRate:1

[Events]
//Background and Video events
0,0,"65604193_p0_waifu2x_art_noise1_scale_tta_1.jpg",0,0
//Break Periods
2,3054,7062
2,45720,49729
//Storyboard Layer 0 (Background)
//Storyboard Layer 1 (Fail)
//Storyboard Layer 2 (Pass)
//Storyboard Layer 3 (Foreground)
//Storyboard Layer 4 (Overlay)
//Storyboard Sound Samples

[TimingPoints]
1521,333.333333333333,4,2,0,80,1,0
1854,-100,4,2,0,80,0,0
2187,-100,4,2,0,80,0,0
2854,-100,4,2,0,55,0,0
13520,-100,4,2,2,70,0,0
18854,-100,4,2,2,70,0,0
24187,-100,4,2,1,80,0,0
34520,-100,4,2,1,80,0,0
34854,-100,4,2,1,80,0,0
39854,-100,4,2,1,80,0,0
40187,-100,4,2,1,80,0,0
44187,-100,4,2,0,80,0,0
45187,-100,4,2,1,80,0,0
45520,-100,4,2,0,60,0,0
56187,-100,4,2,0,60,0,0
66854,-100,4,2,2,60,0,0
76187,-100,4,2,0,60,0,0
77520,-100,4,2,1,90,0,1
85520,-100,4,2,1,90,0,1
87854,-100,4,2,1,90,0,0
88187,-100,4,2,1,90,0,1
98854,-100,4,2,1,90,0,0
99187,-100,4,2,1,90,0,1
99854,-100,4,2,1,90,0,0
100187,-100,4,2,1,80,0,1
103854,-100,4,2,1,80,0,1
104187,-100,4,2,1,80,0,0
104520,-100,4,2,1,80,0,1
105187,-100,4,2,1,80,0,0
105520,-100,4,2,1,80,0,1
108187,-100,4,2,0,80,0,0
108520,-100,4,2,0,80,0,1
108854,-100,4,2,0,80,0,0
109187,-100,4,2,0,80,0,1
109520,-100,4,2,0,80,0,0

[Colours]
Combo1 : 197,219,196
Combo2 : 132,132,255
Combo3 : 203,222,254
Combo4 : 129,207,120

[HitObjects]
140,136,1521,6,0,L|132:191,1,55,8|2,0:1|0:0,0:0:0:0:
124,240,1854,1,8,0:1:0:0:
204,300,2187,2,0,P|256:316|307:300,1,110,8|6,0:1|0:0,0:0:0:0:
388,240,2854,1,2,0:0:0:0:
260,44,8187,6,0,L|152:28,1,110,8|8,0:1|0:1,0:0:0:0:
136,124,8854,2,0,L|244:140,1,110,8|8,0:1|0:1,0:0:0:0:
228,236,9520,1,8,0:1:0:0:
119,219,9854,1,8,0:1:0:0:
103,315,10187,2,0,L|211:331,1,110,8|8,0:1|0:1,0:0:0:0:
228,236,10854,6,0,L|120:220,1,110,8|8,0:1|0:1,0:0:0:0:
22,204,11520,1,8,0:1:0:0:
7,302,11854,1,8,0:1:0:0:
103,315,12187,2,0,L|211:331,2,110,8|8|8,0:1|0:1|0:1,0:0:0:0:
119,219,13187,1,8,0:1:0:0:
136,124,13520,6,0,L|244:140,1,110,10|10,3:1|3:1,0:0:0:0:
260,44,14187,2,0,L|179:32,2,82.5,10|0|0,3:1|0:0|0:0,0:0:0:0:
308,52,14854,6,0,L|416:68,1,110,10|10,3:1|3:1,0:0:0:0:
400,164,15520,1,10,3:1:0:0:
384,260,15854,1,8,3:1:0:0:
367,355,16187,6,0,L|259:339,1,110,10|10,3:1|3:1,0:0:0:0:
160,340,16854,2,0,L|79:352,2,82.5,10|0|0,3:1|0:0|0:0,0:0:0:0:
152,292,17520,1,10,3:1:0:0:
208,208,17854,2,0,L|263:200,1,55,8|2,3:1|0:0,0:0:0:0:
312,192,18187,1,8,3:1:0:0:
384,260,18520,1,8,3:1:0:0:
440,176,18854,6,0,L|432:121,1,55,10|10,0:1|0:0,0:0:0:0:
424,72,19187,1,10,0:1:0:0:
328,88,19520,2,0,L|316:7,2,82.5,10|0|8,0:1|0:0|0:0,0:0:0:0:
336,136,20187,2,0,L|228:152,1,110,10|10,0:1|0:1,0:0:0:0:
244,252,20854,2,0,L|325:240,2,82.5,10|0|10,0:1|0:0|0:0,0:0:0:0:
196,260,21520,5,8,0:1:0:0:
256,192,21687,12,10,22854,1:0:0:0:
176,288,23854,5,8,0:3:0:0:
124,208,24187,6,0,P|176:192|228:208,1,110,8|8,3:1|3:1,0:0:0:0:
288,288,24854,2,0,L|276:369,2,82.5,8|2|2,3:1|0:0|0:0,0:0:0:0:
296,240,25520,2,0,L|351:248,1,55,8|2,3:1|0:0,0:0:0:0:
400,256,25854,1,8,3:1:0:0:
496,240,26187,1,8,3:1:0:0:
480,144,26520,2,0,L|425:152,1,55,8|2,3:1|0:0,0:0:0:0:
376,160,26854,5,8,3:1:0:0:
304,92,27187,1,8,3:1:0:0:
232,160,27520,2,0,L|151:148,2,82.5,8|2|2,3:1|0:0|0:0,0:0:0:0:
280,168,28187,2,0,L|272:223,1,55,8|2,3:1|0:0,0:0:0:0:
264,272,28520,1,8,3:1:0:0:
248,368,28854,1,8,3:1:0:0:
344,384,29187,1,8,3:1:0:0:
360,288,29520,6,0,L|376:180,1,110,8|8,3:1|3:1,0:0:0:0:
392,80,30187,2,0,L|473:92,2,82.5,8|2|2,3:1|0:0|0:0,0:0:0:0:
344,72,30853,2,0,L|289:64,1,55,8|2,3:1|0:0,0:0:0:0:
240,56,31187,1,8,3:1:0:0:
224,152,31520,1,8,3:1:0:0:
128,136,31854,2,0,L|136:81,1,55,8|2,3:1|0:0,0:0:0:0:
144,24,32188,5,8,3:1:0:0:
48,8,32521,1,8,3:1:0:0:
32,104,32854,2,0,L|24:159,1,55,8|2,3:1|0:0,0:0:0:0:
16,208,33187,1,8,3:1:0:0:
0,304,33520,2,0,L|108:320,1,110,8|8,3:1|3:1,0:0:0:0:
208,336,34188,2,0,L|216:281,1,55,8|10,3:1|0:0,0:0:0:0:
224,232,34520,1,8,3:1:0:0:
240,132,34854,5,2,3:1:0:0:
340,148,35188,2,0,L|395:156,1,55,8|10,3:1|0:0,0:0:0:0:
444,164,35520,2,0,L|432:245,2,82.5,8|2|2,3:1|0:0|0:0,0:0:0:0:
452,116,36187,1,8,3:1:0:0:
468,20,36520,1,8,3:1:0:0:
368,4,36854,1,8,3:1:0:0:
352,100,37187,2,0,L|344:155,1,55,8|10,3:1|0:0,0:0:0:0:
336,204,37520,5,8,3:1:0:0:
260,268,37853,1,8,3:1:0:0:
200,188,38187,2,0,L|212:107,2,82.5,8|10|10,3:1|0:0|0:0,0:0:0:0:
192,236,38854,2,0,L|137:228,1,55,8|10,3:1|0:0,0:0:0:0:
88,220,39187,1,8,3:1:0:0:
72,316,39520,1,8,3:1:0:0:
172,332,39854,1,2,3:1:0:0:
192,236,40187,6,0,L|208:128,1,110,8|8,3:1|3:1,0:0:0:0:
304,144,40854,2,0,L|292:225,2,82.5,8|2|2,3:1|0:0|0:0,0:0:0:0:
312,96,41520,2,0,L|367:104,1,55,8|2,3:1|0:0,0:0:0:0:
416,112,41854,1,8,3:1:0:0:
512,128,42187,1,8,3:1:0:0:
496,224,42520,1,8,3:1:0:0:
396,208,42854,6,0,L|341:200,1,55,8|10,3:1|0:0,0:0:0:0:
292,192,43187,1,10,0:0:0:0:
212,252,43520,2,0,L|157:244,2,55,10|10|10,0:0|0:0|0:0,0:0:0:0:
276,328,44187,2,0,L|384:344,1,110,10|2,0:0|0:0,0:0:0:0:
484,360,44854,1,8,0:0:0:0:
500,264,45187,1,10,0:0:0:0:
404,248,45520,5,4,0:0:0:0:
324,272,50854,6,0,P|308:324|324:375,2,110,8|8|8,0:1|0:1|0:1,0:1:0:0:
384,192,51854,1,8,0:1:0:0:
444,272,52187,2,0,P|460:324|444:375,2,110,8|8|8,0:1|0:1|0:1,0:1:0:0:
384,192,53187,1,8,0:1:0:0:
444,112,53520,6,0,P|460:60|444:9,2,110,8|8|8,0:1|0:1|0:1,0:0:0:0:
384,192,54520,1,8,0:1:0:0:
324,112,54854,2,0,P|308:60|324:9,2,110,8|8|8,0:1|0:1|0:1,0:0:0:0:
384,192,55854,1,8,0:1:0:0:
324,272,56187,6,0,L|269:264,1,55,8|2,0:1|0:2,0:0:0:0:
220,256,56520,1,8,0:1:0:0:
124,284,56854,2,0,B|104:232|144:232|124:178,1,110,8|8,0:1|0:1,0:0:0:0:
72,92,57520,2,0,P|123:76|175:92,1,110,8|8,0:1|0:1,0:0:0:0:
216,120,58020,1,2,0:2:0:0:
260,92,58187,2,0,P|288:88|314:92,2,55,8|2|8,0:1|0:2|0:1,0:0:0:0:
260,192,58854,6,0,P|288:196|314:192,1,55,8|2,0:1|0:2,0:0:0:0:
360,172,59187,1,8,0:1:0:0:
456,148,59520,2,0,B|476:200|436:200|456:254,1,110,8|8,0:1|0:1,0:0:0:0:
508,340,60187,2,0,P|457:356|405:340,1,110,8|8,0:1|0:1,0:0:0:0:
359,318,60687,1,2,0:2:0:0:
317,345,60854,2,0,P|289:349|263:345,2,55,8|2|8,0:1|0:2|0:1,0:0:0:0:
316,248,61520,6,0,P|288:244|262:248,1,55,8|2,0:1|0:2,0:0:0:0:
216,268,61854,1,8,0:1:0:0:
128,220,62187,2,0,B|108:168|108:168|128:118,1,110,8|8,0:1|0:1,0:0:0:0:
164,24,62854,2,0,B|216:4|216:4|266:24,1,110,8|8,0:1|0:1,0:0:0:0:
308,48,63354,1,2,0:2:0:0:
352,68,63520,2,0,L|344:123,2,55,8|2|8,0:1|0:2|0:1,0:0:0:0:
452,84,64187,6,0,L|444:139,1,55,8|2,0:1|0:2,0:0:0:0:
436,188,64520,1,8,0:1:0:0:
420,284,64854,2,0,L|312:268,1,110,8|8,0:1|0:1,0:0:0:0:
260,264,65354,1,2,0:2:0:0:
216,268,65520,2,0,L|108:284,1,110,8|8,0:1|0:1,0:0:0:0:
124,380,66187,2,0,L|232:364,1,110,8|8,0:1|0:1,0:0:0:0:
216,268,66854,6,0,L|200:160,1,110,10|10,1:0|1:0,0:0:0:0:
184,64,67520,2,0,L|176:9,2,55,10|2|10,1:0|2:0|1:0,0:0:0:0:
284,48,68187,2,0,L|276:-7,2,55,10|2|10,1:0|2:0|1:0,0:0:0:0:
292,96,68687,1,2,2:0:0:0:
299,144,68853,2,0,L|307:199,2,55,10|0|10,1:0|0:0|1:0,0:0:0:0:
376,80,69520,6,0,L|484:64,1,110,8|10,1:0|1:0,0:0:0:0:
500,160,70187,2,0,L|508:215,2,55,10|2|10,1:0|2:0|1:0,0:0:0:0:
400,176,70854,2,0,L|408:231,2,55,8|2|10,1:0|2:0|1:0,0:0:0:0:
352,184,71354,1,2,2:0:0:0:
304,192,71520,2,0,L|312:247,2,55,10|2|10,1:0|2:0|1:0,0:0:0:0:
288,92,72187,6,0,L|180:108,1,110,14|10,1:0|1:0,0:0:0:0:
130,116,72687,1,2,0:0:0:0:
144,212,73020,1,2,0:0:0:0:
144,212,73187,2,0,L|199:204,1,55,10|0,1:0|0:0,0:0:0:0:
248,196,73520,2,0,L|356:180,1,110,12|10,1:0|1:0,0:0:0:0:
404,172,74020,1,2,0:0:0:0:
392,76,74354,1,2,0:0:0:0:
392,76,74521,2,0,L|337:84,1,55,10|0,1:0|0:0,0:0:0:0:
288,92,74854,5,10,1:0:0:0:
256,192,75020,12,8,76187,1:0:0:0:
360,160,77187,5,8,0:3:0:0:
388,256,77520,6,0,P|360:260|334:256,1,55,8|2,3:2|3:2,0:0:0:0:
284,244,77854,2,0,P|256:240|230:244,1,55,8|2,3:2|3:2,0:0:0:0:
180,256,78187,2,0,P|164:205|180:153,1,110,8|8,3:2|3:2,0:0:0:0:
232,68,78854,2,0,B|180:48|180:48|130:68,1,110,8|8,3:2|3:2,0:0:0:0:
84,84,79354,1,2,3:2:0:0:
36,100,79520,2,0,L|44:155,1,55,8|2,3:2|3:2,0:0:0:0:
52,204,79854,1,8,3:2:0:0:
68,300,80187,6,0,L|13:308,2,55,8|2|8,3:2|3:2|3:2,0:0:0:0:
116,292,80687,1,2,3:2:0:0:
116,292,80854,1,8,3:2:0:0:
180,368,81187,1,8,3:2:0:0:
244,292,81520,2,0,P|295:276|347:292,1,110,8|8,3:2|3:2,0:0:0:0:
388,320,82020,1,2,3:2:0:0:
428,292,82187,2,0,L|436:237,1,55,8|2,3:2|3:2,0:0:0:0:
444,188,82520,1,8,3:2:0:0:
460,88,82854,6,0,L|405:80,1,55,8|2,3:2|3:2,0:0:0:0:
356,72,83187,2,0,L|301:80,1,55,8|2,3:2|3:2,0:0:0:0:
252,88,83520,2,0,L|144:72,1,110,8|8,3:2|3:2,0:0:0:0:
128,168,84187,2,0,L|236:184,1,110,8|8,3:2|3:2,0:0:0:0:
284,192,84687,1,2,3:2:0:0:
332,200,84853,2,0,L|324:255,1,55,8|2,3:2|3:2,0:0:0:0:
316,304,85187,1,8,3:2:0:0:
416,316,85520,6,0,L|408:371,2,55,8|2|8,3:2|3:2|3:2,0:0:0:0:
424,268,86020,1,2,3:2:0:0:
424,268,86187,1,8,3:2:0:0:
440,172,86520,2,0,L|448:117,1,55,8|2,3:2|3:2,0:0:0:0:
456,68,86854,2,0,B|404:48|404:88|350:68,1,110,8|8,3:2|3:2,0:0:0:0:
256,64,87520,2,0,P|228:68|202:64,1,55,8|2,3:2|3:2,0:0:0:0:
152,48,87854,1,8,3:2:0:0:
76,112,88187,6,0,B|84:144|84:144|68:184|68:184|76:216,1,110,8|8,3:2|3:2,0:0:0:0:
88,264,88687,1,2,3:2:0:0:
100,312,88854,2,0,L|155:304,1,55,8|2,3:2|3:2,0:0:0:0:
204,296,89188,1,8,3:2:0:0:
300,280,89520,2,0,L|284:172,1,110,8|8,3:2|3:2,0:0:0:0:
276,124,90020,1,8,3:2:0:0:
268,76,90187,2,0,L|323:68,1,55,8|8,3:2|3:2,0:0:0:0:
372,60,90520,1,8,3:2:0:0:
476,44,90854,6,0,L|484:99,1,55,8|2,3:2|3:2,0:0:0:0:
492,148,91187,1,8,3:2:0:0:
508,244,91520,2,0,L|453:252,1,55,8|2,3:2|3:2,0:0:0:0:
404,260,91854,2,0,L|349:252,1,55,8|2,3:2|3:2,0:0:0:0:
300,244,92187,1,8,3:2:0:0:
248,328,92520,2,0,L|193:320,1,55,8|8,3:2|3:2,0:0:0:0:
144,312,92854,2,0,L|89:320,1,55,8|8,3:2|3:2,0:0:0:0:
40,328,93187,1,8,3:2:0:0:
24,232,93520,6,0,B|16:200|16:200|32:160|32:160|24:128,1,110,8|8,3:2|3:2,0:0:0:0:
12,80,94020,1,2,3:2:0:0:
4,32,94187,2,0,L|59:24,1,55,8|2,3:2|3:2,0:0:0:0:
108,16,94521,1,8,3:2:0:0:
204,0,94854,1,8,3:2:0:0:
220,96,95187,2,0,L|228:151,1,55,8|2,3:2|3:2,0:0:0:0:
236,200,95520,2,0,L|228:255,1,55,8|10,3:2|3:2,0:0:0:0:
220,304,95854,1,8,3:2:0:0:
316,320,96187,6,0,L|424:336,1,110,8|10,3:2|3:2,0:0:0:0:
472,344,96687,1,8,3:2:0:0:
480,296,96854,2,0,L|488:241,1,55,8|2,3:2|3:2,0:0:0:0:
496,192,97187,1,10,3:2:0:0:
512,96,97520,6,0,L|404:80,1,110,8|8,3:2|3:2,0:0:0:0:
356,72,98020,1,10,3:2:0:0:
348,120,98187,2,0,L|340:175,1,55,8|10,3:2|3:2,0:0:0:0:
332,224,98520,1,8,3:2:0:0:
316,320,98854,6,0,B|264:340|264:300|210:320,1,110,0|8,3:2|3:2,0:0:0:0:
165,348,99354,1,8,3:2:0:0:
124,320,99520,2,0,P|96:316|70:320,2,55,8|2|0,3:2|3:2|3:2,0:0:0:0:
164,228,100187,6,0,B|184:176|144:176|164:122,1,110,8|8,3:2|3:2,0:0:0:0:
192,77,100687,1,2,3:2:0:0:
192,77,100854,1,8,3:2:0:0:
264,148,101187,1,8,3:2:0:0:
332,76,101520,2,0,L|331:20,2,55,8|2|8,3:2|3:2|3:2,0:0:0:0:
372,108,102020,1,2,3:2:0:0:
412,76,102187,2,0,L|412:20,2,55,8|2|8,3:2|3:2|3:2,0:0:0:0:
480,148,102854,6,0,P|496:199|480:251,1,110,8|8,3:2|3:2,0:0:0:0:
452,292,103354,1,2,3:2:0:0:
452,292,103520,1,8,3:2:0:0:
372,232,103854,2,0,B|340:240|340:240|300:224|300:224|268:232,1,110,2|0,3:2|3:2,0:0:0:0:
188,292,104520,6,0,L|133:300,1,55,8|10,3:2|3:2,0:0:0:0:
84,308,104854,2,0,L|76:253,1,55,8|10,3:2|3:2,0:0:0:0:
68,204,105187,1,2,3:2:0:0:
52,108,105520,6,0,B|104:88|104:128|158:108,1,110,8|8,3:2|3:2,0:0:0:0:
203,80,106020,1,10,3:2:0:0:
203,80,106187,1,8,3:2:0:0:
272,152,106520,1,8,3:2:0:0:
345,81,106854,2,0,L|344:25,2,55,8|10|8,3:2|3:2|3:2,0:0:0:0:
385,113,107354,1,10,3:2:0:0:
425,81,107520,2,0,L|425:25,2,55,8|10|8,3:2|3:2|3:2,0:0:0:0:
496,152,108187,6,0,P|512:203|496:255,1,110,8|8,3:2|3:2,0:0:0:0:
424,324,108853,1,8,3:2:0:0:
352,256,109187,1,12,3:2:0:0:
280,324,109520,5,4,3:2:0:0:
